自购原抓音乐圈:只有自购、合购、原抓级高解析(hires、sacd、dsd)正版音乐资源分享!【点我打开
极速无线网卡:千兆无线网卡、服务器网卡、USB接口台式机笔记本网卡 硬盘代考无损音乐!【点我打开
广告

[摇滚] Marillion - Out of the box [2016, Neo-Prog, 3 x Blu-ray, 1080i]

[复制链接]
lz189 发表于 2021-4-13 15:34:06 | 显示全部楼层 |阅读模式 打印 上一主题 下一主题
Marillion - Out of the box
Жанр: Neo-Prog
Продолжительность: 2:00:12+3:47:51+2:17:15
Год выпуска: 2016
Доп. информация: раздаю коробочку из шкафчика tatuk'a. Вот что он добавил:
Очередной Марильён Уик-енд из Port Zelande, The Netherlands. Всё как обычно, всё на высшем уровне. Одних видеооператоров семь человек. Хотя картинка как раз мне показалась недостаточно яркой... Но звук хорош. Жаль, не люблю их

Издано в чёрной коробочке, есть 16-страничный буклетик с фотками. В допах можно позырить "марблы" - это такие видеоклипы, которые показываются на экране за спинами музыкантов во время концерта. С отличным приложенным звуком, понятное дело.
Надеюсь порадовать добряков cindiente и marillion13


BD1: Waves And Numb3rs - Friday March 20, 2015
Tracklist:
  • Between You and Me
  • Quartz
  • Map of the World
  • When I Meet God
  • Fruit of the Wild Rose
  • Separated Out
  • This is the 21st Century
  • If My Heart were a Ball It would Roll Uphill
  • This Strange Engine
  • Gaza
  • Three Minute Boy
    [/ol]
    Качество: Blu-ray
    Разрешение видео/развертка: 1080i
    Контейнер: BDMV
    Видео кодек: H.264
    Аудио кодек: PCM/DTS-HD
    Видео: MPEG-4 AVC Video / 30000 kbps / 1080i / 29.970 fps / 16:9 / High Profile 4.1
    Аудио: LPCM Audio / 2.0 / 96 kHz / 4608 kbps / 24-bit
    Аудио 2: DTS-HD Master Audio / 5.1 / 96 kHz / 8171 kbps / 24-bit (DTS Core: 5.1 / 48 kHz / 768 kbps / 24-bit)
    Отчёт MediaInfo / BDInfo

    Disc Title:     MARILLION_MARBLES_FRIDAY
    Disc Size:      40,843,794,444 bytes
    Protection:     AACS
    BD-Java:        No
    BDInfo:         0.5.8
    Notes:
    BDINFO HOME:
      Cinema Squid
        http://www.cinemasquid.com/blu-ray/tools/bdinfo
    INCLUDES FORUMS REPORT FOR:
      AVS Forum Blu-ray Audio and Video Specifications Thread
        http://www.avsforum.com/avs-vb/showthread.php?t=1155731
    ********************
    PLAYLIST: 00000.MPLS
    ********************

    Код:

                                                                                    Total   Video
    Title                                                           Codec   Length  Movie Size      Disc Size       Bitrate Bitrate Main Audio Track                          Secondary Audio Track
    -----                                                           ------  ------- --------------  --------------  ------- ------- ------------------                        ---------------------
    00000.MPLS                                                      AVC     2:00:12 40,537,810,944  40,843,794,444  44.97   30.00   LPCM 2.0 4608Kbps (96kHz/24-bit)          DTS-HD Master 5.1 8171Kbps (96kHz/24-bit)

    Код:
    DISC INFO:
    Disc Title:     MARILLION_MARBLES_FRIDAY
    Disc Size:      40,843,794,444 bytes
    Protection:     AACS
    BD-Java:        No
    BDInfo:         0.5.8
    PLAYLIST REPORT:
    Name:                   00000.MPLS
    Length:                 2:00:12.038 (h:m:s.ms)
    Size:                   40,537,810,944 bytes
    Total Bitrate:          44.97 Mbps
    VIDEO:
    Codec                   Bitrate             Description
    -----                   -------             -----------
    MPEG-4 AVC Video        30000 kbps          1080i / 29.970 fps / 16:9 / High Profile 4.1
    AUDIO:
    Codec                           Language        Bitrate         Description
    -----                           --------        -------         -----------
    LPCM Audio                      English         4608 kbps       2.0 / 96 kHz / 4608 kbps / 24-bit
    DTS-HD Master Audio             English         8171 kbps       5.1 / 96 kHz / 8171 kbps / 24-bit (DTS Core: 5.1 / 48 kHz / 768 kbps / 24-bit)
    FILES:
    Name            Time In         Length          Size            Total Bitrate
    ----            -------         ------          ----            -------------
    00000.M2TS      0:00:00.000     2:00:12.038     40,537,810,944  44,967
    CHAPTERS:
    Number          Time In         Length          Avg Video Rate  Max 1-Sec Rate  Max 1-Sec Time  Max 5-Sec Rate  Max 5-Sec Time  Max 10Sec Rate  Max 10Sec Time  Avg Frame Size  Max Frame Size  Max Frame Time
    ------          -------         ------          --------------  --------------  --------------  --------------  --------------  --------------  --------------  --------------  --------------  --------------
    1               0:00:00.000     0:06:39.999     30,004 kbps     35,014 kbps     00:04:37.844    31,339 kbps     00:04:33.840    30,472 kbps     00:04:28.868    125,132 bytes   320,995 bytes   00:01:53.680
    2               0:06:39.999     0:10:42.975     30,000 kbps     36,486 kbps     00:10:50.750    31,347 kbps     00:07:11.130    30,610 kbps     00:07:06.325    125,126 bytes   370,461 bytes   00:11:23.082
    3               0:17:22.975     0:05:24.991     30,000 kbps     33,344 kbps     00:17:45.164    30,539 kbps     00:22:07.125    30,309 kbps     00:19:49.488    125,123 bytes   335,611 bytes   00:19:07.079
    4               0:22:47.966     0:09:42.381     30,001 kbps     35,890 kbps     00:27:21.773    31,442 kbps     00:27:17.636    30,636 kbps     00:27:12.564    125,129 bytes   340,821 bytes   00:27:22.273
    5               0:32:30.348     0:07:02.622     29,999 kbps     33,307 kbps     00:38:30.141    30,656 kbps     00:37:57.041    30,263 kbps     00:36:09.167    125,122 bytes   326,749 bytes   00:35:14.679
    6               0:39:32.970     0:07:08.027     29,998 kbps     35,288 kbps     00:42:20.137    31,177 kbps     00:42:16.166    30,676 kbps     00:42:11.128    125,115 bytes   332,150 bytes   00:46:21.278
    7               0:46:40.998     0:10:44.977     30,004 kbps     35,152 kbps     00:48:29.406    30,701 kbps     00:48:25.435    30,407 kbps     00:48:20.397    125,140 bytes   326,552 bytes   00:48:46.957
    8               0:57:25.975     0:10:33.699     29,998 kbps     35,434 kbps     01:06:17.606    31,274 kbps     01:06:13.602    30,737 kbps     01:06:08.631    125,118 bytes   365,708 bytes   01:07:31.514
    9               1:07:59.675     0:18:07.386     29,998 kbps     35,587 kbps     01:24:38.073    30,898 kbps     01:24:34.035    30,436 kbps     01:24:19.287    125,118 bytes   333,491 bytes   01:24:28.997
    10              1:26:07.061     0:20:28.727     30,002 kbps     35,672 kbps     01:43:43.250    31,301 kbps     01:43:39.213    30,608 kbps     01:43:35.075    125,133 bytes   382,509 bytes   01:43:44.785
    11              1:46:35.789     0:13:36.248     29,998 kbps     33,117 kbps     01:52:56.736    30,649 kbps     01:53:00.974    30,346 kbps     01:53:11.918    125,121 bytes   343,970 bytes   01:49:40.674
    STREAM DIAGNOSTICS:
    File            PID             Type            Codec           Language                Seconds                 Bitrate                 Bytes           Packets
    ----            ---             ----            -----           --------                --------------          --------------          -------------   -----
    00000.M2TS      4113 (0x1011)   0x1B            AVC                                     7211.905                30,001                  27,045,258,521  147,113,292
    00000.M2TS      4352 (0x1100)   0x80            LPCM            eng (English)           7211.905                4,614                   4,159,189,440   23,074,560
    00000.M2TS      4353 (0x1101)   0x86            DTS-HD MA       eng (English)           7211.905                8,171                   7,366,454,764   40,704,956


    QUICK SUMMARY:
    Disc Title: MARILLION_MARBLES_FRIDAY
    Disc Size: 40,843,794,444 bytes
    Protection: AACS
    BD-Java: No
    Playlist: 00000.MPLS
    Size: 40,537,810,944 bytes
    Length: 2:00:12.038
    Total Bitrate: 44.97 Mbps
    Video: MPEG-4 AVC Video / 30000 kbps / 1080i / 29.970 fps / 16:9 / High Profile 4.1
    Audio: English / LPCM Audio / 2.0 / 96 kHz / 4608 kbps / 24-bit
    Audio: English / DTS-HD Master Audio / 5.1 / 96 kHz / 8171 kbps / 24-bit (DTS Core: 5.1 / 48 kHz / 768 kbps / 24-bit)


    Скриншоты








    BD2: Marbles In The Park - Saturday March 21, 2015
    Tracklist:
  • The Invisible Man
  • Marbles I
  • Genie
  • Fantastic Place
  • The Only Unforgivable Thing
  • Marbles II
  • Ocean Cloud
  • Marbles III
  • The Damage
  • Don't Hurt Yourself
  • You're Gone
  • Angelina
  • Drilling Holes
  • Marbles IV
  • Neverland
  • Out of This World
  • King
  • Sounds That Can't Be Made
    [/ol]
    Extras:
  • 'Marbles' projection film
  • The Invisible Man
  • Marbles I Genie
  • Fantastic Place
  • The Only Unforgivable Thing
  • Marbles II
  • Ocean Cloud
  • Marbles III The Damage
  • Don't Hurt Yourself
  • You're Gone
  • Angelina
  • Drilling Holes
  • Marbles IV Neverland
    [/ol]
  • 'Unconventional' documentary trailer
    [/ol]
    Качество: Blu-ray
    Разрешение видео/развертка: 1080i
    Контейнер: BDMV
    Видео кодек: H.264
    Аудио кодек: PCM/DTS-HD
    Видео: MPEG-4 AVC Video / 30000 kbps / 1080i / 29.970 fps / 16:9 / High Profile 4.1
    Аудио: LPCM Audio / 2.0 / 96 kHz / 4608 kbps / 24-bit
    Аудио 2: DTS-HD Master Audio / 5.1 / 96 kHz / 8253 kbps / 24-bit (DTS Core: 5.1 / 48 kHz / 1509 kbps / 24-bit)
    Отчёт MediaInfo / BDInfo

    Disc Title:     MARILLION_MARBLES_SATURDAY
    Disc Size:      48,236,334,526 bytes
    Protection:     AACS
    BD-Java:        No
    BDInfo:         0.5.8
    Notes:
    BDINFO HOME:
      Cinema Squid
        http://www.cinemasquid.com/blu-ray/tools/bdinfo
    INCLUDES FORUMS REPORT FOR:
      AVS Forum Blu-ray Audio and Video Specifications Thread
        http://www.avsforum.com/avs-vb/showthread.php?t=1155731
    ********************
    PLAYLIST: 00000.MPLS
    ********************

    Код:

                                                                                    Total   Video
    Title                                                           Codec   Length  Movie Size      Disc Size       Bitrate Bitrate Main Audio Track                          Secondary Audio Track
    -----                                                           ------  ------- --------------  --------------  ------- ------- ------------------                        ---------------------
    00000.MPLS                                                      AVC     2:14:24 28,679,417,856  48,236,334,526  28.45   14.00   LPCM 2.0 4608Kbps (96kHz/24-bit)          DTS-HD Master 5.1 8253Kbps (96kHz/24-bit)

    Код:
    DISC INFO:
    Disc Title:     MARILLION_MARBLES_SATURDAY
    Disc Size:      48,236,334,526 bytes
    Protection:     AACS
    BD-Java:        No
    BDInfo:         0.5.8
    PLAYLIST REPORT:
    Name:                   00000.MPLS
    Length:                 2:14:24.556 (h:m:s.ms)
    Size:                   28,679,417,856 bytes
    Total Bitrate:          28.45 Mbps
    VIDEO:
    Codec                   Bitrate             Description
    -----                   -------             -----------
    MPEG-4 AVC Video        13996 kbps          1080i / 29.970 fps / 16:9 / High Profile 4.1
    AUDIO:
    Codec                           Language        Bitrate         Description
    -----                           --------        -------         -----------
    LPCM Audio                      English         4608 kbps       2.0 / 96 kHz / 4608 kbps / 24-bit
    DTS-HD Master Audio             English         8253 kbps       5.1 / 96 kHz / 8253 kbps / 24-bit (DTS Core: 5.1 / 48 kHz / 1509 kbps / 24-bit)
    FILES:
    Name            Time In         Length          Size            Total Bitrate
    ----            -------         ------          ----            -------------
    00000.M2TS      0:00:00.000     2:14:24.556     28,679,417,856  28,450
    CHAPTERS:
    Number          Time In         Length          Avg Video Rate  Max 1-Sec Rate  Max 1-Sec Time  Max 5-Sec Rate  Max 5-Sec Time  Max 10Sec Rate  Max 10Sec Time  Avg Frame Size  Max Frame Size  Max Frame Time
    ------          -------         ------          --------------  --------------  --------------  --------------  --------------  --------------  --------------  --------------  --------------  --------------
    1               0:00:00.000     0:15:31.930     13,416 kbps     23,555 kbps     00:02:15.401    22,180 kbps     00:13:42.388    21,048 kbps     00:14:13.319    55,956 bytes    308,510 bytes   00:05:39.539
    2               0:15:31.930     0:01:56.549     13,508 kbps     23,108 kbps     00:15:45.077    21,885 kbps     00:16:30.222    19,167 kbps     00:15:37.803    56,338 bytes    231,522 bytes   00:17:01.120
    3               0:17:28.480     0:04:52.525     13,632 kbps     25,168 kbps     00:21:02.194    21,977 kbps     00:20:52.184    19,162 kbps     00:20:50.649    56,856 bytes    215,914 bytes   00:21:02.861
    4               0:22:21.006     0:06:22.715     14,222 kbps     23,845 kbps     00:24:57.963    22,198 kbps     00:27:41.593    20,473 kbps     00:27:40.025    59,316 bytes    303,225 bytes   00:25:00.599
    5               0:28:43.721     0:06:56.382     12,664 kbps     27,964 kbps     00:34:12.850    22,041 kbps     00:33:24.135    21,052 kbps     00:32:31.282    52,819 bytes    277,392 bytes   00:32:16.634
    6               0:35:40.104     0:02:57.210     13,522 kbps     23,976 kbps     00:37:40.791    22,030 kbps     00:37:10.695    19,152 kbps     00:37:09.160    56,397 bytes    253,537 bytes   00:36:46.237
    7               0:38:37.314     0:17:30.582     13,876 kbps     32,734 kbps     00:38:56.067    24,002 kbps     00:38:52.063    21,973 kbps     00:38:47.058    57,876 bytes    462,524 bytes   00:38:56.801
    8               0:56:07.897     0:01:51.744     11,744 kbps     23,894 kbps     00:57:58.107    18,757 kbps     00:57:10.193    15,091 kbps     00:57:03.086    48,983 bytes    273,666 bytes   00:57:58.842
    9               0:57:59.642     0:04:50.123     14,465 kbps     27,927 kbps     01:01:12.435    21,950 kbps     01:00:56.586    20,107 kbps     01:00:52.715    60,329 bytes    302,838 bytes   01:02:15.631
    10              1:02:49.766     0:06:37.897     14,177 kbps     24,854 kbps     01:04:11.480    21,960 kbps     01:06:21.744    21,752 kbps     01:06:48.571    59,130 bytes    261,209 bytes   01:05:58.220
    11              1:09:27.663     0:06:55.915     14,409 kbps     26,686 kbps     01:15:22.718    22,639 kbps     01:12:54.870    21,023 kbps     01:12:29.344    60,098 bytes    366,289 bytes   01:12:59.742
    12              1:16:23.579     0:10:43.075     12,467 kbps     23,320 kbps     01:18:20.429    22,037 kbps     01:18:19.928    20,392 kbps     01:18:18.393    51,997 bytes    229,109 bytes   01:18:23.065
    13              1:27:06.654     0:05:02.869     16,042 kbps     24,141 kbps     01:28:44.152    22,198 kbps     01:29:56.924    21,957 kbps     01:29:54.722    66,908 bytes    234,210 bytes   01:29:44.178
    14              1:32:09.523     0:01:32.092     14,011 kbps     24,030 kbps     01:32:26.474    22,463 kbps     01:32:22.470    18,342 kbps     01:33:30.871    58,436 bytes    246,919 bytes   01:32:14.962
    15              1:33:41.616     0:10:48.647     13,970 kbps     25,397 kbps     01:42:12.926    22,194 kbps     01:38:19.760    20,912 kbps     01:42:32.312    58,268 bytes    258,719 bytes   01:40:53.614
    16              1:44:30.263     0:07:33.453     15,682 kbps     29,159 kbps     01:48:29.536    22,956 kbps     01:51:25.378    22,017 kbps     01:51:26.546    65,407 bytes    331,808 bytes   01:51:29.949
    17              1:52:03.717     0:08:38.518     14,409 kbps     25,820 kbps     01:52:48.394    22,587 kbps     01:52:44.390    19,919 kbps     01:55:42.502    60,098 bytes    595,297 bytes   01:52:49.395
    18              2:00:42.235     0:13:42.321     14,791 kbps     24,047 kbps     02:06:28.314    22,021 kbps     02:04:31.130    21,352 kbps     02:09:34.533    61,694 bytes    228,771 bytes   02:01:52.905
    STREAM DIAGNOSTICS:
    File            PID             Type            Codec           Language                Seconds                 Bitrate                 Bytes           Packets
    ----            ---             ----            -----           --------                --------------          --------------          -------------   -----
    00000.M2TS      4113 (0x1011)   0x1B            AVC                                     8064.423                13,996                  14,108,927,279  76,819,318
    00000.M2TS      4352 (0x1100)   0x80            LPCM            eng (English)           8064.423                4,614                   4,650,992,192   25,803,008
    00000.M2TS      4353 (0x1101)   0x86            DTS-HD MA       eng (English)           8064.423                8,254                   8,319,981,048   46,479,482


    QUICK SUMMARY:
    Disc Title: MARILLION_MARBLES_SATURDAY
    Disc Size: 48,236,334,526 bytes
    Protection: AACS
    BD-Java: No
    Playlist: 00000.MPLS
    Size: 28,679,417,856 bytes
    Length: 2:14:24.556
    Total Bitrate: 28.45 Mbps
    Video: MPEG-4 AVC Video / 13996 kbps / 1080i / 29.970 fps / 16:9 / High Profile 4.1
    Audio: English / LPCM Audio / 2.0 / 96 kHz / 4608 kbps / 24-bit
    Audio: English / DTS-HD Master Audio / 5.1 / 96 kHz / 8253 kbps / 24-bit (DTS Core: 5.1 / 48 kHz / 1509 kbps / 24-bit)


    Скриншоты








    BD3: Singles Night - Sunday March 22, 2015
    Tracklist:
  • Market Square Heroes
  • Garden Party
  • Kayleigh
  • Lavender
  • Heart of Lothian
  • Warm Wet Circles
  • Sugar Mice
  • Incommunicado
  • Hooks In You
  • The Uninvited Guest
  • No One Can
  • Dry Land
  • Sympathy
  • The Great Escape
  • Alone Again in the Lap of Luxury
  • Beautiful
  • Man of a Thousand Faces
  • 80 Days
  • These Chains
  • See It Like A Baby
  • Thankyou Whoever You Are
  • Whatever is Wrong With You
  • Power
  • Hocus Pocus
    [/ol]
    Качество: Blu-ray
    Разрешение видео/развертка: 1080i
    Контейнер: BDMV
    Видео кодек: H.264
    Аудио кодек: PCM/DTS-HD
    Видео: MPEG-4 AVC Video / 25000 kbps / 1080i / 29.970 fps / 16:9 / High Profile 4.1
    Аудио: LPCM Audio / 2.0 / 96 kHz / 4608 kbps / 24-bit
    Аудио 2: TS-HD Master Audio / 5.1 / 96 kHz / 8253 kbps / 24-bit (DTS Core: 5.1 / 48 kHz / 1509 kbps / 24-bit)
    Отчёт MediaInfo / BDInfo

    Disc Title:     MARILLION_MARBLES_SUNDAY
    Disc Size:      41,467,124,672 bytes
    Protection:     AACS
    BD-Java:        No
    BDInfo:         0.5.8
    Notes:
    BDINFO HOME:
      Cinema Squid
        http://www.cinemasquid.com/blu-ray/tools/bdinfo
    INCLUDES FORUMS REPORT FOR:
      AVS Forum Blu-ray Audio and Video Specifications Thread
        http://www.avsforum.com/avs-vb/showthread.php?t=1155731
    ********************
    PLAYLIST: 00000.MPLS
    ********************

    Код:

                                                                                    Total   Video
    Title                                                           Codec   Length  Movie Size      Disc Size       Bitrate Bitrate Main Audio Track                          Secondary Audio Track
    -----                                                           ------  ------- --------------  --------------  ------- ------- ------------------                        ---------------------
    00000.MPLS                                                      AVC     2:17:15 40,908,072,960  41,467,124,672  39.74   25.00   LPCM 2.0 4608Kbps (96kHz/24-bit)          DTS-HD Master 5.1 8155Kbps (96kHz/24-bit)

    Код:
    DISC INFO:
    Disc Title:     MARILLION_MARBLES_SUNDAY
    Disc Size:      41,467,124,672 bytes
    Protection:     AACS
    BD-Java:        No
    BDInfo:         0.5.8
    PLAYLIST REPORT:
    Name:                   00000.MPLS
    Length:                 2:17:15.126 (h:m:s.ms)
    Size:                   40,908,072,960 bytes
    Total Bitrate:          39.74 Mbps
    VIDEO:
    Codec                   Bitrate             Description
    -----                   -------             -----------
    MPEG-4 AVC Video        25000 kbps          1080i / 29.970 fps / 16:9 / High Profile 4.1
    AUDIO:
    Codec                           Language        Bitrate         Description
    -----                           --------        -------         -----------
    LPCM Audio                      English         4608 kbps       2.0 / 96 kHz / 4608 kbps / 24-bit
    DTS-HD Master Audio             English         8155 kbps       5.1 / 96 kHz / 8155 kbps / 24-bit (DTS Core: 5.1 / 48 kHz / 768 kbps / 24-bit)
    FILES:
    Name            Time In         Length          Size            Total Bitrate
    ----            -------         ------          ----            -------------
    00000.M2TS      0:00:00.000     2:17:15.126     40,908,072,960  39,740
    CHAPTERS:
    Number          Time In         Length          Avg Video Rate  Max 1-Sec Rate  Max 1-Sec Time  Max 5-Sec Rate  Max 5-Sec Time  Max 10Sec Rate  Max 10Sec Time  Avg Frame Size  Max Frame Size  Max Frame Time
    ------          -------         ------          --------------  --------------  --------------  --------------  --------------  --------------  --------------  --------------  --------------  --------------
    1               0:00:00.000     0:05:26.859     25,003 kbps     29,225 kbps     00:00:18.685    25,864 kbps     00:03:14.360    25,431 kbps     00:00:04.838    104,275 bytes   485,510 bytes   00:00:01.968
    2               0:05:26.859     0:07:14.901     25,000 kbps     29,277 kbps     00:07:27.480    25,873 kbps     00:07:23.509    25,420 kbps     00:07:39.425    104,270 bytes   390,926 bytes   00:12:07.059
    3               0:12:41.761     0:04:18.257     25,001 kbps     31,365 kbps     00:16:27.186    25,909 kbps     00:16:23.182    25,475 kbps     00:16:15.307    104,275 bytes   405,637 bytes   00:15:53.819
    4               0:17:00.019     0:02:42.161     24,996 kbps     28,648 kbps     00:18:16.762    25,677 kbps     00:18:59.738    25,379 kbps     00:17:49.701    104,256 bytes   396,661 bytes   00:18:58.370
    5               0:19:42.180     0:04:18.258     25,001 kbps     29,571 kbps     00:22:30.182    25,851 kbps     00:22:33.585    25,471 kbps     00:19:58.764    104,273 bytes   394,497 bytes   00:19:57.496
    6               0:24:00.439     0:04:35.608     24,998 kbps     30,040 kbps     00:26:14.406    25,765 kbps     00:24:27.499    25,400 kbps     00:26:37.062    104,264 bytes   423,158 bytes   00:26:53.778
    7               0:28:36.047     0:06:27.053     25,003 kbps     29,233 kbps     00:31:41.432    25,886 kbps     00:29:04.342    25,405 kbps     00:30:25.557    104,282 bytes   414,795 bytes   00:29:04.809
    8               0:35:03.100     0:05:21.320     24,999 kbps     29,303 kbps     00:37:02.186    25,824 kbps     00:36:34.625    25,398 kbps     00:39:03.941    104,268 bytes   404,936 bytes   00:39:04.375
    9               0:40:24.421     0:03:01.281     24,997 kbps     31,346 kbps     00:40:31.095    25,910 kbps     00:41:30.354    25,429 kbps     00:43:00.477    104,257 bytes   467,537 bytes   00:42:25.342
    10              0:43:25.703     0:04:44.183     25,004 kbps     29,296 kbps     00:47:29.479    25,846 kbps     00:47:25.475    25,543 kbps     00:47:20.504    104,288 bytes   415,671 bytes   00:43:57.134
    11              0:48:09.886     0:05:31.297     24,996 kbps     28,188 kbps     00:50:21.284    25,733 kbps     00:51:33.223    25,344 kbps     00:51:32.589    104,255 bytes   411,686 bytes   00:51:33.290
    12              0:53:41.184     0:04:53.326     25,002 kbps     29,148 kbps     00:55:17.247    25,809 kbps     00:55:17.347    25,401 kbps     00:56:45.068    104,278 bytes   383,116 bytes   00:55:21.217
    13              0:58:34.511     0:03:44.223     24,999 kbps     28,230 kbps     00:59:22.592    25,769 kbps     00:59:43.713    25,372 kbps     00:59:22.592    104,265 bytes   392,045 bytes   00:59:44.247
    14              1:02:18.735     0:04:59.299     24,999 kbps     28,253 kbps     01:05:20.149    25,759 kbps     01:03:47.523    25,363 kbps     01:03:47.590    104,268 bytes   407,373 bytes   01:06:58.514
    15              1:07:18.034     0:05:58.358     25,001 kbps     29,246 kbps     01:12:03.352    25,793 kbps     01:12:31.280    25,431 kbps     01:09:29.498    104,274 bytes   377,185 bytes   01:12:05.487
    16              1:13:16.392     0:07:02.422     25,000 kbps     31,181 kbps     01:15:29.525    26,167 kbps     01:17:13.328    25,651 kbps     01:15:20.516    104,273 bytes   438,943 bytes   01:15:30.359
    17              1:20:18.814     0:10:24.623     24,999 kbps     30,320 kbps     01:23:41.149    26,349 kbps     01:26:27.182    25,509 kbps     01:23:32.073    104,265 bytes   474,649 bytes   01:20:26.321
    18              1:30:43.438     0:05:54.487     25,000 kbps     28,349 kbps     01:33:28.869    25,753 kbps     01:35:19.480    25,394 kbps     01:33:56.197    104,273 bytes   370,979 bytes   01:33:29.070
    19              1:36:37.925     0:05:47.213     25,001 kbps     29,552 kbps     01:39:36.804    25,739 kbps     01:39:20.921    25,563 kbps     01:39:36.870    104,277 bytes   400,082 bytes   01:39:21.121
    20              1:42:25.138     0:04:36.276     24,999 kbps     29,979 kbps     01:43:52.726    25,846 kbps     01:43:48.755    25,446 kbps     01:43:43.750    104,265 bytes   395,103 bytes   01:42:49.930
    21              1:47:01.415     0:05:22.321     25,002 kbps     27,683 kbps     01:51:43.997    25,602 kbps     01:51:46.633    25,368 kbps     01:51:46.433    104,278 bytes   397,146 bytes   01:51:46.966
    22              1:52:23.736     0:05:32.332     24,998 kbps     31,693 kbps     01:55:02.328    26,501 kbps     01:54:58.324    25,758 kbps     01:54:53.319    104,263 bytes   389,436 bytes   01:55:02.128
    23              1:57:56.069     0:09:53.626     25,003 kbps     32,249 kbps     01:59:14.547    26,056 kbps     02:07:09.955    25,554 kbps     02:07:04.950    104,283 bytes   600,779 bytes   02:07:14.893
    24              2:07:49.695     0:09:25.431     24,995 kbps     31,767 kbps     02:12:32.411    26,156 kbps     02:12:28.407    25,466 kbps     02:12:23.435    104,258 bytes   485,510 bytes   02:15:12.504
    STREAM DIAGNOSTICS:
    File            PID             Type            Codec           Language                Seconds                 Bitrate                 Bytes           Packets
    ----            ---             ----            -----           --------                --------------          --------------          -------------   -----
    00000.M2TS      4113 (0x1011)   0x1B            AVC                                     8234.993                25,000                  25,734,705,685  140,006,898
    00000.M2TS      4352 (0x1100)   0x80            LPCM            eng (English)           8234.993                4,614                   4,749,371,200   26,348,800
    00000.M2TS      4353 (0x1101)   0x86            DTS-HD MA       eng (English)           8234.993                8,155                   8,394,964,616   46,431,284


    QUICK SUMMARY:
    Disc Title: MARILLION_MARBLES_SUNDAY
    Disc Size: 41,467,124,672 bytes
    Protection: AACS
    BD-Java: No
    Playlist: 00000.MPLS
    Size: 40,908,072,960 bytes
    Length: 2:17:15.126
    Total Bitrate: 39.74 Mbps
    Video: MPEG-4 AVC Video / 25000 kbps / 1080i / 29.970 fps / 16:9 / High Profile 4.1
    Audio: English / LPCM Audio / 2.0 / 96 kHz / 4608 kbps / 24-bit
    Audio: English / DTS-HD Master Audio / 5.1 / 96 kHz / 8155 kbps / 24-bit (DTS Core: 5.1 / 48 kHz / 768 kbps / 24-bit)


    Скриншоты








    Marillion are:
  • H
  • Mark Kelly
  • Ian Mosley
  • Steve Rothery
  • Pete Trewavas
    [/ol]
                                                                                           
                           
                           
                           
                           
                           
                                    磁力下载:
                                                                   
                                           
    游客,本主题需向作者支付 7音乐币 才能浏览,金币充值, 免回复、免金币,直接查看内容请开通VIP支付

                                                   
  • 121.85 GB
  • 温馨提示

    记得善用社区搜索功能,那里可能会有你想要的资源;论坛站内搜索

    如果你有什么需要的资源可以去资源求档发帖,求助社区的网友,我们会在第一时间给你回复哦;资源求档

    对于本社区网盘链接失效密码错误各种报错请在反馈板块反馈报错发帖,您的支持,是我们发展的最大动力;投诉建议

    回复

    使用道具 举报

    您需要登录后才可以回帖 登录 | 立即注册 微信登录

    本版积分规则

    关注0

    粉丝0

    帖子30121

    发布主题
    阅读排行更多+
    关闭

    站长推荐上一条 /1 下一条

    收藏帖子 返回列表 这是一个自定义按钮
    音乐分享,音乐下载。
    微信公众号
    微信号:hires_
    意见反馈:admin@maomicd.com

    加入我们的官方QQ群和微信群

    Powered by Discuz! X3.4 Archiver|手机版|小黑屋|捌零音乐论坛 ( 苏ICP备20015413号 )|( 苏公网安备 32030502000272号) 繁體

    GMT+8, 2021-5-7 00:11