自购原抓音乐圈:只有自购、合购、原抓级高解析(hires、sacd、dsd)正版音乐资源分享!【点我打开
极速无线网卡:千兆无线网卡、服务器网卡、USB接口台式机笔记本网卡 硬盘代考无损音乐!【点我打开
广告

[摇滚] Rainbow - Memories in Rock: Live In Germany [2016, Hard-Rock, BDRip, 1080p]

[复制链接]
10086 发表于 2021-4-13 15:34:05 | 显示全部楼层 |阅读模式 打印 上一主题 下一主题
Rainbow - Memories in Rock: Live In Germany
Жанр: Hard-Rock
Продолжительность: 02:31:16
Год выпуска: 2016
Треклист: [01:50:22]
01. Intro
02. Highway Star
03. Spotlight Kid
04. Mistreated
05. 16th Century Greensleeves
06. Since уоu Been Gone
07. Man On тhе Silver Mountain
08. Catch тhе Rainbow
09. Difficult To Cure (Beetuoven’S Ninth)
10. Perfect Strangers
11. Stargazer
12. Long Live Rock'n’Roll
13. Child In Time / Woman From Tokyo
14. Black Night
15. Smoke On Thе Water
Бонус: Alterative Night [00:40:54]
01. Spotlight Kid
02. Man On тhе Silver Mountain
03. Long Live Rock'n’Roll
04. Stargazer
05. Since You've Been Gone (Japan Only)
06. Catch The Rainbow (Japan Only)
Источник - Rainbow - Memories in Rock: Live In Germany [2016, Hard-Rock, Blu-ray, 1080i] спасибо tatuk
Источник 2 - Rainbow - Memories in Rock: Live In Germany (Japan) [2016, Hard Rock, Classic Rock, Blu-ray, 1080i] спасибо Vilenia
Внимание! Торрент-файл перезалит . В связи с выходом японского релиза, в рипы были внесены изменения
Все изменения указаны здесь
Качество: BDRip
Разрешение видео/развертка: 1080p
Контейнер: MKV
Видео кодек: H.264
Аудио кодек: FLAC, DTS
Видео: AVC, 1920x1080 (16:9), 29.970 fps, 9 200 Kbps
Аудио#1: FLAC, 48.0 KHz, 2 ch, 1 737 Kbps Kbps
Аудио#2: DTS, 48.0 KHz, 6 ch, 1510 Kbps
Бонус:
Видео: AVC, 1920x1080 (16:9), 29.970 fps, 9 750 Kbps
Аудио#1: FLAC, 48.0 KHz, 2 ch, 1 621 - 1 753 Kbps
Аудио#2: DTS, 48.0 KHz, 6 ch, 1510 Kbps
MediaInfo / x264Log

x264Log
Memories in Rock: Live In Germany

[Information] [22.11.2016 0:15:11] Standard error stream
-[Information] [22.11.2016 0:15:24] avs [info]: 1920x1080p 1:1 @ 30000/1001 fps (cfr)
-[Information] [22.11.2016 0:15:24] x264 [info]: using SAR=1/1
-[Information] [22.11.2016 0:15:24] x264 [info]: using cpu capabilities: MMX2 SSE2Fast SSSE3 SSE4.2 AVX
-[Information] [22.11.2016 0:15:24] x264 [info]: profile High, level 4.1
-[Information] [22.11.2016 14:56:15] x264 [info]: frame I:1247  Avg QP:19.21  size:179593
-[Information] [22.11.2016 14:56:15] x264 [info]: frame P:53574 Avg QP:21.58  size: 65104
-[Information] [22.11.2016 14:56:15] x264 [info]: frame B:143640 Avg QP:23.04  size: 27175
-[Information] [22.11.2016 14:56:15] x264 [info]: consecutive B-frames:  2.2%  3.7% 29.5% 31.5% 12.3% 18.0%  1.7%  0.8%  0.3%
-[Information] [22.11.2016 14:56:15] x264 [info]: mb I  I16..4:  7.1% 89.3%  3.5%
-[Information] [22.11.2016 14:56:15] x264 [info]: mb P  I16..4:  7.8% 22.6%  0.7%  P16..4: 48.1%  9.1%  6.7%  0.1%  0.0%    skip: 4.8%
-[Information] [22.11.2016 14:56:15] x264 [info]: mb B  I16..4:  1.0%  3.2%  0.1%  B16..8: 44.3%  6.1%  1.3%  direct:11.7%  skip:32.3%  L0:40.8% L1:50.1% BI: 9.0%
-[Information] [22.11.2016 14:56:15] x264 [info]: 8x8 transform intra:74.3% inter:80.9%
-[Information] [22.11.2016 14:56:15] x264 [info]: direct mvs  spatial:93.7% temporal:6.3%
-[Information] [22.11.2016 14:56:15] x264 [info]: coded y,uvDC,uvAC intra: 56.0% 71.8% 30.0% inter: 23.1% 36.9% 2.5%
-[Information] [22.11.2016 14:56:15] x264 [info]: i16 v,h,dc,p: 30% 16% 16% 38%
-[Information] [22.11.2016 14:56:15] x264 [info]: i8 v,h,dc,ddl,ddr,vr,hd,vl,hu: 12%  7% 17%  9% 11% 11% 10% 11% 11%
-[Information] [22.11.2016 14:56:15] x264 [info]: i4 v,h,dc,ddl,ddr,vr,hd,vl,hu: 12%  8%  4% 10% 15% 14% 13% 11% 13%
-[Information] [22.11.2016 14:56:15] x264 [info]: i8c dc,h,v,p: 42% 22% 22% 13%
-[Information] [22.11.2016 14:56:15] x264 [info]: Weighted P-Frames: Y:6.6% UV:5.0%
-[Information] [22.11.2016 14:56:15] x264 [info]: ref P L0: 53.8% 10.4% 22.6%  9.9%  3.1%  0.2%
-[Information] [22.11.2016 14:56:15] x264 [info]: ref B L0: 82.8% 14.0%  3.2%
-[Information] [22.11.2016 14:56:15] x264 [info]: ref B L1: 91.2%  8.8%
-[Information] [22.11.2016 14:56:15] x264 [info]: kb/s:9200.03
-[Information] [22.11.2016 14:56:15] encoded 198461 frames, 3.76 fps, 9200.03 kb/s
Bonus
[Information] [15.12.2016 9:37:54] Standard error stream
-[Information] [15.12.2016 9:37:59] avs [info]: 1920x1080p 1:1 @ 30000/1001 fps (cfr)
-[Information] [15.12.2016 9:37:59] x264 [info]: using SAR=1/1
-[Information] [15.12.2016 9:37:59] x264 [info]: using cpu capabilities: MMX2 SSE2Fast SSSE3 SSE4.2 AVX
-[Information] [15.12.2016 9:37:59] x264 [info]: profile High, level 4.1
-[Information] [15.12.2016 14:00:47] x264 [info]: frame I:347   Avg QP:19.35  size:193434
-[Information] [15.12.2016 14:00:47] x264 [info]: frame P:12605 Avg QP:22.30  size: 73685
-[Information] [15.12.2016 14:00:47] x264 [info]: frame B:39404 Avg QP:24.29  size: 28770
-[Information] [15.12.2016 14:00:47] x264 [info]: consecutive B-frames:  2.9%  4.5% 11.8% 23.2% 10.7% 43.6%  1.9%  0.4%  0.9%
-[Information] [15.12.2016 14:00:47] x264 [info]: mb I  I16..4: 20.6% 65.3% 14.0%
-[Information] [15.12.2016 14:00:47] x264 [info]: mb P  I16..4: 10.8% 22.5%  1.4%  P16..4: 43.7% 10.5%  6.5%  0.2%  0.1%    skip: 4.4%
-[Information] [15.12.2016 14:00:47] x264 [info]: mb B  I16..4:  1.2%  2.3%  0.1%  B16..8: 50.1%  7.0%  1.4%  direct:10.2%  skip:27.7%  L0:47.3% L1:45.4% BI: 7.3%
-[Information] [15.12.2016 14:00:47] x264 [info]: 8x8 transform intra:64.7% inter:73.5%
-[Information] [15.12.2016 14:00:47] x264 [info]: direct mvs  spatial:96.6% temporal:3.4%
-[Information] [15.12.2016 14:00:47] x264 [info]: coded y,uvDC,uvAC intra: 52.9% 57.6% 14.6% inter: 25.0% 30.0% 1.5%
-[Information] [15.12.2016 14:00:47] x264 [info]: i16 v,h,dc,p: 25% 16% 22% 38%
-[Information] [15.12.2016 14:00:47] x264 [info]: i8 v,h,dc,ddl,ddr,vr,hd,vl,hu: 11%  7% 16% 10% 13% 11% 12% 10% 11%
-[Information] [15.12.2016 14:00:47] x264 [info]: i4 v,h,dc,ddl,ddr,vr,hd,vl,hu: 10%  8%  7% 10% 14% 12% 14% 11% 14%
-[Information] [15.12.2016 14:00:47] x264 [info]: i8c dc,h,v,p: 39% 25% 22% 13%
-[Information] [15.12.2016 14:00:47] x264 [info]: Weighted P-Frames: Y:9.6% UV:7.2%
-[Information] [15.12.2016 14:00:47] x264 [info]: ref P L0: 54.9% 11.7% 20.9% 10.5%  2.0%  0.2%
-[Information] [15.12.2016 14:00:47] x264 [info]: ref B L0: 90.2%  7.8%  2.1%
-[Information] [15.12.2016 14:00:47] x264 [info]: ref B L1: 94.9%  5.1%
-[Information] [15.12.2016 14:00:47] x264 [info]: kb/s:9752.13
-[Information] [15.12.2016 14:00:47] encoded 52356 frames, 3.32 fps, 9752.13 kb/s  
Japan only
[Information] [14.12.2016 3:57:35] Standard error stream
-[Information] [14.12.2016 3:57:38] avs [info]: 1920x1080p 1:1 @ 30000/1001 fps (cfr)
-[Information] [14.12.2016 3:57:38] x264 [info]: using SAR=1/1
-[Information] [14.12.2016 3:57:38] x264 [info]: using cpu capabilities: MMX2 SSE2Fast SSSE3 SSE4.2 AVX
-[Information] [14.12.2016 3:57:38] x264 [info]: profile High, level 4.1
-[Information] [14.12.2016 5:45:53] x264 [info]: frame I:125   Avg QP:18.13  size:212502
-[Information] [14.12.2016 5:45:53] x264 [info]: frame P:4353  Avg QP:21.23  size: 77658
-[Information] [14.12.2016 5:45:53] x264 [info]: frame B:16701 Avg QP:23.02  size: 26857
-[Information] [14.12.2016 5:45:53] x264 [info]: consecutive B-frames:  1.8%  2.4%  5.8% 13.4%  8.1% 63.8%  3.6%  0.5%  0.7%
-[Information] [14.12.2016 5:45:53] x264 [info]: mb I  I16..4: 23.7% 63.4% 12.9%
-[Information] [14.12.2016 5:45:53] x264 [info]: mb P  I16..4: 10.5% 18.9%  1.2%  P16..4: 46.3% 11.0%  8.2%  0.2%  0.1%    skip: 3.7%
-[Information] [14.12.2016 5:45:53] x264 [info]: mb B  I16..4:  1.0%  1.7%  0.0%  B16..8: 53.4%  5.7%  1.1%  direct:10.3%  skip:26.8%  L0:49.2% L1:44.9% BI: 5.8%
-[Information] [14.12.2016 5:45:53] x264 [info]: 8x8 transform intra:61.9% inter:70.4%
-[Information] [14.12.2016 5:45:53] x264 [info]: direct mvs  spatial:96.1% temporal:3.9%
-[Information] [14.12.2016 5:45:53] x264 [info]: coded y,uvDC,uvAC intra: 55.1% 66.4% 22.1% inter: 23.4% 32.9% 2.1%
-[Information] [14.12.2016 5:45:53] x264 [info]: i16 v,h,dc,p: 28% 16% 28% 28%
-[Information] [14.12.2016 5:45:53] x264 [info]: i8 v,h,dc,ddl,ddr,vr,hd,vl,hu: 11%  7% 19%  9% 12% 10% 11%  9% 11%
-[Information] [14.12.2016 5:45:53] x264 [info]: i4 v,h,dc,ddl,ddr,vr,hd,vl,hu: 10%  9% 10% 10% 13% 12% 13% 10% 14%
-[Information] [14.12.2016 5:45:53] x264 [info]: i8c dc,h,v,p: 37% 24% 24% 14%
-[Information] [14.12.2016 5:45:53] x264 [info]: Weighted P-Frames: Y:10.2% UV:9.0%
-[Information] [14.12.2016 5:45:53] x264 [info]: ref P L0: 55.0%  9.5% 22.9% 11.6%  0.9%  0.1%
-[Information] [14.12.2016 5:45:53] x264 [info]: ref B L0: 88.6%  9.0%  2.4%
-[Information] [14.12.2016 5:45:53] x264 [info]: ref B L1: 94.0%  6.0%
-[Information] [14.12.2016 5:45:53] x264 [info]: kb/s:9205.42
-[Information] [14.12.2016 5:45:53] encoded 21179 frames, 3.26 fps, 9205.42 kb/s

Memories in Rock: Live In Germany
General
Unique ID                                : 190158838348047459830866964807957074632 (0x8F0F4295AE26112A91D1FD6A9123D2C8)
Complete name                            : O:\Rainbow - Memories in Rock Live In Germany.2016.BDRip1080p\Rainbow - Memories in Rock Live In Germany.2016.BDRip1080p.mkv
Format                                   : Matroska
Format version                           : Version 2
File size                                : 9.60 GiB
Duration                                 : 1 h 50 min
Overall bit rate mode                    : Variable
Overall bit rate                         : 12.4 Mb/s
Encoded date                             : UTC 2016-12-14 08:47:43
Writing application                      : mkvmerge v9.6.0 ('Slave To Your Mind') 64bit
Writing library                          : libebml v1.3.4 + libmatroska v1.4.5
Video
ID                                       : 1
Format                                   : AVC
Format/Info                              : Advanced Video Codec
Format profile                           : High@L4.1
Format settings, CABAC                   : Yes
Format settings, ReFrames                : 4 frames
Codec ID                                 : V_MPEG4/ISO/AVC
Duration                                 : 1 h 50 min
Bit rate                                 : 9 200 kb/s
Width                                    : 1 920 pixels
Height                                   : 1 080 pixels
Display aspect ratio                     : 16:9
Frame rate mode                          : Constant
Frame rate                               : 29.970 (30000/1001) FPS
Color space                              : YUV
Chroma subsampling                       : 4:2:0
Bit depth                                : 8 bits
Scan type                                : Progressive
Bits/(Pixel*Frame)                       : 0.148
Stream size                              : 7.09 GiB (74%)
Writing library                          : x264 core 146 r2538 121396c
Encoding settings                        : cabac=1 / ref=4 / deblock=1:-1:-1 / analyse=0x3:0x133 / me=umh / subme=10 / psy=1 / psy_rd=1.00:0.11 / mixed_ref=1 / me_range=32 / chroma_me=1 / trellis=2 / 8x8dct=1 / cqm=0 / deadzone=21,11 / fast_pskip=1 / chroma_qp_offset=-3 / threads=6 / lookahead_threads=1 / sliced_threads=0 / nr=0 / decimate=1 / interlaced=0 / bluray_compat=0 / constrained_intra=0 / bframes=8 / b_pyramid=2 / b_adapt=2 / b_bias=0 / direct=3 / weightb=0 / open_gop=0 / weightp=2 / keyint=300 / keyint_min=29 / scenecut=40 / intra_refresh=0 / rc_lookahead=100 / rc=2pass / mbtree=1 / bitrate=9200 / ratetol=1.0 / qcomp=0.60 / qpmin=0 / qpmax=69 / qpstep=4 / cplxblur=20.0 / qblur=0.5 / vbv_maxrate=50000 / vbv_bufsize=62500 / nal_hrd=none / filler=0 / ip_ratio=1.40 / aq=1:1.00
Default                                  : Yes
Forced                                   : No
Audio #1
ID                                       : 2
Format                                   : FLAC
Format/Info                              : Free Lossless Audio Codec
Codec ID                                 : A_FLAC
Duration                                 : 1 h 50 min
Bit rate mode                            : Variable
Bit rate                                 : 1 737 kb/s
Channel(s)                               : 2 channels
Channel positions                        : Front: L R
Sampling rate                            : 48.0 kHz
Frame rate                               : 11.719 FPS (4096 spf)
Bit depth                                : 24 bits
Stream size                              : 1.34 GiB (14%)
Title                                    : FLAC@ 2.0 24 bit
Writing library                          : libFLAC 1.2.1 (UTC 2007-09-17)
Default                                  : Yes
Forced                                   : No
Audio #2
ID                                       : 3
Format                                   : DTS
Format/Info                              : Digital Theater Systems
Mode                                     : 16
Format settings, Endianness              : Big
Codec ID                                 : A_DTS
Duration                                 : 1 h 50 min
Bit rate mode                            : Constant
Bit rate                                 : 1 509 kb/s
Channel(s)                               : 6 channels
Channel positions                        : Front: L C R, Side: L R, LFE
Sampling rate                            : 48.0 kHz
Frame rate                               : 93.750 FPS (512 spf)
Bit depth                                : 24 bits
Compression mode                         : Lossy
Stream size                              : 1.16 GiB (12%)
Title                                    : DTS@5.1 24bit
Default                                  : No
Forced                                   : No
Menu
00:00:00.000                             : en:01. Intro
00:02:25.312                             : en:02. Highway Star
00:08:33.813                             : en:03. Spotlight Kid
00:14:10.116                             : en:04. Mistreated
00:24:02.574                             : en:05. 16th Century Greensleeves
00:30:55.587                             : en:06. Since уоu Been Gone
00:34:10.615                             : en:07. Man On тhе Silver Mountain
00:38:58.169                             : en:08. Catch тhе Rainbow
00:48:27.037                             : en:09. Difficult To Cure (Beetuoven’S Ninth)
01:01:09.799                             : en:10. Perfect Strangers
01:07:32.148                             : en:11. Stargazer
01:18:23.132                             : en:12. Long Live Rock'n’Roll
01:25:11.039                             : en:13. Child In Time / Woman From Tokyo
01:35:59.587                             : en:14. Black Night
01:42:45.760                             : en:15. Smoke On Thе Water
Bonus
General
Unique ID                                : 180579342276087473332521937659207055587 (0x87DA50F69814E208B711CB59E63F78E3)
Complete name                            : O:\Rainbow - Memories in Rock Live In Germany.2016.BDRip1080p\Rainbow - Memories in Rock Live In Germany.Bonus.2016.BDRip1080p.mkv
Format                                   : Matroska
Format version                           : Version 2
File size                                : 3.66 GiB
Duration                                 : 40 min 53 s
Overall bit rate mode                    : Variable
Overall bit rate                         : 12.8 Mb/s
Encoded date                             : UTC 2016-12-15 12:38:28
Writing application                      : mkvmerge v9.6.0 ('Slave To Your Mind') 64bit
Writing library                          : libebml v1.3.4 + libmatroska v1.4.5
Video
ID                                       : 1
Format                                   : AVC
Format/Info                              : Advanced Video Codec
Format profile                           : High@L4.1
Format settings, CABAC                   : Yes
Format settings, ReFrames                : 4 frames
Codec ID                                 : V_MPEG4/ISO/AVC
Duration                                 : 40 min 53 s
Nominal bit rate                         : 9 750 kb/s
Width                                    : 1 920 pixels
Height                                   : 1 080 pixels
Display aspect ratio                     : 16:9
Frame rate mode                          : Constant
Frame rate                               : 29.970 (30000/1001) FPS
Color space                              : YUV
Chroma subsampling                       : 4:2:0
Bit depth                                : 8 bits
Scan type                                : Progressive
Bits/(Pixel*Frame)                       : 0.157
Writing library                          : x264 core 146 r2538 121396c
Encoding settings                        : cabac=1 / ref=4 / deblock=1:-1:-1 / analyse=0x3:0x133 / me=umh / subme=10 / psy=1 / psy_rd=1.00:0.11 / mixed_ref=1 / me_range=32 / chroma_me=1 / trellis=2 / 8x8dct=1 / cqm=0 / deadzone=21,11 / fast_pskip=1 / chroma_qp_offset=-3 / threads=6 / lookahead_threads=1 / sliced_threads=0 / nr=0 / decimate=1 / interlaced=0 / bluray_compat=0 / constrained_intra=0 / bframes=8 / b_pyramid=2 / b_adapt=2 / b_bias=0 / direct=3 / weightb=0 / open_gop=0 / weightp=2 / keyint=300 / keyint_min=29 / scenecut=40 / intra_refresh=0 / rc_lookahead=100 / rc=2pass / mbtree=1 / bitrate=9750 / ratetol=1.0 / qcomp=0.60 / qpmin=0 / qpmax=69 / qpstep=4 / cplxblur=20.0 / qblur=0.5 / vbv_maxrate=50000 / vbv_bufsize=62500 / nal_hrd=none / filler=0 / ip_ratio=1.40 / aq=1:1.00
Default                                  : Yes
Forced                                   : No
Audio #1
ID                                       : 2
Format                                   : FLAC
Format/Info                              : Free Lossless Audio Codec
Codec ID                                 : A_FLAC
Duration                                 : 40 min 53 s
Bit rate mode                            : Variable
Channel(s)                               : 2 channels
Channel positions                        : Front: L R
Sampling rate                            : 48.0 kHz
Bit depth                                : 24 bits
Title                                    : FLAC @ 2.0
Writing library                          : libFLAC 1.2.1 (UTC 2007-09-17)
Default                                  : Yes
Forced                                   : No
Audio #2
ID                                       : 3
Format                                   : DTS
Format/Info                              : Digital Theater Systems
Mode                                     : 16
Format settings, Endianness              : Big
Codec ID                                 : A_DTS
Duration                                 : 40 min 53 s
Bit rate mode                            : Constant
Bit rate                                 : 1 509 kb/s
Channel(s)                               : 6 channels
Channel positions                        : Front: L C R, Side: L R, LFE
Sampling rate                            : 48.0 kHz
Frame rate                               : 93.750 FPS (512 spf)
Bit depth                                : 24 bits
Compression mode                         : Lossy
Stream size                              : 441 MiB (12%)
Title                                    : DTS @ 5.1
Default                                  : No
Forced                                   : No
Menu
00:00:00.000                             : en:01. Spotlight Kid
00:05:36.936                             : en:02. Man On туе Silver Mountain
00:11:31.791                             : en:03. Long Live Rock'n’Roll
00:19:51.490                             : en:04. Stargazer
00:29:06.945                             : en:05. Since You've Been Gone  (Japan Only)
00:32:27.946                             : en:06. Catch The Rainbow (Japan Only)   

Скриншоты


























Скриншоты бонуса
















                                                                                       
                       
                       
                       
                       
                       
                                磁力下载:
                                                               
                                       
游客,本主题需向作者支付 7音乐币 才能浏览,金币充值, 免回复、免金币,直接查看内容请开通VIP支付

                                               
  • 13.26 GB
  • 温馨提示

    记得善用社区搜索功能,那里可能会有你想要的资源;论坛站内搜索

    如果你有什么需要的资源可以去资源求档发帖,求助社区的网友,我们会在第一时间给你回复哦;资源求档

    对于本社区网盘链接失效密码错误各种报错请在反馈板块反馈报错发帖,您的支持,是我们发展的最大动力;投诉建议

    回复

    使用道具 举报

    您需要登录后才可以回帖 登录 | 立即注册 微信登录

    本版积分规则

    关注0

    粉丝4

    帖子51182

    发布主题
    阅读排行更多+
    关闭

    站长推荐上一条 /1 下一条

    收藏帖子 返回列表 这是一个自定义按钮
    音乐分享,音乐下载。
    微信公众号
    微信号:hires_
    意见反馈:admin@maomicd.com

    加入我们的官方QQ群和微信群

    Powered by Discuz! X3.4 Archiver|手机版|小黑屋|捌零音乐论坛 ( 苏ICP备20015413号 )|( 苏公网安备 32030502000272号) 繁體

    GMT+8, 2021-5-6 23:40