自购原抓音乐圈:只有自购、合购、原抓级高解析(hires、sacd、dsd)正版音乐资源分享!【点我打开
极速无线网卡:千兆无线网卡、服务器网卡、USB接口台式机笔记本网卡 硬盘代考无损音乐!【点我打开
广告

[摇滚] Def Leppard ★ Hits Vegas: Live at the Planet Hollywood 2019 [2020, Rock, Blu-ray, 1080i]

[复制链接]
tikus75 发表于 2021-4-13 15:34:05 | 显示全部楼层 |阅读模式 打印 上一主题 下一主题
7 дней на раздаче!


Def Leppard
Hits Vegas: Live at the Planet Hollywood 2019
Жанр: Rock
Продолжительность: 02:29:54+00:11:28
Год выпуска: 29 May 2020
Лейбл: Eagle Rock
ASIN: B084Z74ZLJ01. Die Hard The Hunter
02. Animal
03. Excitable
04. Foolin’
05. Too Late For Love
06. Billy’s Got A Gun
07. Slang
08. Promises
09. Paper Sun
10. Let It Go
11. Mirror, Mirror (Look Into My Eyes)
12. Bringin’ On The Heartbreak
13. Switch 625
14. Let Me Be The One
15. We Belong
16. Have You Ever Needed Someone So Bad
17. Two Steps Behind
18. Now
19. Rocket
20. Let’s Get Rocked
21. Hysteria
22. Love Bites
23. Armageddon It
24. Pour Some Sugar On Me
25. Let’s Go (Live)
26. Action
27. Rock Of Ages
28. Photograph
DocumentaryКачество: Blu-ray
Разрешение видео/развертка: 1080i
Контейнер: BDMV
Видео кодек: MPEG-4 AVC Video
Аудио кодек: PCM, DTS-HD
Видео: MPEG-4 AVC Video / 29992 kbps / 1080i / 29.970 fps / 16:9 / High Profile 4.1
Аудио 1: English / LPCM Audio / 2.0 / 48 kHz / 2304 kbps / 24-bit
Аудио 2: English / DTS-HD Master Audio / 5.1 / 48 kHz / 5363 kbps / 24-bit (DTS Core: 5.1 / 48 kHz / 1509 kbps / 24-bit)
Отчёт MediaInfo / BDInfo

Disc Title:     Def Leppard - Hits Vegas
Disc Label:     Def Leppard - Hits Vegas - Live at the Planet Hollywood 2019 (Blu-ray)
Disc Size:      48,053,102,182 bytes
Protection:     AACS
BDInfo:         0.7.5.5
Notes:
BDINFO HOME:
  Cinema Squid (old)
    http://www.cinemasquid.com/blu-ray/tools/bdinfo
  UniqProject GitHub (new)
   https://github.com/UniqProject/BDInfo
INCLUDES FORUMS REPORT FOR:
  AVS Forum Blu-ray Audio and Video Specifications Thread
    http://www.avsforum.com/avs-vb/showthread.php?t=1155731
********************
PLAYLIST: 00000.MPLS
********************

Код:

                                                                                Total   Video
Title                                                           Codec   Length  Movie Size      Disc Size       Bitrate Bitrate Main Audio Track                          Secondary Audio Track
-----                                                           ------  ------- --------------  --------------  ------- ------- ------------------                        ---------------------
00000.MPLS                                                      AVC     2:29:54 44,600,592,384  48,053,102,182  39.67   29.99   LPCM 2.0 2304Kbps (48kHz/24-bit)          DTS-HD Master 5.1 5363Kbps (48kHz/24-bit)

Код:
DISC INFO:
Disc Title:     Def Leppard - Hits Vegas
Disc Label:     Def Leppard - Hits Vegas - Live at the Planet Hollywood 2019 (Blu-ray)
Disc Size:      48,053,102,182 bytes
Protection:     AACS
BDInfo:         0.7.5.5
PLAYLIST REPORT:
Name:                   00000.MPLS
Length:                 2:29:54.151 (h:m:s.ms)
Size:                   44,600,592,384 bytes
Total Bitrate:          39.67 Mbps
VIDEO:
Codec                   Bitrate             Description
-----                   -------             -----------
MPEG-4 AVC Video        29992 kbps          1080i / 29.970 fps / 16:9 / High Profile 4.1
AUDIO:
Codec                           Language        Bitrate         Description
-----                           --------        -------         -----------
LPCM Audio                      English         2304 kbps       2.0 / 48 kHz /  2304 kbps / 24-bit
DTS-HD Master Audio             English         5363 kbps       5.1 / 48 kHz /  5363 kbps / 24-bit (DTS Core: 5.1 / 48 kHz /  1509 kbps / 24-bit)
FILES:
Name            Time In         Length          Size            Total Bitrate
----            -------         ------          ----            -------------
00001.M2TS      0:00:00.000     0:00:01.001     1,081,344       8,642
00003.M2TS      0:00:01.001     2:29:52.149     44,598,933,504  39,678
00011.M2TS      2:29:53.150     0:00:01.000     577,536         4,616
CHAPTERS:
Number          Time In         Length          Avg Video Rate  Max 1-Sec Rate  Max 1-Sec Time  Max 5-Sec Rate  Max 5-Sec Time  Max 10Sec Rate  Max 10Sec Time  Avg Frame Size  Max Frame Size  Max Frame Time
------          -------         ------          --------------  --------------  --------------  --------------  --------------  --------------  --------------  --------------  --------------  --------------
1               0:00:00.000     0:06:11.971     30,454 kbps     48,877 kbps     00:03:34.747    40,062 kbps     00:03:30.710    37,501 kbps     00:03:29.275    127,006 bytes   516,885 bytes   00:01:33.059
2               0:06:11.971     0:04:05.712     33,320 kbps     48,083 kbps     00:10:10.176    38,920 kbps     00:10:06.138    37,979 kbps     00:07:21.307    138,973 bytes   545,706 bytes   00:08:17.697
3               0:10:17.683     0:04:29.502     33,381 kbps     45,185 kbps     00:14:04.643    38,776 kbps     00:12:05.591    38,016 kbps     00:14:14.220    139,228 bytes   571,730 bytes   00:14:05.477
4               0:14:47.186     0:04:45.785     30,458 kbps     43,748 kbps     00:17:17.636    38,297 kbps     00:17:13.766    37,869 kbps     00:16:49.842    127,034 bytes   404,008 bytes   00:15:30.829
5               0:19:32.971     0:05:37.003     26,980 kbps     43,782 kbps     00:24:39.277    38,067 kbps     00:20:38.437    36,663 kbps     00:23:20.365    112,529 bytes   426,954 bytes   00:21:03.762
6               0:25:09.975     0:05:20.053     30,395 kbps     47,786 kbps     00:26:12.571    38,906 kbps     00:28:37.449    37,784 kbps     00:27:36.888    126,773 bytes   510,594 bytes   00:26:13.204
7               0:30:30.028     0:02:57.310     30,906 kbps     43,133 kbps     00:31:24.282    38,401 kbps     00:32:31.649    37,033 kbps     00:32:31.149    128,903 bytes   402,174 bytes   00:31:24.916
8               0:33:27.338     0:04:16.656     32,265 kbps     43,336 kbps     00:37:16.367    38,320 kbps     00:33:57.135    37,957 kbps     00:37:18.803    134,574 bytes   468,611 bytes   00:36:28.152
9               0:37:43.995     0:05:27.860     25,661 kbps     41,593 kbps     00:39:19.623    35,064 kbps     00:39:18.622    33,451 kbps     00:40:48.312    107,028 bytes   408,603 bytes   00:41:10.568
10              0:43:11.855     0:06:05.098     33,310 kbps     44,398 kbps     00:48:35.145    39,219 kbps     00:48:31.141    38,058 kbps     00:47:11.562    138,930 bytes   452,496 bytes   00:46:30.621
11              0:49:16.954     0:04:21.060     28,538 kbps     41,550 kbps     00:52:41.424    38,173 kbps     00:50:40.270    36,191 kbps     00:50:38.835    119,026 bytes   430,560 bytes   00:50:45.075
12              0:53:38.014     0:04:44.417     26,859 kbps     42,855 kbps     00:56:17.640    37,489 kbps     00:56:13.670    36,153 kbps     00:56:08.665    112,023 bytes   393,060 bytes   00:57:07.290
13              0:58:22.432     0:09:35.942     31,282 kbps     52,908 kbps     01:01:07.296    39,637 kbps     01:01:03.292    37,945 kbps     01:01:23.513    130,471 bytes   575,346 bytes   01:01:08.097
14              1:07:58.374     0:03:48.661     22,566 kbps     38,532 kbps     01:11:33.722    32,134 kbps     01:11:33.722    29,968 kbps     01:11:33.722    94,121 bytes    315,362 bytes   01:11:35.524
15              1:11:47.036     0:06:31.858     27,581 kbps     40,613 kbps     01:13:41.817    38,457 kbps     01:13:37.980    37,893 kbps     01:13:33.108    115,036 bytes   389,279 bytes   01:13:42.651
16              1:18:18.894     0:05:13.112     24,907 kbps     39,234 kbps     01:22:06.554    37,022 kbps     01:23:14.689    34,941 kbps     01:23:09.718    103,881 bytes   354,831 bytes   01:23:15.123
17              1:23:32.007     0:04:58.798     27,354 kbps     39,292 kbps     01:27:20.568    37,914 kbps     01:27:07.121    33,382 kbps     01:26:09.631    114,090 bytes   334,201 bytes   01:25:36.331
18              1:28:30.805     0:04:04.210     30,903 kbps     45,107 kbps     01:29:25.993    38,899 kbps     01:29:58.025    38,078 kbps     01:31:58.379    128,889 bytes   537,659 bytes   01:29:26.794
19              1:32:35.016     0:06:33.926     27,837 kbps     47,090 kbps     01:33:06.213    37,918 kbps     01:37:34.415    37,374 kbps     01:37:31.712    116,102 bytes   621,451 bytes   01:35:10.438
20              1:39:08.943     0:04:49.022     32,134 kbps     42,757 kbps     01:41:53.440    38,118 kbps     01:43:19.026    37,718 kbps     01:43:14.087    134,027 bytes   474,167 bytes   01:41:03.057
21              1:43:57.965     0:06:11.037     31,938 kbps     42,687 kbps     01:45:20.414    38,397 kbps     01:49:41.174    38,060 kbps     01:45:11.405    133,206 bytes   456,998 bytes   01:44:28.895
22              1:50:09.002     0:05:56.956     27,979 kbps     43,109 kbps     01:55:46.005    38,125 kbps     01:53:52.692    37,866 kbps     01:53:50.390    116,698 bytes   422,106 bytes   01:50:36.029
23              1:56:05.959     0:05:28.061     32,838 kbps     47,626 kbps     01:58:56.095    39,264 kbps     02:01:12.898    38,529 kbps     02:01:07.893    136,961 bytes   554,997 bytes   01:58:56.162
24              2:01:34.020     0:04:44.217     28,921 kbps     45,405 kbps     02:05:52.011    39,298 kbps     02:05:48.007    37,750 kbps     02:05:42.968    120,623 bytes   493,234 bytes   02:03:17.857
25              2:06:18.237     0:05:19.786     29,480 kbps     48,002 kbps     02:07:39.418    39,714 kbps     02:07:35.414    38,038 kbps     02:10:59.952    122,958 bytes   482,381 bytes   02:09:05.604
26              2:11:38.023     0:04:45.451     31,692 kbps     41,559 kbps     02:14:40.505    38,159 kbps     02:15:37.062    37,892 kbps     02:15:35.494    132,183 bytes   484,542 bytes   02:12:43.989
27              2:16:23.475     0:05:02.535     31,210 kbps     44,182 kbps     02:18:11.082    39,012 kbps     02:18:07.078    37,931 kbps     02:18:02.073    130,173 bytes   476,638 bytes   02:20:27.152
28              2:21:26.010     0:08:27.139     35,072 kbps     44,482 kbps     02:23:49.821    38,982 kbps     02:23:45.917    38,120 kbps     02:26:38.055    146,281 bytes   475,225 bytes   02:24:04.802
29              2:29:53.150     0:00:01.001     111 kbps        0 kbps          00:00:00.000    0 kbps          00:00:00.000    0 kbps          00:00:00.000    478 bytes       2,441 bytes     02:29:53.751
STREAM DIAGNOSTICS:
File            PID             Type            Codec           Language                Seconds                 Bitrate                 Bytes           Packets
----            ---             ----            -----           --------                --------------          --------------          -------------   -----
00001.M2TS      4113 (0x1011)   0x1B            AVC                                     0.868                   4,592                   497,949         2,714
00001.M2TS      4352 (0x1100)   0x80            LPCM            eng (English)           0.868                   2,676                   290,244         1,608
00001.M2TS      4353 (0x1101)   0x86            DTS-HD MA       eng (English)           0.868                   1,803                   195,520         1,222
00003.M2TS      4113 (0x1011)   0x1B            AVC                                     8992.016                29,998                  33,718,269,418  183,408,594
00003.M2TS      4352 (0x1100)   0x80            LPCM            eng (English)           8992.016                2,310                   2,596,932,920   14,387,440
00003.M2TS      4353 (0x1101)   0x86            DTS-HD MA       eng (English)           8992.016                5,364                   6,029,327,044   34,188,846
00011.M2TS      4113 (0x1011)   0x1B            AVC                                     0.901                   145                     16,308          112
00011.M2TS      4352 (0x1100)   0x80            LPCM            eng (English)           0.901                   2,565                   288,800         1,600
00011.M2TS      4353 (0x1101)   0x86            DTS-HD MA       eng (English)           0.901                   1,755                   197,600         1,235


QUICK SUMMARY:
Disc Title: Def Leppard - Hits Vegas
Disc Label: Def Leppard - Hits Vegas - Live at the Planet Hollywood 2019 (Blu-ray)
Disc Size: 48,053,102,182 bytes
Protection: AACS
Playlist: 00000.MPLS
Size: 44,600,592,384 bytes
Length: 2:29:54.151
Total Bitrate: 39.67 Mbps
Video: MPEG-4 AVC Video / 29992 kbps / 1080i / 29.970 fps / 16:9 / High Profile 4.1
Audio: English / LPCM Audio / 2.0 / 48 kHz /  2304 kbps / 24-bit
Audio: English / DTS-HD Master Audio / 5.1 / 48 kHz /  5363 kbps / 24-bit (DTS Core: 5.1 / 48 kHz /  1509 kbps / 24-bit)
********************
PLAYLIST: 00001.MPLS
********************

Код:

                                                                                Total   Video
Title                                                           Codec   Length  Movie Size      Disc Size       Bitrate Bitrate Main Audio Track                          Secondary Audio Track
-----                                                           ------  ------- --------------  --------------  ------- ------- ------------------                        ---------------------
00001.MPLS                                                      AVC     0:11:28 2,729,994,240   48,053,102,182  31.70   27.96   LPCM 2.0 2304Kbps (48kHz/24-bit)

Код:
DISC INFO:
Disc Title:     Def Leppard - Hits Vegas
Disc Label:     Def Leppard - Hits Vegas - Live at the Planet Hollywood 2019 (Blu-ray)
Disc Size:      48,053,102,182 bytes
Protection:     AACS
BDInfo:         0.7.5.5
PLAYLIST REPORT:
Name:                   00001.MPLS
Length:                 0:11:28.854 (h:m:s.ms)
Size:                   2,729,994,240 bytes
Total Bitrate:          31.70 Mbps
VIDEO:
Codec                   Bitrate             Description
-----                   -------             -----------
MPEG-4 AVC Video        27959 kbps          1080p / 23.976 fps / 16:9 / High Profile 4.1
AUDIO:
Codec                           Language        Bitrate         Description
-----                           --------        -------         -----------
LPCM Audio                      English         2304 kbps       2.0 / 48 kHz /  2304 kbps / 24-bit
FILES:
Name            Time In         Length          Size            Total Bitrate
----            -------         ------          ----            -------------
00002.M2TS      0:00:00.000     0:11:27.853     2,729,662,464   31,747
00300.M2TS      0:11:27.853     0:00:01.000     331,776         2,652
CHAPTERS:
Number          Time In         Length          Avg Video Rate  Max 1-Sec Rate  Max 1-Sec Time  Max 5-Sec Rate  Max 5-Sec Time  Max 10Sec Rate  Max 10Sec Time  Avg Frame Size  Max Frame Size  Max Frame Time
------          -------         ------          --------------  --------------  --------------  --------------  --------------  --------------  --------------  --------------  --------------  --------------
1               0:00:00.000     0:11:27.853     27,999 kbps     40,538 kbps     00:05:57.106    38,210 kbps     00:01:52.362    38,008 kbps     00:01:47.357    145,966 bytes   452,873 bytes   00:00:35.660
2               0:11:27.853     0:00:01.000     75 kbps         0 kbps          00:00:00.000    0 kbps          00:00:00.000    0 kbps          00:00:00.000    410 bytes       2,430 bytes     00:11:28.604
STREAM DIAGNOSTICS:
File            PID             Type            Codec           Language                Seconds                 Bitrate                 Bytes           Packets
----            ---             ----            -----           --------                --------------          --------------          -------------   -----
00002.M2TS      4113 (0x1011)   0x1B            AVC                                     687.687                 28,006                  2,407,410,154   13,093,363
00002.M2TS      4352 (0x1100)   0x80            LPCM            eng (English)           687.687                 2,311                   198,652,524     1,100,568
00300.M2TS      4113 (0x1011)   0x1B            AVC                                     0.876                   108                     11,843          72
00300.M2TS      4352 (0x1100)   0x80            LPCM            eng (English)           0.876                   2,638                   288,800         1,600


QUICK SUMMARY:
Disc Title: Def Leppard - Hits Vegas
Disc Label: Def Leppard - Hits Vegas - Live at the Planet Hollywood 2019 (Blu-ray)
Disc Size: 48,053,102,182 bytes
Protection: AACS
Playlist: 00001.MPLS
Size: 2,729,994,240 bytes
Length: 0:11:28.854
Total Bitrate: 31.70 Mbps
Video: MPEG-4 AVC Video / 27959 kbps / 1080p / 23.976 fps / 16:9 / High Profile 4.1
Audio: English / LPCM Audio / 2.0 / 48 kHz /  2304 kbps / 24-bit
********************
PLAYLIST: 00200.MPLS
********************

Код:

                                                                                Total   Video
Title                                                           Codec   Length  Movie Size      Disc Size       Bitrate Bitrate Main Audio Track                          Secondary Audio Track
-----                                                           ------  ------- --------------  --------------  ------- ------- ------------------                        ---------------------
00200.MPLS                                                      AVC     0:00:20 45,637,632      48,053,102,182  18.21   15.01   LPCM 2.0 2304Kbps (48kHz/24-bit)

Код:
DISC INFO:
Disc Title:     Def Leppard - Hits Vegas
Disc Label:     Def Leppard - Hits Vegas - Live at the Planet Hollywood 2019 (Blu-ray)
Disc Size:      48,053,102,182 bytes
Protection:     AACS
BDInfo:         0.7.5.5
PLAYLIST REPORT:
Name:                   00200.MPLS
Length:                 0:00:20.053 (h:m:s.ms)
Size:                   45,637,632 bytes
Total Bitrate:          18.21 Mbps
VIDEO:
Codec                   Bitrate             Description
-----                   -------             -----------
MPEG-4 AVC Video        15013 kbps          1080i / 29.970 fps / 16:9 / High Profile 4.1
AUDIO:
Codec                           Language        Bitrate         Description
-----                           --------        -------         -----------
LPCM Audio                      English         2304 kbps       2.0 / 48 kHz /  2304 kbps / 24-bit
FILES:
Name            Time In         Length          Size            Total Bitrate
----            -------         ------          ----            -------------
00005.M2TS      0:00:00.000     0:00:20.053     45,637,632      18,206
CHAPTERS:
Number          Time In         Length          Avg Video Rate  Max 1-Sec Rate  Max 1-Sec Time  Max 5-Sec Rate  Max 5-Sec Time  Max 10Sec Rate  Max 10Sec Time  Avg Frame Size  Max Frame Size  Max Frame Time
------          -------         ------          --------------  --------------  --------------  --------------  --------------  --------------  --------------  --------------  --------------  --------------
1               0:00:00.000     0:00:20.053     15,013 kbps     47,376 kbps     00:00:06.106    31,296 kbps     00:00:04.771    25,846 kbps     00:00:04.704    62,619 bytes    360,393 bytes   00:00:11.010
STREAM DIAGNOSTICS:
File            PID             Type            Codec           Language                Seconds                 Bitrate                 Bytes           Packets
----            ---             ----            -----           --------                --------------          --------------          -------------   -----
00005.M2TS      4113 (0x1011)   0x1B            AVC                                     19.953                  15,089                  37,633,838      204,915
00005.M2TS      4352 (0x1100)   0x80            LPCM            eng (English)           19.953                  2,322                   5,791,884       32,088


QUICK SUMMARY:
Disc Title: Def Leppard - Hits Vegas
Disc Label: Def Leppard - Hits Vegas - Live at the Planet Hollywood 2019 (Blu-ray)
Disc Size: 48,053,102,182 bytes
Protection: AACS
Playlist: 00200.MPLS
Size: 45,637,632 bytes
Length: 0:00:20.053
Total Bitrate: 18.21 Mbps
Video: MPEG-4 AVC Video / 15013 kbps / 1080i / 29.970 fps / 16:9 / High Profile 4.1
Audio: English / LPCM Audio / 2.0 / 48 kHz /  2304 kbps / 24-bit


Скриншоты




























Мои раздачи ®
https://rutracker.org/forum/https://rutracker.net/forum/tracker.php?rid=9539252


                                                                                       
                       
                       
                       
                       
                       
                                磁力下载:(论坛代下载服务)
                                                               
                                       
游客,本主题需向作者支付 7音乐币 才能浏览,金币充值, 免回复、免金币,直接查看内容请开通VIP支付

                                               
  • 44.75 GB
  • 温馨提示

    记得善用社区搜索功能,那里可能会有你想要的资源;论坛站内搜索

    如果你有什么需要的资源可以去资源求档发帖,求助社区的网友,我们会在第一时间给你回复哦;资源求档

    对于本社区网盘链接失效密码错误各种报错请在反馈板块反馈报错发帖,您的支持,是我们发展的最大动力;投诉建议

    回复

    使用道具 举报

    您需要登录后才可以回帖 登录 | 立即注册 微信登录

    本版积分规则

    关注0

    粉丝0

    帖子29919

    发布主题
    阅读排行更多+
    关闭

    站长推荐上一条 /1 下一条

    收藏帖子 返回列表 这是一个自定义按钮
    音乐分享,音乐下载。
    微信公众号
    微信号:hires_
    意见反馈:admin@maomicd.com

    加入我们的官方QQ群和微信群

    Powered by Discuz! X3.4 Archiver|手机版|小黑屋|捌零音乐论坛 ( 苏ICP备20015413号 )|( 苏公网安备 32030502000272号) 繁體

    GMT+8, 2021-5-8 23:46