自购原抓音乐圈:只有自购、合购、原抓级高解析(hires、sacd、dsd)正版音乐资源分享!【点我打开
极速无线网卡:千兆无线网卡、服务器网卡、USB接口台式机笔记本网卡 硬盘代考无损音乐!【点我打开
广告

[摇滚] Rob Zombie - The Zombie Horror Picture Show [2014, Heavy metal, Industrial metal, BDRip, 1080p]

[复制链接]
韬199435 发表于 2021-4-13 15:34:05 | 显示全部楼层 |阅读模式 打印 上一主题 下一主题
Rob Zombie - The Zombie Horror Picture Show
Жанр: Heavy metal, Industrial metal
Продолжительность: 01:21:09
Год выпуска: 2014
Rob Zombie - vocals
John 5 - guitar, backing vocals
Piggy D. - bass guitar, backing vocals
Ginger Fish - drums, percussion
Треклист:
Intro
Teenage Nosferatu Pussy
Superbeast
Super-Charger Heaven
Living Dead Girl
We're An American Band
More Human Than Human
Sick Bubblegum
Never Gonna Stop (The Red, Red Kroovy)
Ging Gang Gong De Do Gong De Laga Raga
Meet The Creeper
Theme For An Angry Red Planet
Mars Needs Women
House Of 1000 Corpses
The Lords Of Salem
Dead City Radio and the New Gods of Supertown
Thunder Kiss '65
Dragula
Источник Rob Zombie • The Zombie Horror Picture Show [2014, Heavy metal, Industrial metal, Blu-ray]
Качество: BDRip
Разрешение видео/развертка: 1080p
Контейнер: MKV
Видео кодек: H.264
Аудио кодек: DTS, FLAC
Видео: AVC, 1920x1080 (16:9), 23.976 fps, 11.9 Mb/s
Аудио#1: DTS, 48.0 KHz, 6 ch, 1 510 Kbps
Аудио#2: FLAC, 48.0 KHz, 2 ch, 1 863 kbps
MediaInfo / x264Log

x264Log

[Information] [07.01.2019 0:08:37] Standard error stream
-[Information] [07.01.2019 0:10:17] y4m [info]: 1920x1080p 1:1 @ 24000/1001 fps (cfr)
-[Information] [07.01.2019 0:10:17] x264 [info]: using SAR=1/1
-[Information] [07.01.2019 0:10:17] x264 [info]: using cpu capabilities: MMX2 SSE2Fast SSSE3 SSE4.2 AVX
-[Information] [07.01.2019 0:10:17] x264 [info]: profile High, level 4.1, 4:2:0, 8-bit
-[Information] [07.01.2019 12:44:10] x264 [info]: frame I:750   Avg QP:18.15  size:163846
-[Information] [07.01.2019 12:44:10] x264 [info]: frame P:42033 Avg QP:21.75  size: 80235
-[Information] [07.01.2019 12:44:10] x264 [info]: frame B:73956 Avg QP:22.88  size: 50719
-[Information] [07.01.2019 12:44:10] x264 [info]: consecutive B-frames: 11.5% 11.3% 17.5% 42.1%  8.6%  7.0%  1.4%  0.5%
-[Information] [07.01.2019 12:44:10] x264 [info]: mb I  I16..4: 16.3% 71.8% 11.9%
-[Information] [07.01.2019 12:44:10] x264 [info]: mb P  I16..4: 10.8% 35.6%  2.9%  P16..4: 23.4% 18.5%  3.1%  0.3%  0.0%    skip: 5.3%
-[Information] [07.01.2019 12:44:10] x264 [info]: mb B  I16..4:  2.6%  9.0%  0.6%  B16..8: 35.4% 16.9%  2.5%  direct:11.5%  skip:21.5%  L0:46.0% L1:41.9% BI:12.1%
-[Information] [07.01.2019 12:44:10] x264 [info]: 8x8 transform intra:72.6% inter:82.1%
-[Information] [07.01.2019 12:44:10] x264 [info]: direct mvs  spatial:100.0% temporal:0.0%
-[Information] [07.01.2019 12:44:10] x264 [info]: coded y,uvDC,uvAC intra: 62.2% 79.5% 44.9% inter: 29.4% 56.1% 9.4%
-[Information] [07.01.2019 12:44:10] x264 [info]: i16 v,h,dc,p: 20% 21%  7% 52%
-[Information] [07.01.2019 12:44:10] x264 [info]: i8 v,h,dc,ddl,ddr,vr,hd,vl,hu: 10%  9%  9%  9% 12% 12% 13% 12% 15%
-[Information] [07.01.2019 12:44:10] x264 [info]: i4 v,h,dc,ddl,ddr,vr,hd,vl,hu: 12% 14%  7%  9% 13% 11% 12% 10% 14%
-[Information] [07.01.2019 12:44:10] x264 [info]: i8c dc,h,v,p: 26% 32% 21% 21%
-[Information] [07.01.2019 12:44:10] x264 [info]: Weighted P-Frames: Y:16.2% UV:15.7%
-[Information] [07.01.2019 12:44:10] x264 [info]: ref P L0: 56.9%  7.7% 19.8% 12.3%  2.9%  0.3%
-[Information] [07.01.2019 12:44:10] x264 [info]: ref B L0: 84.6% 12.6%  2.8%
-[Information] [07.01.2019 12:44:10] x264 [info]: ref B L1: 96.0%  4.0%
-[Information] [07.01.2019 12:44:10] x264 [info]: kb/s:11906.20
-[Information] [07.01.2019 12:44:10] encoded 116739 frames, 2.58 fps, 11906.19 kb/s


General
Unique ID                                : 203901725035806258042363273299970539090 (0x99660B3634B93D455E66C6CDF2C8BE52)
Complete name                            : K:\Rob Zombie - The Zombie Horror Picture Show.2014.BDRip1080p.mkv
Format                                   : Matroska
Format version                           : Version 2
File size                                : 8.66 GiB
Duration                                 : 1 h 21 min
Overall bit rate mode                    : Variable
Overall bit rate                         : 15.3 Mb/s
Movie name                               : Rob Zombie - The Zombie Horror Picture Show.2014.BDRip1080p @ rutracker.org
Encoded date                             : UTC 2019-01-07 21:43:50
Writing application                      : mkvmerge v30.0.0 ('Interstellar') 64-bit
Writing library                          : libebml v1.3.6 + libmatroska v1.4.9
Video
ID                                       : 1
Format                                   : AVC
Format/Info                              : Advanced Video Codec
Format profile                           : High@L4.1
Format settings                          : CABAC / 4 Ref Frames
Format settings, CABAC                   : Yes
Format settings, RefFrames               : 4 frames
Codec ID                                 : V_MPEG4/ISO/AVC
Duration                                 : 1 h 21 min
Bit rate                                 : 11.9 Mb/s
Width                                    : 1 920 pixels
Height                                   : 1 080 pixels
Display aspect ratio                     : 16:9
Frame rate mode                          : Constant
Frame rate                               : 23.976 (24000/1001) FPS
Color space                              : YUV
Chroma subsampling                       : 4:2:0
Bit depth                                : 8 bits
Scan type                                : Progressive
Bits/(Pixel*Frame)                       : 0.239
Stream size                              : 6.75 GiB (78%)
Title                                    : anbelk27 @ rutracker.org
Writing library                          : x264 core 157 r2935 545de2f
Encoding settings                        : cabac=1 / ref=4 / deblock=1:-3:-3 / analyse=0x3:0x133 / me=umh / subme=11 / psy=1 / psy_rd=1.10:0.10 / mixed_ref=1 / me_range=40 / chroma_me=1 / trellis=2 / 8x8dct=1 / cqm=0 / deadzone=21,11 / fast_pskip=1 / chroma_qp_offset=-3 / threads=6 / lookahead_threads=1 / sliced_threads=0 / nr=0 / decimate=1 / interlaced=0 / bluray_compat=0 / constrained_intra=0 / bframes=7 / b_pyramid=2 / b_adapt=2 / b_bias=0 / direct=3 / weightb=1 / open_gop=0 / weightp=2 / keyint=240 / keyint_min=23 / scenecut=50 / intra_refresh=0 / rc_lookahead=120 / rc=crf / mbtree=1 / crf=20.1 / qcomp=0.60 / qpmin=0 / qpmax=69 / qpstep=4 / vbv_maxrate=50000 / vbv_bufsize=62500 / crf_max=0.0 / nal_hrd=none / filler=0 / ip_ratio=1.40 / aq=1:1.00
Default                                  : Yes
Forced                                   : No
Audio #1
ID                                       : 2
Format                                   : DTS
Format/Info                              : Digital Theater Systems
Codec ID                                 : A_DTS
Duration                                 : 1 h 21 min
Bit rate mode                            : Constant
Bit rate                                 : 1 509 kb/s
Channel(s)                               : 6 channels
Channel layout                           : C L R Ls Rs LFE
Sampling rate                            : 48.0 kHz
Frame rate                               : 93.750 FPS (512 SPF)
Bit depth                                : 24 bits
Compression mode                         : Lossy
Stream size                              : 876 MiB (10%)
Title                                    : DTS 5.1 @ 24 bit
Default                                  : Yes
Forced                                   : No
Audio #2
ID                                       : 3
Format                                   : FLAC
Format/Info                              : Free Lossless Audio Codec
Codec ID                                 : A_FLAC
Duration                                 : 1 h 21 min
Bit rate mode                            : Variable
Bit rate                                 : 1 863 kb/s
Channel(s)                               : 2 channels
Channel layout                           : L R
Sampling rate                            : 48.0 kHz
Frame rate                               : 11.719 FPS (4096 SPF)
Bit depth                                : 24 bits
Compression mode                         : Lossless
Stream size                              : 1.06 GiB (12%)
Title                                    : FLAC 2.0 @ 24 bit
Writing library                          : libFLAC 1.2.1 (UTC 2007-09-17)
Default                                  : No
Forced                                   : No
Menu
00:00:00.000                             : en: 01. Intro
00:01:08.068                             : en: 02.  Teenage Nosferatu Pussy
00:05:50.517                             : en: 03.  Superbeast
00:09:30.570                             : en: 04.  Super-Charger Heaven
00:13:55.084                             : en: 05.  Living Dead Girl
00:18:53.090                             : en: 06.  We're An American Band
00:22:19.296                             : en: 07.  More Human Than Human
00:27:42.077                             : en: 08.  Sick Bubblegum
00:31:26.593                             : en: 09.  Never Gonna Stop (The Red, Red Kroovy)
00:35:15.947                             : en: 10.  Ging Gang Gong De Do Gong De Laga Raga
00:39:40.962                             : en: 11.  Meet The Creeper
00:43:03.706                             : en: 12.  Theme For An Angry Red Planet
00:44:36.340                             : en: 13.  Mars Needs Women
00:48:07.885                             : en: 14.  House Of 1000 Corpses
00:52:43.160                             : en: 15.  The Lords Of Salem
00:57:08.925                             : en: 16.  Dead City Radio and the New Gods of Supertown
01:01:51.291                             : en: 17.  Thunder Kiss '65
01:12:06.697                             : en: 18.  Dragula
01:17:25.516                             : en: 19. Credits

Скриншоты











                                                                                       
                       
                       
                       
                       
                       
                                磁力下载:(论坛代下载服务)
                                                               
                                       
游客,本主题需向作者支付 7音乐币 才能浏览,金币充值, 免回复、免金币,直接查看内容请开通VIP支付

                                               
  • 8.66 GB
  • 温馨提示

    记得善用社区搜索功能,那里可能会有你想要的资源;论坛站内搜索

    如果你有什么需要的资源可以去资源求档发帖,求助社区的网友,我们会在第一时间给你回复哦;资源求档

    对于本社区网盘链接失效密码错误各种报错请在反馈板块反馈报错发帖,您的支持,是我们发展的最大动力;投诉建议

    回复

    使用道具 举报

    您需要登录后才可以回帖 登录 | 立即注册 微信登录

    本版积分规则

    关注0

    粉丝0

    帖子30176

    发布主题
    阅读排行更多+
    关闭

    站长推荐上一条 /1 下一条

    收藏帖子 返回列表 这是一个自定义按钮
    音乐分享,音乐下载。
    微信公众号
    微信号:hires_
    意见反馈:admin@maomicd.com

    加入我们的官方QQ群和微信群

    Powered by Discuz! X3.4 Archiver|手机版|小黑屋|捌零音乐论坛 ( 苏ICP备20015413号 )|( 苏公网安备 32030502000272号) 繁體

    GMT+8, 2021-5-8 23:36