自购原抓音乐圈:只有自购、合购、原抓级高解析(hires、sacd、dsd)正版音乐资源分享!【点我打开
极速无线网卡:千兆无线网卡、服务器网卡、USB接口台式机笔记本网卡 硬盘代考无损音乐!【点我打开
广告

[摇滚] Alice Cooper - Raise The Dead – Live From Wacken [2014, Hard Rock, Blu-ray]

[复制链接]
全球搬运 发表于 2021-4-13 15:34:05 | 显示全部楼层 |阅读模式 打印 上一主题 下一主题
Alice Cooper
Raise The Dead – Live From Wacken
Жанр: Hard Rock
Место и дата записи концерта: Wacken Open Air, Wacken, Schleswig-Holstein, Germany – 3 августа 2013 г.
Год релиза издания: 2014
Продолжительность: 01:28:03
Источник: HDGeek
Треклист:
[01] Hello Hooray
[02] House Of Fire
[03] No More Mr Nice Guy
[04] Under My Wheels
[05] I'll Bite Your Face Off
[06] Billion Dollar Babies
[07] Caffeine
[08] Department Of Youth
[09] Hey Stoopid
[10] Dirty Diamonds
[11] Welcome To My Nightmare
[12] Go To Hell
[13] He's Back (The Man Behind The Mask)
[14] Feed My Frankenstein
[15] Ballad Of Dwight Fry
[16] Killer
[17] I Love The Dead
[18] Break On Through
[19] My Generation
[20] I'm Eighteen
[21] Poison
[22] School's Out / Another Brick In The Wall
Bonus Material:
Interview
Качество: Blu-ray
Контейнер: BDMV
Видеокодек: MPEG-4 AVC
Аудиокодек: AC-3 | LPCM
Видео: | 25015 kbps | 1920x1080 | 29.970 fps | 16:9 | MPEG-4 AVC
Аудио: | 5.1 | 48 kHz | _448 kbps | 16-bit | AC-3
Аудио: | 2.0 | 48 kHz | _384 kbps | 16-bit | AC-3
Аудио: | 2.0 | 48 kHz | 1536 kbps | 16-bit | LPCM
BDInfo

Disc Title:     ALICE_COOPER_RAISE_THE_DEAD_LIVE_FROM_WACKEN
Disc Size:      25 017 259 844 bytes
Protection:     AACS
BD-Java:        No
Extras:         50Hz Content
BDInfo:         0.5.8
Notes:
BDINFO HOME:
  Cinema Squid
    http://www.cinemasquid.com/blu-ray/tools/bdinfo
INCLUDES FORUMS REPORT FOR:
  AVS Forum Blu-ray Audio and Video Specifications Thread
    http://www.avsforum.com/avs-vb/showthread.php?t=1155731
********************
PLAYLIST: 00023.MPLS
********************

Код:

                                                                                Total   Video
Title                                                           Codec   Length  Movie Size      Disc Size       Bitrate Bitrate Main Audio Track                          Secondary Audio Track
-----                                                           ------  ------- --------------  --------------  ------- ------- ------------------                        ---------------------
00023.MPLS                                                      AVC     1:28:03 19 125 454 848  25 017 259 844  28.96   25.02   DD AC3 5.1 448Kbps                        LPCM 2.0 1536Kbps (48kHz/16-bit)

Код:
DISC INFO:
Disc Title:     ALICE_COOPER_RAISE_THE_DEAD_LIVE_FROM_WACKEN
Disc Size:      25 017 259 844 bytes
Protection:     AACS
BD-Java:        No
Extras:         50Hz Content
BDInfo:         0.5.8
PLAYLIST REPORT:
Name:                   00023.MPLS
Length:                 1:28:03.411 (h:m:s.ms)
Size:                   19 125 454 848 bytes
Total Bitrate:          28.96 Mbps
VIDEO:
Codec                   Bitrate             Description
-----                   -------             -----------
MPEG-4 AVC Video        25015 kbps          1080i / 29.970 fps / 16:9 / High Profile 4.1
AUDIO:
Codec                           Language        Bitrate         Description
-----                           --------        -------         -----------
Dolby Digital Audio             German          448 kbps        5.1 / 48 kHz / 448 kbps
Dolby Digital Audio             German          384 kbps        2.0 / 48 kHz / 384 kbps
LPCM Audio                      German          1536 kbps       2.0 / 48 kHz / 1536 kbps / 16-bit
FILES:
Name            Time In         Length          Size            Total Bitrate
----            -------         ------          ----            -------------
00023.M2TS      0:00:00.000     1:28:03.411     19 125 454 848  28 959
CHAPTERS:
Number          Time In         Length          Avg Video Rate  Max 1-Sec Rate  Max 1-Sec Time  Max 5-Sec Rate  Max 5-Sec Time  Max 10Sec Rate  Max 10Sec Time  Avg Frame Size  Max Frame Size  Max Frame Time
------          -------         ------          --------------  --------------  --------------  --------------  --------------  --------------  --------------  --------------  --------------  --------------
1               0:00:00.000     0:02:39.292     25 197 kbps     48 516 kbps     00:00:28.762    33 350 kbps     00:00:28.628    31 886 kbps     00:00:28.528    105 069 bytes   424 879 bytes   00:00:08.808
2               0:02:39.292     0:03:30.276     24 886 kbps     40 647 kbps     00:03:36.349    29 647 kbps     00:04:46.019    27 344 kbps     00:03:18.498    103 794 bytes   422 042 bytes   00:06:05.064
3               0:06:09.569     0:03:02.515     25 041 kbps     44 610 kbps     00:06:28.354    29 044 kbps     00:06:50.610    27 293 kbps     00:07:19.172    104 442 bytes   425 915 bytes   00:08:32.011
4               0:09:12.084     0:02:53.973     25 011 kbps     39 058 kbps     00:12:01.187    30 085 kbps     00:10:24.123    28 044 kbps     00:11:55.881    104 317 bytes   426 407 bytes   00:11:21.047
5               0:12:06.058     0:04:20.260     24 981 kbps     46 465 kbps     00:16:20.179    31 508 kbps     00:16:20.045    27 873 kbps     00:14:20.492    104 193 bytes   411 951 bytes   00:13:45.925
6               0:16:26.318     0:03:33.346     25 024 kbps     42 069 kbps     00:17:38.023    31 130 kbps     00:17:34.386    27 761 kbps     00:19:43.182    104 370 bytes   362 076 bytes   00:17:38.057
7               0:19:59.665     0:04:15.788     24 967 kbps     49 946 kbps     00:23:06.952    31 904 kbps     00:23:12.858    28 547 kbps     00:23:06.385    104 134 bytes   421 110 bytes   00:23:13.859
8               0:24:15.454     0:03:08.187     24 992 kbps     42 814 kbps     00:27:16.267    31 304 kbps     00:25:10.976    28 253 kbps     00:25:06.571    104 237 bytes   379 741 bytes   00:25:24.689
9               0:27:23.641     0:04:30.270     25 028 kbps     41 217 kbps     00:28:03.148    30 354 kbps     00:31:48.172    27 541 kbps     00:31:42.100    104 386 bytes   349 411 bytes   00:28:34.546
10              0:31:53.911     0:08:33.846     25 022 kbps     46 076 kbps     00:36:06.797    33 341 kbps     00:40:21.385    28 708 kbps     00:40:17.381    104 363 bytes   373 458 bytes   00:34:58.830
11              0:40:27.758     0:03:11.925     26 421 kbps     46 751 kbps     00:42:51.635    33 913 kbps     00:42:51.201    31 168 kbps     00:42:29.113    110 197 bytes   374 254 bytes   00:42:54.872
12              0:43:39.683     0:03:36.015     23 774 kbps     46 903 kbps     00:47:03.854    32 407 kbps     00:45:35.599    28 649 kbps     00:47:03.821    99 157 bytes    352 117 bytes   00:44:48.152
13              0:47:15.699     0:03:50.496     25 075 kbps     46 869 kbps     00:49:01.605    33 595 kbps     00:51:00.290    29 641 kbps     00:50:56.053    104 584 bytes   357 814 bytes   00:47:23.340
14              0:51:06.196     0:04:56.229     24 609 kbps     53 786 kbps     00:55:55.919    35 107 kbps     00:55:56.152    32 076 kbps     00:54:40.877    102 639 bytes   463 777 bytes   00:55:56.386
15              0:56:02.425     0:04:35.208     25 262 kbps     46 777 kbps     00:58:16.226    33 547 kbps     00:58:43.186    30 638 kbps     01:00:21.050    105 362 bytes   420 066 bytes   00:58:45.822
16              1:00:37.634     0:01:24.551     24 973 kbps     35 761 kbps     01:01:42.065    32 232 kbps     01:01:42.065    27 522 kbps     01:01:36.926    104 160 bytes   298 489 bytes   01:00:40.737
17              1:02:02.185     0:02:58.044     25 345 kbps     49 005 kbps     01:03:51.594    34 415 kbps     01:03:50.860    32 095 kbps     01:03:51.093    105 711 bytes   397 733 bytes   01:02:24.140
18              1:05:00.229     0:02:30.416     24 629 kbps     46 221 kbps     01:07:27.376    33 415 kbps     01:06:29.585    29 184 kbps     01:06:25.348    102 723 bytes   373 901 bytes   01:05:58.120
19              1:07:30.646     0:03:03.449     23 914 kbps     41 398 kbps     01:08:30.239    28 821 kbps     01:08:29.271    27 348 kbps     01:08:26.702    99 742 bytes    422 472 bytes   01:09:30.766
20              1:10:34.096     0:03:52.498     25 782 kbps     50 851 kbps     01:10:37.099    33 861 kbps     01:10:37.066    32 463 kbps     01:11:07.162    107 533 bytes   435 741 bytes   01:10:37.499
21              1:14:26.595     0:06:09.836     25 241 kbps     45 322 kbps     01:16:04.359    33 038 kbps     01:20:21.216    32 377 kbps     01:20:16.244    105 276 bytes   357 536 bytes   01:20:25.020
22              1:20:36.431     0:07:26.979     24 996 kbps     46 825 kbps     01:24:12.547    33 338 kbps     01:23:27.068    31 536 kbps     01:27:42.523    104 260 bytes   359 999 bytes   01:24:13.348


********************
PLAYLIST: 00030.MPLS
********************

Код:

                                                                                Total   Video
Title                                                           Codec   Length  Movie Size      Disc Size       Bitrate Bitrate Main Audio Track                          Secondary Audio Track
-----                                                           ------  ------- --------------  --------------  ------- ------- ------------------                        ---------------------
00030.MPLS                                                      AVC     0:19:27 4 631 930 880   25 017 259 844  31.73   25.01   LPCM 2.0 1536Kbps (48kHz/16-bit)          LPCM 2.0 1536Kbps (48kHz/16-bit)

Код:
DISC INFO:
Disc Title:     ALICE_COOPER_RAISE_THE_DEAD_LIVE_FROM_WACKEN
Disc Size:      25 017 259 844 bytes
Protection:     AACS
BD-Java:        No
Extras:         50Hz Content
BDInfo:         0.5.8
PLAYLIST REPORT:
Name:                   00030.MPLS
Length:                 0:19:27.833 (h:m:s.ms)
Size:                   4 631 930 880 bytes
Total Bitrate:          31.73 Mbps
VIDEO:
Codec                   Bitrate             Description
-----                   -------             -----------
MPEG-4 AVC Video        25012 kbps          1080i / 29.970 fps / 16:9 / High Profile 4.1
AUDIO:
Codec                           Language        Bitrate         Description
-----                           --------        -------         -----------
LPCM Audio                      German          1536 kbps       2.0 / 48 kHz / 1536 kbps / 16-bit
LPCM Audio                      German          1536 kbps       2.0 / 48 kHz / 1536 kbps / 16-bit
LPCM Audio                      German          1536 kbps       2.0 / 48 kHz / 1536 kbps / 16-bit
FILES:
Name            Time In         Length          Size            Total Bitrate
----            -------         ------          ----            -------------
00030.M2TS      0:00:00.000     0:19:27.833     4 631 930 880   31 730
CHAPTERS:
Number          Time In         Length          Avg Video Rate  Max 1-Sec Rate  Max 1-Sec Time  Max 5-Sec Rate  Max 5-Sec Time  Max 10Sec Rate  Max 10Sec Time  Avg Frame Size  Max Frame Size  Max Frame Time
------          -------         ------          --------------  --------------  --------------  --------------  --------------  --------------  --------------  --------------  --------------  --------------
1               0:00:00.000     0:19:27.833     25 012 kbps     48 132 kbps     00:00:00.500    33 897 kbps     00:17:01.420    31 911 kbps     00:16:56.515    104 321 bytes   373 910 bytes   00:00:01.301


********************
PLAYLIST: 00021.MPLS
********************

Код:

                                                                                Total   Video
Title                                                           Codec   Length  Movie Size      Disc Size       Bitrate Bitrate Main Audio Track                          Secondary Audio Track
-----                                                           ------  ------- --------------  --------------  ------- ------- ------------------                        ---------------------
00021.MPLS                                                      AVC     0:01:53 454 182 912     25 017 259 844  32.14   25.41   LPCM 2.0 1536Kbps (48kHz/16-bit)          LPCM 2.0 1536Kbps (48kHz/16-bit)

Код:
DISC INFO:
Disc Title:     ALICE_COOPER_RAISE_THE_DEAD_LIVE_FROM_WACKEN
Disc Size:      25 017 259 844 bytes
Protection:     AACS
BD-Java:        No
Extras:         50Hz Content
BDInfo:         0.5.8
PLAYLIST REPORT:
Name:                   00021.MPLS
Length:                 0:01:53.046 (h:m:s.ms)
Size:                   454 182 912 bytes
Total Bitrate:          32.14 Mbps
VIDEO:
Codec                   Bitrate             Description
-----                   -------             -----------
MPEG-4 AVC Video        25407 kbps          1080i / 29.970 fps / 16:9 / High Profile 4.1
AUDIO:
Codec                           Language        Bitrate         Description
-----                           --------        -------         -----------
LPCM Audio                      German          1536 kbps       2.0 / 48 kHz / 1536 kbps / 16-bit
LPCM Audio                      German          1536 kbps       2.0 / 48 kHz / 1536 kbps / 16-bit
LPCM Audio                      German          1536 kbps       2.0 / 48 kHz / 1536 kbps / 16-bit
FILES:
Name            Time In         Length          Size            Total Bitrate
----            -------         ------          ----            -------------
00021.M2TS      0:00:00.000     0:01:53.046     454 182 912     32 141
CHAPTERS:
Number          Time In         Length          Avg Video Rate  Max 1-Sec Rate  Max 1-Sec Time  Max 5-Sec Rate  Max 5-Sec Time  Max 10Sec Rate  Max 10Sec Time  Avg Frame Size  Max Frame Size  Max Frame Time
------          -------         ------          --------------  --------------  --------------  --------------  --------------  --------------  --------------  --------------  --------------  --------------
1               0:00:00.000     0:01:53.046     25 407 kbps     38 515 kbps     00:00:02.135    33 443 kbps     00:00:00.800    29 102 kbps     00:00:40.340    105 969 bytes   349 945 bytes   00:00:02.669


********************
PLAYLIST: 00006.MPLS
********************

Код:

                                                                                Total   Video
Title                                                           Codec   Length  Movie Size      Disc Size       Bitrate Bitrate Main Audio Track                          Secondary Audio Track
-----                                                           ------  ------- --------------  --------------  ------- ------- ------------------                        ---------------------
00006.MPLS                                                      AVC     0:00:30 106 512 384     25 017 259 844  28.37   25.33   LPCM 2.0 1536Kbps (48kHz/16-bit)

Код:
DISC INFO:
Disc Title:     ALICE_COOPER_RAISE_THE_DEAD_LIVE_FROM_WACKEN
Disc Size:      25 017 259 844 bytes
Protection:     AACS
BD-Java:        No
Extras:         50Hz Content
BDInfo:         0.5.8
PLAYLIST REPORT:
Name:                   00006.MPLS
Length:                 0:00:30.029 (h:m:s.ms)
Size:                   106 512 384 bytes
Total Bitrate:          28.37 Mbps
VIDEO:
Codec                   Bitrate             Description
-----                   -------             -----------
MPEG-4 AVC Video        25325 kbps          1080i / 29.970 fps / 16:9 / High Profile 4.1
AUDIO:
Codec                           Language        Bitrate         Description
-----                           --------        -------         -----------
LPCM Audio                      German          1536 kbps       2.0 / 48 kHz / 1536 kbps / 16-bit
SUBTITLES:
Codec                           Language        Bitrate         Description
-----                           --------        -------         -----------
Interactive Graphics            German          0.721 kbps
FILES:
Name            Time In         Length          Size            Total Bitrate
----            -------         ------          ----            -------------
00006.M2TS      0:00:00.000     0:00:30.029     106 512 384     28 375
CHAPTERS:
Number          Time In         Length          Avg Video Rate  Max 1-Sec Rate  Max 1-Sec Time  Max 5-Sec Rate  Max 5-Sec Time  Max 10Sec Rate  Max 10Sec Time  Avg Frame Size  Max Frame Size  Max Frame Time
------          -------         ------          --------------  --------------  --------------  --------------  --------------  --------------  --------------  --------------  --------------  --------------
1               0:00:00.000     0:00:30.029     25 325 kbps     29 561 kbps     00:00:04.804    26 926 kbps     00:00:02.769    25 976 kbps     00:00:03.570    105 627 bytes   378 681 bytes   00:00:16.449


********************
PLAYLIST: 00008.MPLS
********************

Код:

                                                                                Total   Video
Title                                                           Codec   Length  Movie Size      Disc Size       Bitrate Bitrate Main Audio Track                          Secondary Audio Track
-----                                                           ------  ------- --------------  --------------  ------- ------- ------------------                        ---------------------
00008.MPLS                                                      AVC     0:00:30 106 801 152     25 017 259 844  28.45   25.40   LPCM 2.0 1536Kbps (48kHz/16-bit)

Код:
DISC INFO:
Disc Title:     ALICE_COOPER_RAISE_THE_DEAD_LIVE_FROM_WACKEN
Disc Size:      25 017 259 844 bytes
Protection:     AACS
BD-Java:        No
Extras:         50Hz Content
BDInfo:         0.5.8
PLAYLIST REPORT:
Name:                   00008.MPLS
Length:                 0:00:30.029 (h:m:s.ms)
Size:                   106 801 152 bytes
Total Bitrate:          28.45 Mbps
VIDEO:
Codec                   Bitrate             Description
-----                   -------             -----------
MPEG-4 AVC Video        25400 kbps          1080i / 29.970 fps / 16:9 / High Profile 4.1
AUDIO:
Codec                           Language        Bitrate         Description
-----                           --------        -------         -----------
LPCM Audio                      German          1536 kbps       2.0 / 48 kHz / 1536 kbps / 16-bit
SUBTITLES:
Codec                           Language        Bitrate         Description
-----                           --------        -------         -----------
Interactive Graphics            German          0.712 kbps
FILES:
Name            Time In         Length          Size            Total Bitrate
----            -------         ------          ----            -------------
00008.M2TS      0:00:00.000     0:00:30.029     106 801 152     28 452
CHAPTERS:
Number          Time In         Length          Avg Video Rate  Max 1-Sec Rate  Max 1-Sec Time  Max 5-Sec Rate  Max 5-Sec Time  Max 10Sec Rate  Max 10Sec Time  Avg Frame Size  Max Frame Size  Max Frame Time
------          -------         ------          --------------  --------------  --------------  --------------  --------------  --------------  --------------  --------------  --------------  --------------
1               0:00:00.000     0:00:30.029     25 400 kbps     34 786 kbps     00:00:04.804    27 671 kbps     00:00:04.738    26 237 kbps     00:00:18.184    105 941 bytes   455 892 bytes   00:00:19.419


********************
PLAYLIST: 00029.MPLS
********************

Код:

                                                                                Total   Video
Title                                                           Codec   Length  Movie Size      Disc Size       Bitrate Bitrate Main Audio Track                          Secondary Audio Track
-----                                                           ------  ------- --------------  --------------  ------- ------- ------------------                        ---------------------
00029.MPLS                                                      AVC     0:00:30 106 149 888     25 017 259 844  28.28   25.23   LPCM 2.0 1536Kbps (48kHz/16-bit)

Код:
DISC INFO:
Disc Title:     ALICE_COOPER_RAISE_THE_DEAD_LIVE_FROM_WACKEN
Disc Size:      25 017 259 844 bytes
Protection:     AACS
BD-Java:        No
Extras:         50Hz Content
BDInfo:         0.5.8
PLAYLIST REPORT:
Name:                   00029.MPLS
Length:                 0:00:30.029 (h:m:s.ms)
Size:                   106 149 888 bytes
Total Bitrate:          28.28 Mbps
VIDEO:
Codec                   Bitrate             Description
-----                   -------             -----------
MPEG-4 AVC Video        25234 kbps          1080i / 29.970 fps / 16:9 / High Profile 4.1
AUDIO:
Codec                           Language        Bitrate         Description
-----                           --------        -------         -----------
LPCM Audio                      German          1536 kbps       2.0 / 48 kHz / 1536 kbps / 16-bit
SUBTITLES:
Codec                           Language        Bitrate         Description
-----                           --------        -------         -----------
Interactive Graphics            German          1.160 kbps
FILES:
Name            Time In         Length          Size            Total Bitrate
----            -------         ------          ----            -------------
00029.M2TS      0:00:00.000     0:00:30.029     106 149 888     28 278
CHAPTERS:
Number          Time In         Length          Avg Video Rate  Max 1-Sec Rate  Max 1-Sec Time  Max 5-Sec Rate  Max 5-Sec Time  Max 10Sec Rate  Max 10Sec Time  Avg Frame Size  Max Frame Size  Max Frame Time
------          -------         ------          --------------  --------------  --------------  --------------  --------------  --------------  --------------  --------------  --------------  --------------
1               0:00:00.000     0:00:30.029     25 234 kbps     30 736 kbps     00:00:08.675    27 676 kbps     00:00:04.704    26 663 kbps     00:00:02.702    105 248 bytes   408 123 bytes   00:00:05.805


********************
PLAYLIST: 00032.MPLS
********************

Код:

                                                                                Total   Video
Title                                                           Codec   Length  Movie Size      Disc Size       Bitrate Bitrate Main Audio Track                          Secondary Audio Track
-----                                                           ------  ------- --------------  --------------  ------- ------- ------------------                        ---------------------
00032.MPLS                                                      AVC     0:00:30 107 231 232     25 017 259 844  28.57   25.51   LPCM 2.0 1536Kbps (48kHz/16-bit)

Код:
DISC INFO:
Disc Title:     ALICE_COOPER_RAISE_THE_DEAD_LIVE_FROM_WACKEN
Disc Size:      25 017 259 844 bytes
Protection:     AACS
BD-Java:        No
Extras:         50Hz Content
BDInfo:         0.5.8
PLAYLIST REPORT:
Name:                   00032.MPLS
Length:                 0:00:30.029 (h:m:s.ms)
Size:                   107 231 232 bytes
Total Bitrate:          28.57 Mbps
VIDEO:
Codec                   Bitrate             Description
-----                   -------             -----------
MPEG-4 AVC Video        25511 kbps          1080i / 29.970 fps / 16:9 / High Profile 4.1
AUDIO:
Codec                           Language        Bitrate         Description
-----                           --------        -------         -----------
LPCM Audio                      German          1536 kbps       2.0 / 48 kHz / 1536 kbps / 16-bit
SUBTITLES:
Codec                           Language        Bitrate         Description
-----                           --------        -------         -----------
Interactive Graphics            German          1.400 kbps
FILES:
Name            Time In         Length          Size            Total Bitrate
----            -------         ------          ----            -------------
00032.M2TS      0:00:00.000     0:00:30.029     107 231 232     28 566
CHAPTERS:
Number          Time In         Length          Avg Video Rate  Max 1-Sec Rate  Max 1-Sec Time  Max 5-Sec Rate  Max 5-Sec Time  Max 10Sec Rate  Max 10Sec Time  Avg Frame Size  Max Frame Size  Max Frame Time
------          -------         ------          --------------  --------------  --------------  --------------  --------------  --------------  --------------  --------------  --------------  --------------
1               0:00:00.000     0:00:30.029     25 511 kbps     30 236 kbps     00:00:04.804    26 943 kbps     00:00:02.769    26 100 kbps     00:00:04.671    106 402 bytes   427 453 bytes   00:00:19.352


********************
PLAYLIST: 00012.MPLS
********************

Код:

                                                                                Total   Video
Title                                                           Codec   Length  Movie Size      Disc Size       Bitrate Bitrate Main Audio Track                          Secondary Audio Track
-----                                                           ------  ------- --------------  --------------  ------- ------- ------------------                        ---------------------
00012.MPLS                                                      AVC     0:00:26 106 020 864     25 017 259 844  31.65   24.95   LPCM 2.0 1536Kbps (48kHz/16-bit)          LPCM 2.0 1536Kbps (48kHz/16-bit)

Код:
DISC INFO:
Disc Title:     ALICE_COOPER_RAISE_THE_DEAD_LIVE_FROM_WACKEN
Disc Size:      25 017 259 844 bytes
Protection:     AACS
BD-Java:        No
Extras:         50Hz Content
BDInfo:         0.5.8
PLAYLIST REPORT:
Name:                   00012.MPLS
Length:                 0:00:26.799 (h:m:s.ms)
Size:                   106 020 864 bytes
Total Bitrate:          31.65 Mbps
VIDEO:
Codec                   Bitrate             Description
-----                   -------             -----------
MPEG-4 AVC Video        24948 kbps          1080i / 25 fps / 16:9 / High Profile 4.1
AUDIO:
Codec                           Language        Bitrate         Description
-----                           --------        -------         -----------
LPCM Audio                      German          1536 kbps       2.0 / 48 kHz / 1536 kbps / 16-bit
LPCM Audio                      German          1536 kbps       2.0 / 48 kHz / 1536 kbps / 16-bit
LPCM Audio                      German          1536 kbps       2.0 / 48 kHz / 1536 kbps / 16-bit
FILES:
Name            Time In         Length          Size            Total Bitrate
----            -------         ------          ----            -------------
00012.M2TS      0:00:00.000     0:00:26.799     106 020 864     31 648
CHAPTERS:
Number          Time In         Length          Avg Video Rate  Max 1-Sec Rate  Max 1-Sec Time  Max 5-Sec Rate  Max 5-Sec Time  Max 10Sec Rate  Max 10Sec Time  Avg Frame Size  Max Frame Size  Max Frame Time
------          -------         ------          --------------  --------------  --------------  --------------  --------------  --------------  --------------  --------------  --------------  --------------
1               0:00:00.000     0:00:26.799     24 948 kbps     41 135 kbps     00:00:15.120    27 351 kbps     00:00:11.159    26 033 kbps     00:00:09.040    124 738 bytes   336 964 bytes   00:00:15.360




Скриншоты





                                                                                       
                       
                       
                       
                       
                       
                                磁力下载:
                                                               
                                       
游客,本主题需向作者支付 7音乐币 才能浏览,金币充值, 免回复、免金币,直接查看内容请开通VIP支付

                                               
  • 23.3 GB
  • 温馨提示

    记得善用社区搜索功能,那里可能会有你想要的资源;论坛站内搜索

    如果你有什么需要的资源可以去资源求档发帖,求助社区的网友,我们会在第一时间给你回复哦;资源求档

    对于本社区网盘链接失效密码错误各种报错请在反馈板块反馈报错发帖,您的支持,是我们发展的最大动力;投诉建议

    回复

    使用道具 举报

    您需要登录后才可以回帖 登录 | 立即注册 微信登录

    本版积分规则

    关注0

    粉丝12

    帖子69803

    发布主题
    阅读排行更多+
    关闭

    站长推荐上一条 /1 下一条

    收藏帖子 返回列表 这是一个自定义按钮
    音乐分享,音乐下载。
    微信公众号
    微信号:hires_
    意见反馈:admin@maomicd.com

    加入我们的官方QQ群和微信群

    Powered by Discuz! X3.4 Archiver|手机版|小黑屋|捌零音乐论坛 ( 苏ICP备20015413号 )|( 苏公网安备 32030502000272号) 繁體

    GMT+8, 2021-5-6 07:47