自购原抓音乐圈:只有自购、合购、原抓级高解析(hires、sacd、dsd)正版音乐资源分享!【点我打开
极速无线网卡:千兆无线网卡、服务器网卡、USB接口台式机笔记本网卡 硬盘代考无损音乐!【点我打开
广告

[摇滚] Alice Cooper - Good to See You Again - Live 1973 [2010, rock, Blu-ray]

[复制链接]
10086 发表于 2021-4-13 15:34:04 | 显示全部楼层 |阅读模式 打印 上一主题 下一主题
Alice Cooper: Good to See You Again
Live 1973: The Billion Dollar Babies Tour
Оригинальное название: Alice Cooper - Good to See You Again - Live 1973: The Billion Dollar Babies Tour
Жанр: rock
Продолжительность: 01:38:28 + 00:59:35
Год выпуска: 1974/2010
Выпущено: US | Shout Factory
Исполнители: Alice Cooper – vocals, harmonica, Glen Buxton – guitar, Michael Bruce – rhythm guitar, keyboards, backing vocals, Dennis Dunaway – bass, backing vocals, Neal Smith – drums
Good To See You Again, Alice Cooper is one of the great lost rock films. The movie, which captures the original band lineup in the middle of the legendary 1973 Billion Dollar Babies tour, has never before been available on home video or DVD.
• Shout! Factory is proud to present the original cut of the film (including skits featuring the band) which was given a very limited theatrical run—mostly at midnight screenings—in the mid-’70s. This is the early cut, predating the Hollywood version. Now available for the first time since the theatrical release, Good To See You Again, Alice Cooper boasts a new high-definition film transfer as well as a new Surround Sound mix created from the 16-track master tapes, plus a multitude of extras, including movie-length commentary by Alice himself. "The film that out-grosses them all"—as it was originally billed—is back, looking and sounding better than ever.
Цитата:
Треклист:
1.Hello, Hooray
2.Billion Dollar Babies
3.Elected
4.I'm Eighteen
5.Raped And Freezin'
6.No More Mr. Nice Guy
7.My Stars
8.Unfinished Sweet
9.Sick Things
10.Dead Babies
11.I Love The Dead
12.School's Out
13.Under My Wheels
14.And a studio performance of The Lady Is A Tramp
Бонус:
Audio Commentary by Alice Cooper
Anamorphic Widescreen & 5.1 Surround Sound
"Play concert only" viewing option
Unfinished Sweet (Uncensored Edit) (480p, 3:57)
Original Theatrical Trailer (480p, 3:15)
Poster Gallery with Original Promotional Material (480p, 2:57)
Deleted Scene and Outtakes (480p, 2:00)
Band Biographies
DVD Easter Eggs

Качество: Blu-ray
Контейнер: BDMV
Видео кодек: VC-1
Аудио кодек: DTS, PCM
Видео: VC-1 17951 kbps 1920*1080p / 23,976 fps / 16:9 / Advanced Profile 3
Аудио#1: English DTS-HD MA 5.1 / 48 kHz / 4704 kbps / 24-bit (DTS Core: 5.1 / 48 kHz / 1509 kbps / 24-bit)
Аудио#2: English LPCM Audio / 2.0 / 48 kHz / 2304 kbps / 24-bit
Аудио#3: English LPCM Audio / 2.0 / 48 kHz / 2304 kbps / 24-bit (Commentary by Alice Cooper)
BDInfo

DISC INFO:
Disc Title:     GTSYA_ALICE_COOPER
Disc Size:      23 294 333 824 bytes
Protection:     AACS
BD-Java:        No
BDInfo:         0.5.6
PLAYLIST REPORT:
Name:                   00000.MPLS
Length:                 1:38:28 (h:m:s)
Size:                   21 321 811 968 bytes
Total Bitrate:          28,87 Mbps
VIDEO:
Codec                   Bitrate             Description
-----                   -------             -----------
VC-1 Video              17951 kbps          1080p / 23,976 fps / 16:9 / Advanced Profile 3
AUDIO:
Codec                           Language        Bitrate         Description
-----                           --------        -------         -----------
LPCM Audio                      English         2304 kbps       2.0 / 48 kHz / 2304 kbps / 24-bit
DTS-HD Master Audio             English         4704 kbps       5.1 / 48 kHz / 4704 kbps / 24-bit (DTS Core: 5.1 / 48 kHz / 1509 kbps / 24-bit)
LPCM Audio                      English         2304 kbps       2.0 / 48 kHz / 2304 kbps / 24-bit
FILES:
Name            Time In         Length          Size            Total Bitrate
----            -------         ------          ----            -------------
00000.M2TS      0:00:00.000     0:09:49.672     2 070 097 920   28 085
00033.M2TS      0:09:49.672     0:06:31.474     1 439 299 584   29 413
00034.M2TS      0:16:21.146     0:09:46.669     2 086 680 576   28 455
00035.M2TS      0:26:07.816     0:06:49.492     1 493 047 296   29 169
00036.M2TS      0:32:57.308     0:03:50.313     822 386 688     28 566
00037.M2TS      0:36:47.622     0:18:39.201     4 084 764 672   29 198
00038.M2TS      0:55:26.823     0:01:53.196     403 857 408     28 542
00039.M2TS      0:57:20.019     0:10:53.194     2 385 629 184   29 218
00040.M2TS      1:08:13.214     0:02:47.750     595 888 128     28 418
00041.M2TS      1:11:00.964     0:01:43.853     379 914 240     29 265
00042.M2TS      1:12:44.818     0:02:56.009     623 757 312     28 351
00043.M2TS      1:15:40.827     0:01:28.296     320 821 248     29 068
00044.M2TS      1:17:09.124     0:04:31.062     960 049 152     28 334
00045.M2TS      1:21:40.186     0:02:28.273     543 172 608     29 307
00046.M2TS      1:24:08.459     0:01:26.461     307 359 744     28 439
00047.M2TS      1:25:34.921     0:11:01.410     2 414 776 320   29 208
00048.M2TS      1:36:36.331     0:01:52.529     390 309 888     27 748
CHAPTERS:
Number          Time In         Length          Avg Video Rate  Max 1-Sec Rate  Max 1-Sec Time  Max 5-Sec Rate  Max 5-Sec Time  Max 10Sec Rate  Max 10Sec Time  Avg Frame Size  Max Frame Size  Max Frame Time
------          -------         ------          --------------  --------------  --------------  --------------  --------------  --------------  --------------  --------------  --------------  --------------
1               0:00:00.000     0:07:58.478     18 076 kbps     29 570 kbps     00:06:10.578    27 662 kbps     00:06:06.574    25 571 kbps     00:07:24.819    94 234 bytes    349 010 bytes   00:02:49.168
2               0:07:58.478     0:01:51.194     17 688 kbps     33 976 kbps     00:09:35.825    30 769 kbps     00:09:31.988    25 208 kbps     00:09:27.483    92 215 bytes    325 378 bytes   00:08:13.492
3               0:09:49.672     0:03:09.188     18 774 kbps     33 908 kbps     00:09:49.672    29 080 kbps     00:10:38.763    27 356 kbps     00:10:35.343    97 877 bytes    382 309 bytes   00:12:30.082
4               0:12:58.861     0:03:27.290     17 179 kbps     31 104 kbps     00:14:19.858    27 206 kbps     00:14:16.897    25 805 kbps     00:14:13.143    89 563 bytes    324 228 bytes   00:14:13.978
5               0:16:26.151     0:01:46.106     11 824 kbps     23 874 kbps     00:18:11.215    18 090 kbps     00:18:07.252    15 774 kbps     00:18:02.247    61 643 bytes    271 885 bytes   00:16:28.153
6               0:18:12.257     0:07:55.558     19 418 kbps     30 417 kbps     00:18:48.252    28 447 kbps     00:19:03.350    27 164 kbps     00:18:59.263    101 235 bytes   326 326 bytes   00:22:17.502
7               0:26:07.816     0:02:23.143     17 102 kbps     35 453 kbps     00:27:15.717    26 985 kbps     00:26:26.292    23 165 kbps     00:26:28.878    89 164 bytes    324 286 bytes   00:26:37.887
8               0:28:30.959     0:04:26.349     18 193 kbps     38 401 kbps     00:28:41.010    30 947 kbps     00:28:52.188    29 606 kbps     00:28:49.185    94 864 bytes    408 007 bytes   00:28:56.234
9               0:32:57.308     0:00:15.014     10 800 kbps     13 057 kbps     00:33:06.484    12 305 kbps     00:33:05.900    11 763 kbps     00:33:01.270    56 308 bytes    272 173 bytes   00:33:04.315
10              0:33:12.323     0:03:35.298     18 497 kbps     28 801 kbps     00:34:46.417    23 907 kbps     00:33:13.324    22 337 kbps     00:33:12.824    96 456 bytes    335 699 bytes   00:33:16.327
11              0:36:47.622     0:03:14.193     20 608 kbps     39 517 kbps     00:37:43.260    31 675 kbps     00:37:41.342    29 561 kbps     00:37:36.337    107 441 bytes   317 157 bytes   00:37:43.344
12              0:40:01.815     0:03:05.184     14 163 kbps     30 124 kbps     00:40:21.585    24 336 kbps     00:40:19.333    22 255 kbps     00:40:14.912    73 841 bytes    358 744 bytes   00:42:02.728
13              0:43:07.000     0:07:25.445     16 981 kbps     34 047 kbps     00:49:24.169    31 581 kbps     00:49:22.334    29 845 kbps     00:49:17.287    88 531 bytes    475 046 bytes   00:43:40.826
14              0:50:32.446     0:04:54.377     19 656 kbps     33 964 kbps     00:52:43.952    30 059 kbps     00:52:16.091    28 804 kbps     00:52:15.173    102 478 bytes   386 852 bytes   00:54:36.981
15              0:55:26.823     0:01:53.196     18 044 kbps     31 341 kbps     00:57:10.468    29 166 kbps     00:57:08.216    27 442 kbps     00:57:05.505    94 073 bytes    327 379 bytes   00:56:59.916
16              0:57:20.019     0:03:16.195     18 621 kbps     35 333 kbps     00:57:58.683    31 205 kbps     00:57:55.013    29 394 kbps     00:57:49.966    97 079 bytes    370 073 bytes   00:57:45.295
17              1:00:36.215     0:02:49.168     15 774 kbps     37 392 kbps     01:02:39.463    31 103 kbps     01:02:36.377    28 777 kbps     01:02:31.372    82 236 bytes    334 414 bytes   01:01:50.331
18              1:03:25.384     0:04:47.829     18 843 kbps     38 553 kbps     01:07:57.656    30 303 kbps     01:03:25.384    28 883 kbps     01:03:25.384    98 241 bytes    364 087 bytes   01:06:03.000
19              1:08:13.214     0:02:08.127     15 296 kbps     41 746 kbps     01:10:17.546    26 892 kbps     01:10:16.336    20 894 kbps     01:10:11.331    79 748 bytes    465 278 bytes   01:10:17.379
20              1:10:21.342     0:00:39.622     26 151 kbps     37 200 kbps     01:10:59.380    31 227 kbps     01:10:55.376    29 636 kbps     01:10:50.371    136 337 bytes   336 520 bytes   01:10:59.630
21              1:11:00.964     0:01:43.853     17 976 kbps     36 545 kbps     01:11:00.964    31 660 kbps     01:12:16.039    26 591 kbps     01:12:11.076    93 717 bytes    342 368 bytes   01:11:01.006
22              1:12:44.818     0:02:56.009     18 001 kbps     23 968 kbps     01:14:56.450    22 776 kbps     01:14:54.531    21 087 kbps     01:14:53.947    93 851 bytes    305 602 bytes   01:15:25.979
23              1:15:40.827     0:01:28.296     17 991 kbps     34 602 kbps     01:15:40.827    26 077 kbps     01:15:40.827    20 908 kbps     01:16:47.144    93 798 bytes    256 470 bytes   01:15:41.370
24              1:17:09.124     0:04:31.062     17 998 kbps     22 118 kbps     01:17:46.620    20 557 kbps     01:17:46.620    20 409 kbps     01:18:11.436    93 832 bytes    319 197 bytes   01:18:17.192
25              1:21:40.186     0:02:28.273     17 998 kbps     32 613 kbps     01:21:57.454    30 413 kbps     01:21:53.950    29 153 kbps     01:21:53.950    93 831 bytes    327 130 bytes   01:21:54.200
26              1:24:08.459     0:01:26.461     17 989 kbps     25 812 kbps     01:24:08.459    23 944 kbps     01:24:08.459    22 660 kbps     01:24:39.490    93 788 bytes    344 766 bytes   01:24:48.499
27              1:25:34.921     0:02:02.122     19 165 kbps     33 231 kbps     01:26:34.272    29 694 kbps     01:27:21.903    28 424 kbps     01:27:21.194    99 915 bytes    334 427 bytes   01:26:35.022
28              1:27:37.043     0:06:53.412     17 649 kbps     34 117 kbps     01:29:06.507    29 975 kbps     01:28:09.367    27 708 kbps     01:31:23.227    92 015 bytes    325 678 bytes   01:28:14.372
29              1:34:30.456     0:02:05.875     17 996 kbps     32 631 kbps     01:35:01.737    28 017 kbps     01:35:18.420    25 962 kbps     01:35:27.930    93 825 bytes    279 484 bytes   01:35:21.507
30              1:36:36.331     0:00:21.020     18 727 kbps     22 614 kbps     01:36:53.849    20 196 kbps     01:36:52.347    19 771 kbps     01:36:46.925    97 633 bytes    287 517 bytes   01:36:43.338
31              1:36:57.352     0:01:29.088     18 307 kbps     21 429 kbps     01:38:08.882    20 514 kbps     01:37:06.945    20 310 kbps     01:37:06.403    95 444 bytes    349 967 bytes   01:38:08.423
32              1:38:26.441     0:00:02.419     72 kbps         85 kbps         01:38:26.441    0 kbps          00:00:00.000    0 kbps          00:00:00.000    388 bytes       9 231 bytes     01:38:27.442
STREAM DIAGNOSTICS:
File            PID             Type            Codec           Language                Seconds                 Bitrate                 Bytes           Packets
----            ---             ----            -----           --------                --------------          --------------          -------------   -----
00000.M2TS      4113 (0x1011)   0xEA            VC-1                                    589,589                 18 003                  1 326 762 494   7 219 133
00000.M2TS      4352 (0x1100)   0x80            LPCM            eng (English)           589,589                 2 311                   170 298 140     943 480
00000.M2TS      4353 (0x1101)   0x86            DTS-HD MA       eng (English)           589,589                 3 905                   287 815 124     1 655 860
00000.M2TS      4354 (0x1102)   0x80            LPCM            eng (English)           589,589                 2 311                   170 298 140     943 480
00033.M2TS      4113 (0x1011)   0xEA            VC-1                                    391,391                 17 999                  880 587 994     4 791 402
00033.M2TS      4352 (0x1100)   0x80            LPCM            eng (English)           391,391                 2 311                   113 046 428     626 296
00033.M2TS      4353 (0x1101)   0x86            DTS-HD MA       eng (English)           391,391                 5 184                   253 619 304     1 439 222
00033.M2TS      4354 (0x1102)   0x80            LPCM            eng (English)           391,391                 2 311                   113 046 428     626 296
00034.M2TS      4113 (0x1011)   0xEA            VC-1                                    586,586                 18 000                  1 319 830 984   7 181 393
00034.M2TS      4352 (0x1100)   0x80            LPCM            eng (English)           586,586                 2 311                   169 418 744     938 608
00034.M2TS      4353 (0x1101)   0x86            DTS-HD MA       eng (English)           586,586                 4 262                   312 482 616     1 789 857
00034.M2TS      4354 (0x1102)   0x80            LPCM            eng (English)           586,586                 2 311                   169 418 744     938 608
00035.M2TS      4113 (0x1011)   0xEA            VC-1                                    409,409                 17 815                  911 688 905     4 960 739
00035.M2TS      4352 (0x1100)   0x80            LPCM            eng (English)           409,409                 2 311                   118 249 160     655 120
00035.M2TS      4353 (0x1101)   0x86            DTS-HD MA       eng (English)           409,409                 5 134                   262 720 884     1 491 569
00035.M2TS      4354 (0x1102)   0x80            LPCM            eng (English)           409,409                 2 311                   118 249 160     655 120
00036.M2TS      4113 (0x1011)   0xEA            VC-1                                    230,230                 18 002                  518 072 993     2 818 945
00036.M2TS      4352 (0x1100)   0x80            LPCM            eng (English)           230,230                 2 311                   66 503 420      368 440
00036.M2TS      4353 (0x1101)   0x86            DTS-HD MA       eng (English)           230,230                 4 372                   125 820 028     719 720
00036.M2TS      4354 (0x1102)   0x80            LPCM            eng (English)           230,230                 2 311                   66 503 420      368 440
00037.M2TS      4113 (0x1011)   0xEA            VC-1                                    1119,118                17 849                  2 496 925 129   13 586 363
00037.M2TS      4352 (0x1100)   0x80            LPCM            eng (English)           1119,118                2 310                   323 213 408     1 790 656
00037.M2TS      4353 (0x1101)   0x86            DTS-HD MA       eng (English)           1119,118                5 124                   716 748 632     4 069 625
00037.M2TS      4354 (0x1102)   0x80            LPCM            eng (English)           1119,118                2 310                   323 213 408     1 790 656
00038.M2TS      4113 (0x1011)   0xEA            VC-1                                    113,113                 18 049                  255 204 069     1 388 609
00038.M2TS      4352 (0x1100)   0x80            LPCM            eng (English)           113,113                 2 311                   32 679 164      181 048
00038.M2TS      4353 (0x1101)   0x86            DTS-HD MA       eng (English)           113,113                 4 314                   60 997 572      348 930
00038.M2TS      4354 (0x1102)   0x80            LPCM            eng (English)           113,113                 2 311                   32 679 164      181 048
00039.M2TS      4113 (0x1011)   0xEA            VC-1                                    653,069                 17 985                  1 468 157 964   7 988 478
00039.M2TS      4352 (0x1100)   0x80            LPCM            eng (English)           653,069                 2 311                   188 631 164     1 045 048
00039.M2TS      4353 (0x1101)   0x86            DTS-HD MA       eng (English)           653,069                 5 011                   409 035 048     2 324 697
00039.M2TS      4354 (0x1102)   0x80            LPCM            eng (English)           653,069                 2 311                   188 631 164     1 045 048
00040.M2TS      4113 (0x1011)   0xEA            VC-1                                    167,584                 17 872                  374 379 741     2 037 107
00040.M2TS      4352 (0x1100)   0x80            LPCM            eng (English)           167,584                 2 312                   48 434 648      268 336
00040.M2TS      4353 (0x1101)   0x86            DTS-HD MA       eng (English)           167,584                 4 374                   91 628 764      524 177
00040.M2TS      4354 (0x1102)   0x80            LPCM            eng (English)           167,584                 2 312                   48 434 648      268 336
00041.M2TS      4113 (0x1011)   0xEA            VC-1                                    103,729                 18 001                  233 408 749     1 269 989
00041.M2TS      4352 (0x1100)   0x80            LPCM            eng (English)           103,729                 2 313                   29 993 324      166 168
00041.M2TS      4353 (0x1101)   0x86            DTS-HD MA       eng (English)           103,729                 5 062                   65 639 708      372 906
00041.M2TS      4354 (0x1102)   0x80            LPCM            eng (English)           103,729                 2 313                   29 993 324      166 168
00042.M2TS      4113 (0x1011)   0xEA            VC-1                                    175,926                 18 012                  396 105 229     2 155 264
00042.M2TS      4352 (0x1100)   0x80            LPCM            eng (English)           175,926                 2 312                   50 831 688      281 616
00042.M2TS      4353 (0x1101)   0x86            DTS-HD MA       eng (English)           175,926                 4 157                   91 420 228      524 332
00042.M2TS      4354 (0x1102)   0x80            LPCM            eng (English)           175,926                 2 312                   50 831 688      281 616
00043.M2TS      4113 (0x1011)   0xEA            VC-1                                    88,213                  18 006                  198 545 141     1 080 334
00043.M2TS      4352 (0x1100)   0x80            LPCM            eng (English)           88,213                  2 313                   25 499 596      141 272
00043.M2TS      4353 (0x1101)   0x86            DTS-HD MA       eng (English)           88,213                  4 863                   53 620 984      305 091
00043.M2TS      4354 (0x1102)   0x80            LPCM            eng (English)           88,213                  2 313                   25 499 596      141 272
00044.M2TS      4113 (0x1011)   0xEA            VC-1                                    270,896                 18 010                  609 860 548     3 318 364
00044.M2TS      4352 (0x1100)   0x80            LPCM            eng (English)           270,896                 2 311                   78 270 576      433 632
00044.M2TS      4353 (0x1101)   0x86            DTS-HD MA       eng (English)           270,896                 4 145                   140 361 944     805 546
00044.M2TS      4354 (0x1102)   0x80            LPCM            eng (English)           270,896                 2 311                   78 270 576      433 632
00045.M2TS      4113 (0x1011)   0xEA            VC-1                                    148,148                 18 011                  333 540 035     1 814 837
00045.M2TS      4352 (0x1100)   0x80            LPCM            eng (English)           148,148                 2 312                   42 821 820      237 240
00045.M2TS      4353 (0x1101)   0x86            DTS-HD MA       eng (English)           148,148                 5 083                   94 129 916      534 712
00045.M2TS      4354 (0x1102)   0x80            LPCM            eng (English)           148,148                 2 312                   42 821 820      237 240
00046.M2TS      4113 (0x1011)   0xEA            VC-1                                    86,336                  18 029                  194 566 278     1 058 662
00046.M2TS      4352 (0x1100)   0x80            LPCM            eng (English)           86,336                  2 314                   24 969 648      138 336
00046.M2TS      4353 (0x1101)   0x86            DTS-HD MA       eng (English)           86,336                  4 246                   45 820 968      262 589
00046.M2TS      4354 (0x1102)   0x80            LPCM            eng (English)           86,336                  2 314                   24 969 648      138 336
00047.M2TS      4113 (0x1011)   0xEA            VC-1                                    661,286                 17 998                  1 487 765 530   8 095 198
00047.M2TS      4352 (0x1100)   0x80            LPCM            eng (English)           661,286                 2 311                   191 003 656     1 058 192
00047.M2TS      4353 (0x1101)   0x86            DTS-HD MA       eng (English)           661,286                 4 987                   412 198 788     2 343 222
00047.M2TS      4354 (0x1102)   0x80            LPCM            eng (English)           661,286                 2 311                   191 003 656     1 058 192
00048.M2TS      4113 (0x1011)   0xEA            VC-1                                    112,362                 18 023                  253 135 942     1 377 346
00048.M2TS      4352 (0x1100)   0x80            LPCM            eng (English)           112,362                 2 313                   32 487 112      179 984
00048.M2TS      4353 (0x1101)   0x86            DTS-HD MA       eng (English)           112,362                 3 593                   50 465 752      291 784
00048.M2TS      4354 (0x1102)   0x80            LPCM            eng (English)           112,362                 2 313                   32 487 112      179 984
[/code]
QUICK SUMMARY:
Disc Title: GTSYA_ALICE_COOPER
Disc Size: 23 294 333 824 bytes
Protection: AACS
BD-Java: No
Playlist: 00000.MPLS
Size: 21 321 811 968 bytes
Length: 1:38:28
Total Bitrate: 28,87 Mbps
Video: VC-1 Video / 17951 kbps / 1080p / 23,976 fps / 16:9 / Advanced Profile 3
Audio: English / LPCM Audio / 2.0 / 48 kHz / 2304 kbps / 24-bit
Audio: English / DTS-HD Master Audio / 5.1 / 48 kHz / 4704 kbps / 24-bit (DTS Core: 5.1 / 48 kHz / 1509 kbps / 24-bit)
Audio: English / LPCM Audio / 2.0 / 48 kHz / 2304 kbps / 24-bit
********************
PLAYLIST: 00020.MPLS
********************

Код:

                                                                                Total   Video
Title                                                           Codec   Length  Movie Size      Disc Size       Bitrate Bitrate Main Audio Track                          Secondary Audio Track
-----                                                           ------  ------- --------------  --------------  ------- ------- ------------------                        ---------------------
00020.MPLS                                                      VC-1    0:59:35 13 061 425 152  23 294 333 824  29,23   17,92   LPCM 2.0 2304Kbps (48kHz/24-bit)          DTS-HD Master 5.1 5074Kbps (48kHz/24-bit)

Код:
DISC INFO:
Disc Title:     GTSYA_ALICE_COOPER
Disc Size:      23 294 333 824 bytes
Protection:     AACS
BD-Java:        No
BDInfo:         0.5.6
PLAYLIST REPORT:
Name:                   00020.MPLS
Length:                 0:59:35 (h:m:s)
Size:                   13 061 425 152 bytes
Total Bitrate:          29,23 Mbps
VIDEO:
Codec                   Bitrate             Description
-----                   -------             -----------
VC-1 Video              17925 kbps          1080p / 23,976 fps / 16:9 / Advanced Profile 3
AUDIO:
Codec                           Language        Bitrate         Description
-----                           --------        -------         -----------
LPCM Audio                      English         2304 kbps       2.0 / 48 kHz / 2304 kbps / 24-bit
DTS-HD Master Audio             English         5074 kbps       5.1 / 48 kHz / 5074 kbps / 24-bit (DTS Core: 5.1 / 48 kHz / 1509 kbps / 24-bit)
LPCM Audio                      English         2304 kbps       2.0 / 48 kHz / 2304 kbps / 24-bit
FILES:
Name            Time In         Length          Size            Total Bitrate
----            -------         ------          ----            -------------
00033.M2TS      0:00:00.000     0:06:31.474     1 439 299 584   29 413
00035.M2TS      0:06:31.474     0:06:49.492     1 493 047 296   29 169
00037.M2TS      0:13:20.966     0:18:39.201     4 084 764 672   29 198
00039.M2TS      0:32:00.168     0:10:53.194     2 385 629 184   29 218
00041.M2TS      0:42:53.362     0:01:43.853     379 914 240     29 265
00043.M2TS      0:44:37.216     0:01:28.296     320 821 248     29 068
00045.M2TS      0:46:05.512     0:02:28.273     543 172 608     29 307
00047.M2TS      0:48:33.785     0:11:01.410     2 414 776 320   29 208
CHAPTERS:
Number          Time In         Length          Avg Video Rate  Max 1-Sec Rate  Max 1-Sec Time  Max 5-Sec Rate  Max 5-Sec Time  Max 10Sec Rate  Max 10Sec Time  Avg Frame Size  Max Frame Size  Max Frame Time
------          -------         ------          --------------  --------------  --------------  --------------  --------------  --------------  --------------  --------------  --------------  --------------
1               0:00:00.000     0:03:09.188     18 783 kbps     33 620 kbps     00:00:00.208    29 080 kbps     00:00:49.090    27 356 kbps     00:00:45.670    97 907 bytes    382 309 bytes   00:02:40.410
2               0:03:09.188     0:03:22.285     17 259 kbps     31 104 kbps     00:04:30.186    27 206 kbps     00:04:27.225    25 805 kbps     00:04:23.471    89 978 bytes    324 228 bytes   00:04:24.305
3               0:06:31.474     0:02:23.143     17 102 kbps     35 453 kbps     00:07:39.375    26 985 kbps     00:06:49.951    23 165 kbps     00:06:52.537    89 164 bytes    324 286 bytes   00:07:01.546
4               0:08:54.617     0:04:26.349     18 193 kbps     38 401 kbps     00:09:04.669    30 947 kbps     00:09:15.846    29 606 kbps     00:09:12.843    94 866 bytes    408 007 bytes   00:09:19.892
5               0:13:20.966     0:03:14.193     20 608 kbps     39 517 kbps     00:14:16.605    31 675 kbps     00:14:14.687    29 561 kbps     00:14:09.682    107 441 bytes   317 157 bytes   00:14:16.689
6               0:16:35.160     0:03:05.185     14 163 kbps     30 124 kbps     00:16:54.930    24 336 kbps     00:16:52.678    22 255 kbps     00:16:48.257    73 841 bytes    358 744 bytes   00:18:36.073
7               0:19:40.345     0:07:25.444     16 981 kbps     34 047 kbps     00:25:57.514    31 581 kbps     00:25:55.679    29 845 kbps     00:25:50.632    88 531 bytes    475 046 bytes   00:20:14.171
8               0:27:05.790     0:04:54.377     19 659 kbps     33 964 kbps     00:29:17.297    30 059 kbps     00:28:49.436    28 804 kbps     00:28:48.518    102 494 bytes   386 852 bytes   00:31:10.326
9               0:32:00.168     0:03:16.196     18 621 kbps     35 333 kbps     00:32:38.831    31 205 kbps     00:32:35.161    29 394 kbps     00:32:30.114    97 079 bytes    370 073 bytes   00:32:25.443
10              0:35:16.364     0:02:49.168     15 774 kbps     37 392 kbps     00:37:19.612    31 103 kbps     00:37:16.525    28 777 kbps     00:37:11.520    82 236 bytes    334 414 bytes   00:36:30.479
11              0:38:05.533     0:04:47.829     18 847 kbps     38 553 kbps     00:42:37.805    30 303 kbps     00:38:05.533    28 883 kbps     00:38:05.533    98 260 bytes    364 087 bytes   00:40:43.148
12              0:42:53.362     0:01:43.853     17 971 kbps     36 545 kbps     00:42:53.362    31 660 kbps     00:44:08.437    26 591 kbps     00:44:03.474    93 695 bytes    342 368 bytes   00:42:53.404
13              0:44:37.216     0:01:28.296     17 987 kbps     34 602 kbps     00:44:37.216    26 077 kbps     00:44:37.216    20 908 kbps     00:45:43.532    93 778 bytes    256 470 bytes   00:44:37.758
14              0:46:05.512     0:02:28.273     17 990 kbps     32 613 kbps     00:46:22.779    30 413 kbps     00:46:19.276    29 153 kbps     00:46:19.276    93 791 bytes    327 130 bytes   00:46:19.526
15              0:48:33.785     0:02:02.121     19 165 kbps     33 231 kbps     00:49:33.136    29 694 kbps     00:50:20.767    28 424 kbps     00:50:20.058    99 915 bytes    334 427 bytes   00:49:33.887
16              0:50:35.907     0:06:54.414     17 653 kbps     34 117 kbps     00:52:05.372    29 975 kbps     00:51:08.231    27 708 kbps     00:54:22.092    92 037 bytes    325 678 bytes   00:51:13.236
17              0:57:30.321     0:02:04.874     17 983 kbps     32 631 kbps     00:58:00.602    28 017 kbps     00:58:17.285    25 962 kbps     00:58:26.794    93 784 bytes    279 484 bytes   00:58:20.371
STREAM DIAGNOSTICS:
File            PID             Type            Codec           Language                Seconds                 Bitrate                 Bytes           Packets
----            ---             ----            -----           --------                --------------          --------------          -------------   -----
00033.M2TS      4113 (0x1011)   0xEA            VC-1                                    391,391                 17 999                  880 587 994     4 791 402
00033.M2TS      4352 (0x1100)   0x80            LPCM            eng (English)           391,391                 2 311                   113 046 428     626 296
00033.M2TS      4353 (0x1101)   0x86            DTS-HD MA       eng (English)           391,391                 5 184                   253 619 304     1 439 222
00033.M2TS      4354 (0x1102)   0x80            LPCM            eng (English)           391,391                 2 311                   113 046 428     626 296
00035.M2TS      4113 (0x1011)   0xEA            VC-1                                    409,409                 17 815                  911 688 905     4 960 739
00035.M2TS      4352 (0x1100)   0x80            LPCM            eng (English)           409,409                 2 311                   118 249 160     655 120
00035.M2TS      4353 (0x1101)   0x86            DTS-HD MA       eng (English)           409,409                 5 134                   262 720 884     1 491 569
00035.M2TS      4354 (0x1102)   0x80            LPCM            eng (English)           409,409                 2 311                   118 249 160     655 120
00037.M2TS      4113 (0x1011)   0xEA            VC-1                                    1119,118                17 849                  2 496 925 129   13 586 363
00037.M2TS      4352 (0x1100)   0x80            LPCM            eng (English)           1119,118                2 310                   323 213 408     1 790 656
00037.M2TS      4353 (0x1101)   0x86            DTS-HD MA       eng (English)           1119,118                5 124                   716 748 632     4 069 625
00037.M2TS      4354 (0x1102)   0x80            LPCM            eng (English)           1119,118                2 310                   323 213 408     1 790 656
00039.M2TS      4113 (0x1011)   0xEA            VC-1                                    653,069                 17 985                  1 468 157 964   7 988 478
00039.M2TS      4352 (0x1100)   0x80            LPCM            eng (English)           653,069                 2 311                   188 631 164     1 045 048
00039.M2TS      4353 (0x1101)   0x86            DTS-HD MA       eng (English)           653,069                 5 011                   409 035 048     2 324 697
00039.M2TS      4354 (0x1102)   0x80            LPCM            eng (English)           653,069                 2 311                   188 631 164     1 045 048
00041.M2TS      4113 (0x1011)   0xEA            VC-1                                    103,729                 18 001                  233 408 749     1 269 989
00041.M2TS      4352 (0x1100)   0x80            LPCM            eng (English)           103,729                 2 313                   29 993 324      166 168
00041.M2TS      4353 (0x1101)   0x86            DTS-HD MA       eng (English)           103,729                 5 062                   65 639 708      372 906
00041.M2TS      4354 (0x1102)   0x80            LPCM            eng (English)           103,729                 2 313                   29 993 324      166 168
00043.M2TS      4113 (0x1011)   0xEA            VC-1                                    88,213                  18 006                  198 545 141     1 080 334
00043.M2TS      4352 (0x1100)   0x80            LPCM            eng (English)           88,213                  2 313                   25 499 596      141 272
00043.M2TS      4353 (0x1101)   0x86            DTS-HD MA       eng (English)           88,213                  4 863                   53 620 984      305 091
00043.M2TS      4354 (0x1102)   0x80            LPCM            eng (English)           88,213                  2 313                   25 499 596      141 272
00045.M2TS      4113 (0x1011)   0xEA            VC-1                                    148,148                 18 011                  333 540 035     1 814 837
00045.M2TS      4352 (0x1100)   0x80            LPCM            eng (English)           148,148                 2 312                   42 821 820      237 240
00045.M2TS      4353 (0x1101)   0x86            DTS-HD MA       eng (English)           148,148                 5 083                   94 129 916      534 712
00045.M2TS      4354 (0x1102)   0x80            LPCM            eng (English)           148,148                 2 312                   42 821 820      237 240
00047.M2TS      4113 (0x1011)   0xEA            VC-1                                    661,286                 17 998                  1 487 765 530   8 095 198
00047.M2TS      4352 (0x1100)   0x80            LPCM            eng (English)           661,286                 2 311                   191 003 656     1 058 192
00047.M2TS      4353 (0x1101)   0x86            DTS-HD MA       eng (English)           661,286                 4 987                   412 198 788     2 343 222
00047.M2TS      4354 (0x1102)   0x80            LPCM            eng (English)           661,286                 2 311                   191 003 656     1 058 192


QUICK SUMMARY:
Disc Title: GTSYA_ALICE_COOPER
Disc Size: 23 294 333 824 bytes
Protection: AACS
BD-Java: No
Playlist: 00020.MPLS
Size: 13 061 425 152 bytes
Length: 0:59:35
Total Bitrate: 29,23 Mbps
Video: VC-1 Video / 17925 kbps / 1080p / 23,976 fps / 16:9 / Advanced Profile 3
Audio: English / LPCM Audio / 2.0 / 48 kHz / 2304 kbps / 24-bit
Audio: English / DTS-HD Master Audio / 5.1 / 48 kHz / 5074 kbps / 24-bit (DTS Core: 5.1 / 48 kHz / 1509 kbps / 24-bit)
Audio: English / LPCM Audio / 2.0 / 48 kHz / 2304 kbps / 24-bit


Скриншоты













Обложки/Covers




Thanks to alexshel at HDGeek                                                                                       
                       
                       
                       
                       
                       
                                磁力下载:(论坛代下载服务)
                                                               
                                       
游客,本主题需向作者支付 7音乐币 才能浏览,金币充值, 免回复、免金币,直接查看内容请开通VIP支付

                                               
  • 21.69 GB
  • 温馨提示

    记得善用社区搜索功能,那里可能会有你想要的资源;论坛站内搜索

    如果你有什么需要的资源可以去资源求档发帖,求助社区的网友,我们会在第一时间给你回复哦;资源求档

    对于本社区网盘链接失效密码错误各种报错请在反馈板块反馈报错发帖,您的支持,是我们发展的最大动力;投诉建议

    回复

    使用道具 举报

    您需要登录后才可以回帖 登录 | 立即注册 微信登录

    本版积分规则

    关注0

    粉丝4

    帖子51182

    发布主题
    阅读排行更多+
    关闭

    站长推荐上一条 /1 下一条

    收藏帖子 返回列表 这是一个自定义按钮
    音乐分享,音乐下载。
    微信公众号
    微信号:hires_
    意见反馈:admin@maomicd.com

    加入我们的官方QQ群和微信群

    Powered by Discuz! X3.4 Archiver|手机版|小黑屋|捌零音乐论坛 ( 苏ICP备20015413号 )|( 苏公网安备 32030502000272号) 繁體

    GMT+8, 2021-5-9 06:54