自购原抓音乐圈:只有自购、合购、原抓级高解析(hires、sacd、dsd)正版音乐资源分享!【点我打开
极速无线网卡:千兆无线网卡、服务器网卡、USB接口台式机笔记本网卡 硬盘代考无损音乐!【点我打开
广告

[摇滚] Def Leppard - Hits Vegas: Live at the Planet Hollywood 2019 [2020, Rock, BDRip, 720p]

[复制链接]
lz189 发表于 2021-4-13 15:34:04 | 显示全部楼层 |阅读模式 打印 上一主题 下一主题
Def Leppard - Hits Vegas: Live at the Planet Hollywood 2019
Жанр: Rock
Продолжительность: 02:29:52
Год выпуска: 2020
Треклист:
01. Die Hard The Hunter
02. Animal
03. Excitable
04. Foolin’
05. Too Late For Love
06. Billy’s Got A Gun
07. Slang
08. Promises
09. Paper Sun
10. Let It Go
11. Mirror, Mirror (Look Into My Eyes)
12. Bringin’ On The Heartbreak
13. Switch 625
14. Let Me Be The One
15. We Belong
16. Have You Ever Needed Someone So Bad
17. Two Steps Behind
18. Now
19. Rocket
20. Let’s Get Rocked
21. Hysteria
22. Love Bites
23. Armageddon It
24. Pour Some Sugar On Me
25. Let’s Go (Live)
26. Action
27. Rock Of Ages
Источник Def Leppard ★ Hits Vegas: Live at the Planet Hollywood 2019 [2020, Rock, Blu-ray, 1080i]
Качество: BDRip
Разрешение видео/развертка: 720p
Контейнер: MKV
Видео кодек: H.264
Аудио кодек: DTS, FLAC
Видео: AVC, 1280x720 (16:9), 29.970 fps, 5 870 kb/s
Аудио#1: DTS, 48.0 kHz, 6 ch, 1 509 kb/s
Аудио#2: FLAC, 48.0 kHz, 2 ch, 1 870 kb/s
MediaInfo / x264Log

x264Log

[Information] [30.05.2020 17:38:23] Standard error stream
-[Information] [30.05.2020 17:38:54] y4m [info]: 1280x720p 1:1 @ 30000/1001 fps (cfr)
-[Information] [30.05.2020 17:38:54] x264 [info]: using SAR=1/1
-[Information] [30.05.2020 17:38:54] x264 [info]: using cpu capabilities: MMX2 SSE2Fast SSSE3 SSE4.2 AVX FMA3 BMI2 AVX2
-[Information] [30.05.2020 17:38:54] x264 [info]: profile Progressive High, level 4.1, 4:2:0, 8-bit
-[Information] [30.05.2020 21:37:48] x264 [info]: frame I:1815  Avg QP:16.49  size:125488
-[Information] [30.05.2020 21:37:48] x264 [info]: frame P:66385 Avg QP:19.89  size: 44798
-[Information] [30.05.2020 21:37:48] x264 [info]: frame B:201295 Avg QP:22.18  size: 16874
-[Information] [30.05.2020 21:37:48] x264 [info]: consecutive B-frames:  2.7%  3.9% 12.5% 31.0% 19.7% 24.1%  3.2%  0.9%  0.6%  0.8%  0.6%
-[Information] [30.05.2020 21:37:48] x264 [info]: mb I  I16..4: 13.8% 63.3% 22.9%
-[Information] [30.05.2020 21:37:48] x264 [info]: mb P  I16..4:  5.3% 11.4%  2.4%  P16..4: 31.1% 32.0%  8.8%  1.6%  0.2%    skip: 7.3%
-[Information] [30.05.2020 21:37:48] x264 [info]: mb B  I16..4:  0.7%  1.4%  0.2%  B16..8: 35.1% 18.9%  2.7%  direct: 9.2%  skip:31.8%  L0:43.3% L1:39.7% BI:17.0%
-[Information] [30.05.2020 21:37:48] x264 [info]: 8x8 transform intra:60.2% inter:61.4%
-[Information] [30.05.2020 21:37:48] x264 [info]: direct mvs  spatial:95.8% temporal:4.2%
-[Information] [30.05.2020 21:37:48] x264 [info]: coded y,uvDC,uvAC intra: 52.7% 76.2% 51.8% inter: 22.2% 36.5% 8.8%
-[Information] [30.05.2020 21:37:48] x264 [info]: i16 v,h,dc,p: 52% 15%  5% 28%
-[Information] [30.05.2020 21:37:48] x264 [info]: i8 v,h,dc,ddl,ddr,vr,hd,vl,hu:  8%  6% 18%  9% 12% 12% 11% 11% 11%
-[Information] [30.05.2020 21:37:48] x264 [info]: i4 v,h,dc,ddl,ddr,vr,hd,vl,hu: 11%  8% 12% 10% 13% 13% 11% 11% 13%
-[Information] [30.05.2020 21:37:48] x264 [info]: i8c dc,h,v,p: 34% 27% 20% 18%
-[Information] [30.05.2020 21:37:48] x264 [info]: Weighted P-Frames: Y:18.1% UV:14.7%
-[Information] [30.05.2020 21:37:48] x264 [info]: ref P L0: 49.2%  8.3% 16.5%  6.7%  5.3%  4.1%  3.7%  2.6%  2.9%  0.7%  0.1%
-[Information] [30.05.2020 21:37:48] x264 [info]: ref B L0: 76.8% 10.7%  5.1%  2.6%  1.9%  1.5%  1.0%  0.4%
-[Information] [30.05.2020 21:37:48] x264 [info]: ref B L1: 95.3%  4.7%
-[Information] [30.05.2020 21:37:48] x264 [info]: kb/s:5870.27
-[Information] [30.05.2020 21:37:48] encoded 269495 frames, 18.80 fps, 5870.27 kb/s

General
Unique ID                   : 3853526841719072964174476152741541459 (0x2E6298AC32EB7867D839D9ABA7FB653)
Complete name               : D:\BDRip\Def Leppard - Hits Vegas Live at the Planet Hollywood 2019.mkv
Format                      : Matroska
Format version              : Version 2
File size                   : 9.69 GiB
Duration                    : 2 h 29 min
Overall bit rate mode       : Variable
Overall bit rate            : 9 252 kb/s
Movie name                  : Def Leppard / Hits Vegas: Live at the Planet Hollywood 2019. BDRip720p @ rutracker.org
Encoded date                : UTC 2020-05-30 19:30:38
Writing application         : mkvmerge v46.0.0 ('No Deeper Escape') 64-bit
Writing library             : libebml v1.3.10 + libmatroska v1.5.2
Video
ID                          : 1
Format                      : AVC
Format/Info                 : Advanced Video Codec
Format profile              : High@L4.1
Format settings             : CABAC / 9 Ref Frames
Format settings, CABAC      : Yes
Format settings, Reference  : 9 frames
Codec ID                    : V_MPEG4/ISO/AVC
Duration                    : 2 h 29 min
Bit rate                    : 5 870 kb/s
Width                       : 1 280 pixels
Height                      : 720 pixels
Display aspect ratio        : 16:9
Frame rate mode             : Constant
Frame rate                  : 29.970 (30000/1001) FPS
Color space                 : YUV
Chroma subsampling          : 4:2:0
Bit depth                   : 8 bits
Scan type                   : Progressive
Bits/(Pixel*Frame)          : 0.213
Stream size                 : 6.15 GiB (63%)
Title                       : anbelk27 @ rutracker.org
Writing library             : x264 core 157 r2969 d4099dd
Encoding settings           : cabac=1 / ref=9 / deblock=1:-3:-3 / analyse=0x3:0x133 / me=umh / subme=11 / psy=1 / psy_rd=1.07:0.07 / mixed_ref=1 / me_range=40 / chroma_me=1 / trellis=2 / 8x8dct=1 / cqm=0 / deadzone=21,11 / fast_pskip=1 / chroma_qp_offset=-3 / threads=12 / lookahead_threads=3 / sliced_threads=0 / nr=0 / decimate=1 / interlaced=0 / bluray_compat=0 / constrained_intra=0 / bframes=10 / b_pyramid=2 / b_adapt=2 / b_bias=0 / direct=3 / weightb=1 / open_gop=0 / weightp=2 / keyint=300 / keyint_min=29 / scenecut=50 / intra_refresh=0 / rc_lookahead=85 / rc=2pass / mbtree=1 / bitrate=5870 / ratetol=1.0 / qcomp=0.60 / qpmin=0 / qpmax=69 / qpstep=4 / cplxblur=20.0 / qblur=0.5 / vbv_maxrate=50000 / vbv_bufsize=62500 / nal_hrd=none / filler=0 / ip_ratio=1.40 / aq=1:1.00
Default                     : Yes
Forced                      : No
Audio #1
ID                          : 2
Format                      : DTS
Format/Info                 : Digital Theater Systems
Codec ID                    : A_DTS
Duration                    : 2 h 29 min
Bit rate mode               : Constant
Bit rate                    : 1 509 kb/s
Channel(s)                  : 6 channels
Channel layout              : C L R Ls Rs LFE
Sampling rate               : 48.0 kHz
Frame rate                  : 93.750 FPS (512 SPF)
Bit depth                   : 24 bits
Compression mode            : Lossy
Stream size                 : 1.58 GiB (16%)
Title                       : DTS 5.1 @ 24 bit
Default                     : Yes
Forced                      : No
Audio #2
ID                          : 3
Format                      : FLAC
Format/Info                 : Free Lossless Audio Codec
Codec ID                    : A_FLAC
Duration                    : 2 h 29 min
Bit rate mode               : Variable
Bit rate                    : 1 870 kb/s
Channel(s)                  : 2 channels
Channel layout              : L R
Sampling rate               : 48.0 kHz
Frame rate                  : 11.719 FPS (4096 SPF)
Bit depth                   : 24 bits
Compression mode            : Lossless
Stream size                 : 1.96 GiB (20%)
Title                       : FLAC 2.0 @ 24 bit
Writing library             : libFLAC 1.2.1 (UTC 2007-09-17)
Default                     : No
Forced                      : No
Menu
00:00:00.000                : en: 01. Die Hard The Hunter
00:06:11.971                : en: 02. Animal
00:10:17.683                : en: 03. Excitable
00:14:47.186                : en: 04. Foolin’
00:19:32.971                : en: 05. Too Late For Love
00:25:09.975                : en: 06. Billy’s Got A Gun
00:30:30.028                : en: 07. Slang
00:33:27.338                : en: 08. Promises
00:37:43.995                : en: 09. Paper Sun
00:43:11.855                : en: 10. Let It Go
00:49:16.954                : en: 11. Mirror, Mirror (Look Into My Eyes)
00:53:38.014                : en: 12. Bringin’ On The Heartbreak
00:58:22.432                : en: 13. Switch 625
01:07:58.374                : en: 14. Let Me Be The One
01:11:47.036                : en: 15. We Belong
01:18:18.894                : en: 16. Have You Ever Needed Someone So Bad
01:23:32.007                : en: 17. Two Steps Behind
01:28:30.805                : en: 18. Now
01:32:35.016                : en: 19. Rocket
01:39:08.943                : en: 20. Let’s Get Rocked
01:43:57.965                : en: 21. Hysteria
01:50:09.002                : en: 22. Love Bites
01:56:05.959                : en: 23. Armageddon It
02:01:34.020                : en: 24.  Pour Some Sugar On Me
02:06:18.237                : en: 25. Let’s Go (Live)
02:11:38.023                : en: 26. Action
02:16:23.475                : en: 27. Rock Of Ages
02:21:26.010                : en: 28. Photograph

Скриншоты











                                                                                       
                       
                       
                       
                       
                       
                                磁力下载:
                                                               
                                       
游客,本主题需向作者支付 7音乐币 才能浏览,金币充值, 免回复、免金币,直接查看内容请开通VIP支付

                                               
  • 9.69 GB
  • 温馨提示

    记得善用社区搜索功能,那里可能会有你想要的资源;论坛站内搜索

    如果你有什么需要的资源可以去资源求档发帖,求助社区的网友,我们会在第一时间给你回复哦;资源求档

    对于本社区网盘链接失效密码错误各种报错请在反馈板块反馈报错发帖,您的支持,是我们发展的最大动力;投诉建议

    回复

    使用道具 举报

    您需要登录后才可以回帖 登录 | 立即注册 微信登录

    本版积分规则

    关注0

    粉丝0

    帖子30121

    发布主题
    阅读排行更多+
    关闭

    站长推荐上一条 /1 下一条

    收藏帖子 返回列表 这是一个自定义按钮
    音乐分享,音乐下载。
    微信公众号
    微信号:hires_
    意见反馈:admin@maomicd.com

    加入我们的官方QQ群和微信群

    Powered by Discuz! X3.4 Archiver|手机版|小黑屋|捌零音乐论坛 ( 苏ICP备20015413号 )|( 苏公网安备 32030502000272号) 繁體

    GMT+8, 2021-5-7 00:03