自购原抓音乐圈:只有自购、合购、原抓级高解析(hires、sacd、dsd)正版音乐资源分享!【点我打开
极速无线网卡:千兆无线网卡、服务器网卡、USB接口台式机笔记本网卡 硬盘代考无损音乐!【点我打开
广告

[摇滚] Pixies. Berlin Live [2016, Alternative rock/Punk rock/Garage rock/Surf rock, HDTV, 720p]

[复制链接]
lz189 发表于 2021-4-13 15:34:04 | 显示全部楼层 |阅读模式 打印 上一主题 下一主题
Pixies. Berlin Live
Жанр: Alternative rock/Punk rock/Garage rock/Surf rock
Продолжительность: 01:02:06
Год выпуска: 2016
Описание: Выступление американского alternative rock бэнда Pixies на сцене клуба SchwuZ в Берлине july 19, 2016
Доп. информация: Собственная запись со спутникового канала ARTE oct 14, 2016
Треклист: Gouge Away
Something Against You
Wave of Mutilation
Velouria
Indie Cindy
Monkey Gone to Heaven
Classic Masher
Isla de Encanta
Broken Face
Um Chagga Lagga
Magdalena
Head Carrier
Brick Is Red
Baal's Back
Bone Machine
Hey
Tame
Nimrod's Son
Vamos
Where Is My Mind?
Here Comes Your Man
Качество: HDTV
Разрешение видео/развертка: 720p
Контейнер: TS
Видео кодек: H.264
Аудио кодек: AC3
Видео: Mpeg4 AVC, 1280x720, 11700 kbps, 50 fps Progressive
Аудио: AC3, 448 kbps, 48 kHz, 5.1 ch
Аудио 2: MP2, 192 kbps, 48 kHz, stereo
Аудио 3: MP2, 192 kbps, 48 kHz, stereo
Отчёт MediaInfo / BDInfo

General
ID                                       : 1 (0x1)
Complete name                            : D:\磁力下载:s\Pixies. Berlin Live 2016.ts
Format                                   : MPEG-TS
File size                                : 5.83 GiB
Duration                                 : 1 h 2 min
Overall bit rate mode                    : Variable
Overall bit rate                         : 13.4 Mb/s
Video
ID                                       : 5111 (0x13F7)
Menu ID                                  : 10302 (0x283E)
Format                                   : AVC
Format/Info                              : Advanced Video Codec
Format profile                           : High@L4
Format settings, CABAC                   : Yes
Format settings, ReFrames                : 4 frames
Codec ID                                 : 27
Duration                                 : 1 h 2 min
Bit rate                                 : 11.7 Mb/s
Width                                    : 1 280 pixels
Height                                   : 720 pixels
Display aspect ratio                     : 16:9
Frame rate                               : 50.000 FPS
Color space                              : YUV
Chroma subsampling                       : 4:2:0
Bit depth                                : 8 bits
Scan type                                : Progressive
Bits/(Pixel*Frame)                       : 0.255
Stream size                              : 5.09 GiB (87%)
Audio #1
ID                                       : 5112 (0x13F8)
Menu ID                                  : 10302 (0x283E)
Format                                   : AC-3
Format/Info                              : Audio Coding 3
Mode extension                           : CM (complete main)
Format settings, Endianness              : Big
Codec ID                                 : 6
Duration                                 : 1 h 2 min
Bit rate mode                            : Constant
Bit rate                                 : 448 kb/s
Channel(s)                               : 6 channels
Channel positions                        : Front: L C R, Side: L R, LFE
Sampling rate                            : 48.0 kHz
Frame rate                               : 31.250 FPS (1536 spf)
Compression mode                         : Lossy
Stream size                              : 199 MiB (3%)
Language                                 : Multiple languages
Audio #2
ID                                       : 5113 (0x13F9)
Menu ID                                  : 10302 (0x283E)
Format                                   : MPEG Audio
Format version                           : Version 1
Format profile                           : Layer 2
Codec ID                                 : 3
Duration                                 : 1 h 2 min
Bit rate mode                            : Constant
Bit rate                                 : 192 kb/s
Channel(s)                               : 2 channels
Sampling rate                            : 48.0 kHz
Compression mode                         : Lossy
Stream size                              : 85.3 MiB (1%)
Language                                 : German
Audio #3
ID                                       : 5114 (0x13FA)
Menu ID                                  : 10302 (0x283E)
Format                                   : MPEG Audio
Format version                           : Version 1
Format profile                           : Layer 2
Codec ID                                 : 3
Duration                                 : 1 h 2 min
Bit rate mode                            : Constant
Bit rate                                 : 192 kb/s
Channel(s)                               : 2 channels
Sampling rate                            : 48.0 kHz
Compression mode                         : Lossy
Stream size                              : 85.3 MiB (1%)
Language                                 : French
Audio #4
ID                                       : 5115 (0x13FB)
Menu ID                                  : 10302 (0x283E)
Format                                   : MPEG Audio
Format version                           : Version 1
Format profile                           : Layer 2
Codec ID                                 : 3
Duration                                 : 1 h 2 min
Bit rate mode                            : Constant
Bit rate                                 : 192 kb/s
Channel(s)                               : 2 channels
Sampling rate                            : 48.0 kHz
Compression mode                         : Lossy
Stream size                              : 85.3 MiB (1%)
Other
ID                                       : 5116 (0x13FC)-100
Menu ID                                  : 10302 (0x283E)
Format                                   : Teletext
Language                                 : German


Скриншоты









                                                                                       
                       
                       
                       
                       
                       
                                磁力下载:
                                                               
                                       
游客,本主题需向作者支付 7音乐币 才能浏览,金币充值, 免回复、免金币,直接查看内容请开通VIP支付

                                               
  • 5.83 GB
  • 温馨提示

    记得善用社区搜索功能,那里可能会有你想要的资源;论坛站内搜索

    如果你有什么需要的资源可以去资源求档发帖,求助社区的网友,我们会在第一时间给你回复哦;资源求档

    对于本社区网盘链接失效密码错误各种报错请在反馈板块反馈报错发帖,您的支持,是我们发展的最大动力;投诉建议

    回复

    使用道具 举报

    您需要登录后才可以回帖 登录 | 立即注册 微信登录

    本版积分规则

    关注0

    粉丝0

    帖子30121

    发布主题
    阅读排行更多+
    关闭

    站长推荐上一条 /1 下一条

    收藏帖子 返回列表 这是一个自定义按钮
    音乐分享,音乐下载。
    微信公众号
    微信号:hires_
    意见反馈:admin@maomicd.com

    加入我们的官方QQ群和微信群

    Powered by Discuz! X3.4 Archiver|手机版|小黑屋|捌零音乐论坛 ( 苏ICP备20015413号 )|( 苏公网安备 32030502000272号) 繁體

    GMT+8, 2021-5-7 00:33