自购原抓音乐圈:只有自购、合购、原抓级高解析(hires、sacd、dsd)正版音乐资源分享!【点我打开
极速无线网卡:千兆无线网卡、服务器网卡、USB接口台式机笔记本网卡 硬盘代考无损音乐!【点我打开
广告

[摇滚] Dio - Finding the Sacred Heart Live in Philly 1986 [2013, Heavy Metal, JPN Blu-ray, 1080i]

[复制链接]
全球搬运 发表于 2021-4-13 15:34:04 | 显示全部楼层 |阅读模式 打印 上一主题 下一主题
Dio - Finding the Sacred Heart Live in Philly 1986
Жанр: Heavy Metal
Продолжительность: Концерт: 1:40:39 Бонусы: 0:01:50+0:06:38+0:18:48+0:05:06+0:09:24
Год выпуска: 2013
Треклист:
1. Draco Ignis
2. King Of Rock And Roll
3. Like The Beat Of A Heart
4. Don't Talk To Strangers
5. Hungry For Heaven
6. Medley: The Last In Line / Children Of The Sea / Holy Diver / The Last In Line (reprise)
7. Drum Solo
8. Heaven And Hell
9. Keyboard Solo
10. Guitar Solo
11. Sacred Heart
12. Medley: Rock 'n' Roll Children / Long Live Rock 'n' Roll / Man On The Silver Mountain / Rock 'n' Roll Children (reprise)
13. Time To Burn
14. Stand Up And Shout
15. Rainbow In The Dark
16. We Rock
Бонус:
• Sacred Heart Tour featurette
• Interview 86
• Interview with Ronnie & Craig
• Rock n Roll Children music video
• Behind The Scenes
Описание: 1:40:39+0:18:48+0:09:24+0:06:38+0:05:06+0:01:50
Full, re-edited version of the 1986 VHS "Sacred Heart "The Video"" with the original running order and remastered sound.
Bonus Features: Sacred Heart Tour Featurette, Interview '86, Interview with Ronnie & Craig, "Rock 'n' Roll Children" Music Video, Behind The Scenes.
Доп. информация:
Ronnie James Dio (R.I.P. 2010) - Vocals
Craig Goldy - Guitars
Jimmy Bain (R.I.P. 2016) - Bass
Claude Schnell - Keyboards
Vinny Appice - Drums
Качество: Blu-ray
Разрешение видео/развертка: 1080i
Контейнер: BDMV
Видео кодек: H.264
Аудио кодек: PCM, DTS
Видео: MPEG-4, AVC Video, 30000 kbps, 1080i / 29,970 fps / 16:9 / High Profile 4.1
Аудио 1: LPCM Audio, 2304 kbps, 2.0 / 48 kHz / 2304 kbps / 24-bit (концерт)
Аудио 2: DTS-HD Master Audio, 5043 kbps, 5.1 / 48 kHz / 5043 kbps / 24-bit (DTS Core: 5.1 / 48 kHz / 1509 kbps / 24-bit)(концерт)
Аудио 3: LPCM Audio / 2.0 / 48 kHz / 1536 kbps / 16-bit (бонусы)
Отчёт MediaInfo / BDInfo

Disc Title:     DIO_FINDING_THE_SACRED_HEART
Disc Size:      41 089 492 976 bytes
Protection:     AACS
BD-Java:        No
BDInfo:         0.5.8
Notes:
BDINFO HOME:
  Cinema Squid
    http://www.cinemasquid.com/blu-ray/tools/bdinfo
INCLUDES FORUMS REPORT FOR:
  AVS Forum Blu-ray Audio and Video Specifications Thread
    http://www.avsforum.com/avs-vb/showthread.php?t=1155731
********************
PLAYLIST: 00000.MPLS
********************

Код:

                                                                                Total   Video
Title                                                           Codec   Length  Movie Size      Disc Size       Bitrate Bitrate Main Audio Track                          Secondary Audio Track
-----                                                           ------  ------- --------------  --------------  ------- ------- ------------------                        ---------------------
00000.MPLS                                                      AVC     1:40:39 29 698 535 424  41 089 492 976  39,34   30,00   LPCM 2.0 2304Kbps (48kHz/24-bit)          DTS-HD Master 5.1 5043Kbps (48kHz/24-bit)

Код:
DISC INFO:
Disc Title:     DIO_FINDING_THE_SACRED_HEART
Disc Size:      41 089 492 976 bytes
Protection:     AACS
BD-Java:        No
BDInfo:         0.5.8
PLAYLIST REPORT:
Name:                   00000.MPLS
Length:                 1:40:39.066 (h:m:s.ms)
Size:                   29 698 535 424 bytes
Total Bitrate:          39,34 Mbps
VIDEO:
Codec                   Bitrate             Description
-----                   -------             -----------
MPEG-4 AVC Video        30000 kbps          1080i / 29,970 fps / 16:9 / High Profile 4.1
AUDIO:
Codec                           Language        Bitrate         Description
-----                           --------        -------         -----------
LPCM Audio                      Japanese        2304 kbps       2.0 / 48 kHz / 2304 kbps / 24-bit
DTS-HD Master Audio             Japanese        5043 kbps       5.1 / 48 kHz / 5043 kbps / 24-bit (DTS Core: 5.1 / 48 kHz / 1509 kbps / 24-bit)
SUBTITLES:
Codec                           Language        Bitrate         Description
-----                           --------        -------         -----------
Presentation Graphics           Japanese        1,891 kbps
FILES:
Name            Time In         Length          Size            Total Bitrate
----            -------         ------          ----            -------------
00000.M2TS      0:00:00.000     1:40:39.066     29 698 535 424  39 342
CHAPTERS:
Number          Time In         Length          Avg Video Rate  Max 1-Sec Rate  Max 1-Sec Time  Max 5-Sec Rate  Max 5-Sec Time  Max 10Sec Rate  Max 10Sec Time  Avg Frame Size  Max Frame Size  Max Frame Time
------          -------         ------          --------------  --------------  --------------  --------------  --------------  --------------  --------------  --------------  --------------  --------------
1               0:00:00.000     0:01:05.732     22 532 kbps     30 860 kbps     00:00:32.932    29 102 kbps     00:00:28.661    28 166 kbps     00:00:27.627    93 931 bytes    362 362 bytes   00:00:13.046
2               0:01:05.732     0:03:37.650     28 197 kbps     41 612 kbps     00:01:10.537    33 795 kbps     00:03:40.186    32 309 kbps     00:03:48.161    117 606 bytes   360 480 bytes   00:03:40.220
3               0:04:43.383     0:05:59.659     30 566 kbps     46 494 kbps     00:07:01.421    39 376 kbps     00:07:50.403    36 798 kbps     00:07:49.669    127 487 bytes   623 897 bytes   00:07:59.679
4               0:10:43.042     0:05:46.279     28 302 kbps     42 107 kbps     00:15:10.175    34 502 kbps     00:11:44.937    32 689 kbps     00:11:39.932    118 043 bytes   555 183 bytes   00:14:59.164
5               0:16:29.321     0:04:33.740     30 470 kbps     40 013 kbps     00:18:35.647    36 362 kbps     00:18:35.647    33 625 kbps     00:16:53.445    127 084 bytes   350 738 bytes   00:18:51.530
6               0:21:03.061     0:08:09.489     29 751 kbps     41 085 kbps     00:21:05.364    35 831 kbps     00:25:50.215    34 965 kbps     00:25:43.875    124 086 bytes   439 291 bytes   00:26:39.998
7               0:29:12.550     0:05:06.706     30 001 kbps     44 820 kbps     00:30:32.997    39 122 kbps     00:30:33.631    35 478 kbps     00:30:32.997    125 130 bytes   586 165 bytes   00:32:04.622
8               0:34:19.257     0:06:28.154     29 160 kbps     42 632 kbps     00:38:54.999    37 991 kbps     00:35:05.837    35 877 kbps     00:35:05.703    121 620 bytes   377 439 bytes   00:35:27.625
9               0:40:47.411     0:06:08.201     29 545 kbps     39 175 kbps     00:45:30.394    37 255 kbps     00:44:34.104    36 374 kbps     00:44:34.004    123 226 bytes   573 243 bytes   00:44:22.226
10              0:46:55.612     0:07:23.576     30 931 kbps     48 773 kbps     00:52:28.445    38 979 kbps     00:52:28.411    36 029 kbps     00:52:28.411    129 006 bytes   504 977 bytes   00:52:34.818
11              0:54:19.189     0:13:09.722     31 118 kbps     45 388 kbps     01:02:36.986    40 425 kbps     01:02:34.851    37 443 kbps     01:02:29.846    129 790 bytes   532 148 bytes   01:04:50.753
12              1:07:28.911     0:11:18.110     30 608 kbps     45 273 kbps     01:17:36.785    39 965 kbps     01:15:10.372    37 835 kbps     01:11:09.765    127 662 bytes   618 367 bytes   01:15:13.909
13              1:18:47.022     0:04:51.290     30 374 kbps     47 491 kbps     01:22:11.993    37 224 kbps     01:23:17.926    35 599 kbps     01:23:12.921    126 684 bytes   734 028 bytes   01:22:12.027
14              1:23:38.313     0:05:17.583     31 232 kbps     49 048 kbps     01:25:05.800    37 992 kbps     01:24:47.982    36 320 kbps     01:24:42.977    130 263 bytes   491 676 bytes   01:24:22.257
15              1:28:55.897     0:05:54.220     30 906 kbps     41 410 kbps     01:31:15.670    37 769 kbps     01:33:46.120    35 754 kbps     01:32:18.366    128 904 bytes   549 825 bytes   01:29:14.148
16              1:34:50.117     0:04:37.477     28 718 kbps     39 429 kbps     01:37:45.759    34 873 kbps     01:37:42.890    33 659 kbps     01:36:01.956    119 777 bytes   370 637 bytes   01:38:19.727
17              1:39:27.594     0:01:11.471     24 088 kbps     36 977 kbps     01:39:58.826    31 361 kbps     01:39:58.726    28 483 kbps     01:39:56.190    100 515 bytes   292 139 bytes   01:39:44.545
STREAM DIAGNOSTICS:
File            PID             Type            Codec           Language                Seconds                 Bitrate                 Bytes           Packets
----            ---             ----            -----           --------                --------------          --------------          -------------   -----
00000.M2TS      4113 (0x1011)   0x1B            AVC                                     6038,966                30 000                  22 646 121 947  123 182 816
00000.M2TS      4352 (0x1100)   0x80            LPCM            jpn (Japanese)          6038,966                2 309                   1 743 023 520   9 656 640
00000.M2TS      4353 (0x1101)   0x86            DTS-HD MA       jpn (Japanese)          6038,966                5 043                   3 806 604 904   21 629 930
00000.M2TS      4608 (0x1200)   0x90            PGS             jpn (Japanese)          6038,966                2                       1 427 169       8 179


QUICK SUMMARY:
Disc Title: DIO_FINDING_THE_SACRED_HEART
Disc Size: 41 089 492 976 bytes
Protection: AACS
BD-Java: No
Playlist: 00000.MPLS
Size: 29 698 535 424 bytes
Length: 1:40:39.066
Total Bitrate: 39,34 Mbps
Video: MPEG-4 AVC Video / 30000 kbps / 1080i / 29,970 fps / 16:9 / High Profile 4.1
Audio: Japanese / LPCM Audio / 2.0 / 48 kHz / 2304 kbps / 24-bit
Audio: Japanese / DTS-HD Master Audio / 5.1 / 48 kHz / 5043 kbps / 24-bit (DTS Core: 5.1 / 48 kHz / 1509 kbps / 24-bit)
Subtitle: Japanese / 1,891 kbps
********************
PLAYLIST: 00006.MPLS
********************

Код:

                                                                                Total   Video
Title                                                           Codec   Length  Movie Size      Disc Size       Bitrate Bitrate Main Audio Track                          Secondary Audio Track
-----                                                           ------  ------- --------------  --------------  ------- ------- ------------------                        ---------------------
00006.MPLS                                                      MPEG-2  0:18:48 4 691 374 080   41 089 492 976  33,27   29,98   LPCM 2.0 1536Kbps (48kHz/16-bit)

Код:
DISC INFO:
Disc Title:     DIO_FINDING_THE_SACRED_HEART
Disc Size:      41 089 492 976 bytes
Protection:     AACS
BD-Java:        No
BDInfo:         0.5.8
PLAYLIST REPORT:
Name:                   00006.MPLS
Length:                 0:18:48.026 (h:m:s.ms)
Size:                   4 691 374 080 bytes
Total Bitrate:          33,27 Mbps
VIDEO:
Codec                   Bitrate             Description
-----                   -------             -----------
MPEG-2 Video            29976 kbps          1080i / 29,970 fps / 16:9
AUDIO:
Codec                           Language        Bitrate         Description
-----                           --------        -------         -----------
LPCM Audio                      Japanese        1536 kbps       2.0 / 48 kHz / 1536 kbps / 16-bit
SUBTITLES:
Codec                           Language        Bitrate         Description
-----                           --------        -------         -----------
Presentation Graphics           Japanese        64,866 kbps
FILES:
Name            Time In         Length          Size            Total Bitrate
----            -------         ------          ----            -------------
00003.M2TS      0:00:00.000     0:18:48.026     4 691 374 080   33 271
CHAPTERS:
Number          Time In         Length          Avg Video Rate  Max 1-Sec Rate  Max 1-Sec Time  Max 5-Sec Rate  Max 5-Sec Time  Max 10Sec Rate  Max 10Sec Time  Avg Frame Size  Max Frame Size  Max Frame Time
------          -------         ------          --------------  --------------  --------------  --------------  --------------  --------------  --------------  --------------  --------------  --------------
1               0:00:00.000     0:01:12.138     29 999 kbps     41 903 kbps     00:00:02.402    35 321 kbps     00:00:02.102    32 469 kbps     00:00:02.001    125 064 bytes   544 464 bytes   00:00:05.505
2               0:01:12.138     0:00:35.034     29 916 kbps     41 264 kbps     00:01:42.969    31 761 kbps     00:01:42.101    30 700 kbps     00:01:34.561    124 776 bytes   525 061 bytes   00:01:17.577
3               0:01:47.173     0:02:10.630     30 031 kbps     35 427 kbps     00:03:26.472    31 378 kbps     00:03:22.435    30 834 kbps     00:03:17.430    125 254 bytes   544 464 bytes   00:01:47.607
4               0:03:57.804     0:02:50.169     29 977 kbps     37 591 kbps     00:04:03.209    33 108 kbps     00:04:08.815    32 081 kbps     00:04:07.247    125 030 bytes   544 464 bytes   00:03:58.238
5               0:06:47.974     0:01:25.585     30 043 kbps     35 012 kbps     00:07:43.963    31 252 kbps     00:07:41.727    30 916 kbps     00:07:35.755    125 305 bytes   544 464 bytes   00:06:48.408
6               0:08:13.559     0:01:22.582     30 036 kbps     34 819 kbps     00:08:39.819    31 532 kbps     00:09:29.569    30 745 kbps     00:09:08.614    125 277 bytes   544 464 bytes   00:08:13.993
7               0:09:36.142     0:00:49.549     29 901 kbps     35 121 kbps     00:10:04.604    31 044 kbps     00:10:12.411    30 540 kbps     00:10:11.410    124 710 bytes   544 464 bytes   00:09:56.095
8               0:10:25.691     0:02:49.169     30 019 kbps     34 222 kbps     00:10:58.357    31 036 kbps     00:12:38.057    30 644 kbps     00:10:49.348    125 204 bytes   544 464 bytes   00:10:43.342
9               0:13:14.860     0:01:11.571     29 988 kbps     34 544 kbps     00:14:05.010    31 033 kbps     00:14:01.240    30 492 kbps     00:13:19.799    125 074 bytes   544 464 bytes   00:14:02.341
10              0:14:26.432     0:01:32.092     29 988 kbps     34 409 kbps     00:15:43.409    31 292 kbps     00:15:41.240    30 706 kbps     00:15:36.402    125 074 bytes   499 249 bytes   00:15:47.946
11              0:15:58.524     0:02:49.502     29 842 kbps     36 989 kbps     00:18:00.579    31 830 kbps     00:17:59.378    30 877 kbps     00:17:54.373    124 492 bytes   544 464 bytes   00:15:58.958
STREAM DIAGNOSTICS:
File            PID             Type            Codec           Language                Seconds                 Bitrate                 Bytes           Packets
----            ---             ----            -----           --------                --------------          --------------          -------------   -----
00003.M2TS      4113 (0x1011)   0x02            MPEG-2                                  1127,927                29 979                  4 226 779 706   22 991 457
00003.M2TS      4352 (0x1100)   0x80            LPCM            jpn (Japanese)          1127,927                1 543                   217 484 184     1 353 636
00003.M2TS      4608 (0x1200)   0x90            PGS             jpn (Japanese)          1127,927                65                      9 146 265       51 323


QUICK SUMMARY:
Disc Title: DIO_FINDING_THE_SACRED_HEART
Disc Size: 41 089 492 976 bytes
Protection: AACS
BD-Java: No
Playlist: 00006.MPLS
Size: 4 691 374 080 bytes
Length: 0:18:48.026
Total Bitrate: 33,27 Mbps
Video: MPEG-2 Video / 29976 kbps / 1080i / 29,970 fps / 16:9
Audio: Japanese / LPCM Audio / 2.0 / 48 kHz / 1536 kbps / 16-bit
Subtitle: Japanese / 64,866 kbps
********************
PLAYLIST: 00004.MPLS
********************

Код:

                                                                                Total   Video
Title                                                           Codec   Length  Movie Size      Disc Size       Bitrate Bitrate Main Audio Track                          Secondary Audio Track
-----                                                           ------  ------- --------------  --------------  ------- ------- ------------------                        ---------------------
00004.MPLS                                                      MPEG-2  0:09:24 2 347 124 736   41 089 492 976  33,24   29,95   LPCM 2.0 1536Kbps (48kHz/16-bit)

Код:
DISC INFO:
Disc Title:     DIO_FINDING_THE_SACRED_HEART
Disc Size:      41 089 492 976 bytes
Protection:     AACS
BD-Java:        No
BDInfo:         0.5.8
PLAYLIST REPORT:
Name:                   00004.MPLS
Length:                 0:09:24.964 (h:m:s.ms)
Size:                   2 347 124 736 bytes
Total Bitrate:          33,24 Mbps
VIDEO:
Codec                   Bitrate             Description
-----                   -------             -----------
MPEG-2 Video            29952 kbps          1080i / 29,970 fps / 16:9
AUDIO:
Codec                           Language        Bitrate         Description
-----                           --------        -------         -----------
LPCM Audio                      Japanese        1536 kbps       2.0 / 48 kHz / 1536 kbps / 16-bit
SUBTITLES:
Codec                           Language        Bitrate         Description
-----                           --------        -------         -----------
Presentation Graphics           Japanese        54,989 kbps
FILES:
Name            Time In         Length          Size            Total Bitrate
----            -------         ------          ----            -------------
00004.M2TS      0:00:00.000     0:09:24.964     2 347 124 736   33 236
CHAPTERS:
Number          Time In         Length          Avg Video Rate  Max 1-Sec Rate  Max 1-Sec Time  Max 5-Sec Rate  Max 5-Sec Time  Max 10Sec Rate  Max 10Sec Time  Avg Frame Size  Max Frame Size  Max Frame Time
------          -------         ------          --------------  --------------  --------------  --------------  --------------  --------------  --------------  --------------  --------------  --------------
1               0:00:00.000     0:01:27.153     29 833 kbps     41 848 kbps     00:00:02.502    35 603 kbps     00:00:02.001    33 130 kbps     00:00:02.001    124 381 bytes   504 638 bytes   00:00:17.017
2               0:01:27.153     0:03:50.230     29 990 kbps     43 044 kbps     00:02:38.825    33 417 kbps     00:02:49.669    31 798 kbps     00:02:44.664    125 085 bytes   514 322 bytes   00:02:53.673
3               0:05:17.383     0:04:07.580     29 957 kbps     41 373 kbps     00:05:17.517    34 320 kbps     00:05:17.383    32 748 kbps     00:05:17.417    124 964 bytes   544 464 bytes   00:07:49.469
STREAM DIAGNOSTICS:
File            PID             Type            Codec           Language                Seconds                 Bitrate                 Bytes           Packets
----            ---             ----            -----           --------                --------------          --------------          -------------   -----
00004.M2TS      4113 (0x1011)   0x02            MPEG-2                                  564,864                 29 957                  2 115 205 049   11 505 522
00004.M2TS      4352 (0x1100)   0x80            LPCM            jpn (Japanese)          564,864                 1 543                   108 932 000     678 000
00004.M2TS      4608 (0x1200)   0x90            PGS             jpn (Japanese)          564,864                 55                      3 883 384       22 118


QUICK SUMMARY:
Disc Title: DIO_FINDING_THE_SACRED_HEART
Disc Size: 41 089 492 976 bytes
Protection: AACS
BD-Java: No
Playlist: 00004.MPLS
Size: 2 347 124 736 bytes
Length: 0:09:24.964
Total Bitrate: 33,24 Mbps
Video: MPEG-2 Video / 29952 kbps / 1080i / 29,970 fps / 16:9
Audio: Japanese / LPCM Audio / 2.0 / 48 kHz / 1536 kbps / 16-bit
Subtitle: Japanese / 54,989 kbps
********************
PLAYLIST: 00005.MPLS
********************

Код:

                                                                                Total   Video
Title                                                           Codec   Length  Movie Size      Disc Size       Bitrate Bitrate Main Audio Track                          Secondary Audio Track
-----                                                           ------  ------- --------------  --------------  ------- ------- ------------------                        ---------------------
00005.MPLS                                                      MPEG-2  0:06:38 1 657 860 096   41 089 492 976  33,24   29,94   LPCM 2.0 1536Kbps (48kHz/16-bit)

Код:
DISC INFO:
Disc Title:     DIO_FINDING_THE_SACRED_HEART
Disc Size:      41 089 492 976 bytes
Protection:     AACS
BD-Java:        No
BDInfo:         0.5.8
PLAYLIST REPORT:
Name:                   00005.MPLS
Length:                 0:06:38.998 (h:m:s.ms)
Size:                   1 657 860 096 bytes
Total Bitrate:          33,24 Mbps
VIDEO:
Codec                   Bitrate             Description
-----                   -------             -----------
MPEG-2 Video            29938 kbps          1080i / 29,970 fps / 16:9
AUDIO:
Codec                           Language        Bitrate         Description
-----                           --------        -------         -----------
LPCM Audio                      Japanese        1536 kbps       2.0 / 48 kHz / 1536 kbps / 16-bit
SUBTITLES:
Codec                           Language        Bitrate         Description
-----                           --------        -------         -----------
Presentation Graphics           Japanese        73,429 kbps
FILES:
Name            Time In         Length          Size            Total Bitrate
----            -------         ------          ----            -------------
00005.M2TS      0:00:00.000     0:06:38.998     1 657 860 096   33 240
CHAPTERS:
Number          Time In         Length          Avg Video Rate  Max 1-Sec Rate  Max 1-Sec Time  Max 5-Sec Rate  Max 5-Sec Time  Max 10Sec Rate  Max 10Sec Time  Avg Frame Size  Max Frame Size  Max Frame Time
------          -------         ------          --------------  --------------  --------------  --------------  --------------  --------------  --------------  --------------  --------------  --------------
1               0:00:00.000     0:00:35.602     30 018 kbps     41 667 kbps     00:00:02.002    34 189 kbps     00:00:02.001    32 172 kbps     00:00:01.601    125 084 bytes   442 906 bytes   00:00:02.502
2               0:00:35.602     0:00:49.049     29 958 kbps     31 868 kbps     00:00:44.310    30 480 kbps     00:00:41.941    30 247 kbps     00:00:41.941    124 952 bytes   420 936 bytes   00:01:01.561
3               0:01:24.651     0:00:56.556     30 039 kbps     31 564 kbps     00:02:19.739    30 475 kbps     00:01:39.466    30 288 kbps     00:01:38.798    125 287 bytes   409 711 bytes   00:02:04.124
4               0:02:21.207     0:00:20.020     30 053 kbps     31 615 kbps     00:02:28.414    30 355 kbps     00:02:36.055    30 268 kbps     00:02:24.744    125 347 bytes   413 213 bytes   00:02:33.153
5               0:02:41.227     0:00:40.540     30 009 kbps     31 839 kbps     00:03:02.282    30 324 kbps     00:03:16.763    30 217 kbps     00:03:02.215    125 164 bytes   426 157 bytes   00:02:53.673
6               0:03:21.768     0:00:44.544     29 985 kbps     32 374 kbps     00:03:29.209    30 471 kbps     00:03:33.413    30 267 kbps     00:03:55.468    125 063 bytes   422 430 bytes   00:03:29.709
7               0:04:06.312     0:01:41.601     30 021 kbps     32 204 kbps     00:05:11.577    30 733 kbps     00:05:38.871    30 341 kbps     00:05:37.637    125 211 bytes   426 955 bytes   00:05:41.341
8               0:05:47.914     0:00:51.084     29 444 kbps     32 389 kbps     00:06:07.667    30 991 kbps     00:06:30.890    30 351 kbps     00:06:26.385    122 884 bytes   454 843 bytes   00:06:35.895
STREAM DIAGNOSTICS:
File            PID             Type            Codec           Language                Seconds                 Bitrate                 Bytes           Packets
----            ---             ----            -----           --------                --------------          --------------          -------------   -----
00005.M2TS      4113 (0x1011)   0x02            MPEG-2                                  398,899                 29 945                  1 493 150 825   8 121 877
00005.M2TS      4352 (0x1100)   0x80            LPCM            jpn (Japanese)          398,899                 1 543                   76 933 948      478 842
00005.M2TS      4608 (0x1200)   0x90            PGS             jpn (Japanese)          398,899                 73                      3 662 236       20 555


QUICK SUMMARY:
Disc Title: DIO_FINDING_THE_SACRED_HEART
Disc Size: 41 089 492 976 bytes
Protection: AACS
BD-Java: No
Playlist: 00005.MPLS
Size: 1 657 860 096 bytes
Length: 0:06:38.998
Total Bitrate: 33,24 Mbps
Video: MPEG-2 Video / 29938 kbps / 1080i / 29,970 fps / 16:9
Audio: Japanese / LPCM Audio / 2.0 / 48 kHz / 1536 kbps / 16-bit
Subtitle: Japanese / 73,429 kbps
********************
PLAYLIST: 00007.MPLS
********************

Код:

                                                                                Total   Video
Title                                                           Codec   Length  Movie Size      Disc Size       Bitrate Bitrate Main Audio Track                          Secondary Audio Track
-----                                                           ------  ------- --------------  --------------  ------- ------- ------------------                        ---------------------
00007.MPLS                                                      MPEG-2  0:05:06 1 267 943 424   41 089 492 976  33,14   29,91   LPCM 2.0 1536Kbps (48kHz/16-bit)

Код:
DISC INFO:
Disc Title:     DIO_FINDING_THE_SACRED_HEART
Disc Size:      41 089 492 976 bytes
Protection:     AACS
BD-Java:        No
BDInfo:         0.5.8
PLAYLIST REPORT:
Name:                   00007.MPLS
Length:                 0:05:06.039 (h:m:s.ms)
Size:                   1 267 943 424 bytes
Total Bitrate:          33,14 Mbps
VIDEO:
Codec                   Bitrate             Description
-----                   -------             -----------
MPEG-2 Video            29912 kbps          1080i / 29,970 fps / 16:9
AUDIO:
Codec                           Language        Bitrate         Description
-----                           --------        -------         -----------
LPCM Audio                      Japanese        1536 kbps       2.0 / 48 kHz / 1536 kbps / 16-bit
SUBTITLES:
Codec                           Language        Bitrate         Description
-----                           --------        -------         -----------
Presentation Graphics           Japanese        9,246 kbps
FILES:
Name            Time In         Length          Size            Total Bitrate
----            -------         ------          ----            -------------
00006.M2TS      0:00:00.000     0:05:06.039     1 267 943 424   33 145
CHAPTERS:
Number          Time In         Length          Avg Video Rate  Max 1-Sec Rate  Max 1-Sec Time  Max 5-Sec Rate  Max 5-Sec Time  Max 10Sec Rate  Max 10Sec Time  Avg Frame Size  Max Frame Size  Max Frame Time
------          -------         ------          --------------  --------------  --------------  --------------  --------------  --------------  --------------  --------------  --------------  --------------
1               0:00:00.000     0:05:06.039     29 912 kbps     41 113 kbps     00:00:02.502    35 653 kbps     00:00:02.102    32 219 kbps     00:00:02.001    124 758 bytes   544 464 bytes   00:01:05.565
STREAM DIAGNOSTICS:
File            PID             Type            Codec           Language                Seconds                 Bitrate                 Bytes           Packets
----            ---             ----            -----           --------                --------------          --------------          -------------   -----
00006.M2TS      4113 (0x1011)   0x02            MPEG-2                                  306,006                 29 915                  1 144 283 733   6 224 276
00006.M2TS      4352 (0x1100)   0x80            LPCM            jpn (Japanese)          306,006                 1 543                   59 011 260      367 290
00006.M2TS      4608 (0x1200)   0x90            PGS             jpn (Japanese)          306,006                 9                       353 704         2 031


QUICK SUMMARY:
Disc Title: DIO_FINDING_THE_SACRED_HEART
Disc Size: 41 089 492 976 bytes
Protection: AACS
BD-Java: No
Playlist: 00007.MPLS
Size: 1 267 943 424 bytes
Length: 0:05:06.039
Total Bitrate: 33,14 Mbps
Video: MPEG-2 Video / 29912 kbps / 1080i / 29,970 fps / 16:9
Audio: Japanese / LPCM Audio / 2.0 / 48 kHz / 1536 kbps / 16-bit
Subtitle: Japanese / 9,246 kbps
********************
PLAYLIST: 00003.MPLS
********************

Код:

                                                                                Total   Video
Title                                                           Codec   Length  Movie Size      Disc Size       Bitrate Bitrate Main Audio Track                          Secondary Audio Track
-----                                                           ------  ------- --------------  --------------  ------- ------- ------------------                        ---------------------
00003.MPLS                                                      MPEG-2  0:01:50 458 827 776     41 089 492 976  33,08   29,78   LPCM 2.0 1536Kbps (48kHz/16-bit)

Код:
DISC INFO:
Disc Title:     DIO_FINDING_THE_SACRED_HEART
Disc Size:      41 089 492 976 bytes
Protection:     AACS
BD-Java:        No
BDInfo:         0.5.8
PLAYLIST REPORT:
Name:                   00003.MPLS
Length:                 0:01:50.977 (h:m:s.ms)
Size:                   458 827 776 bytes
Total Bitrate:          33,08 Mbps
VIDEO:
Codec                   Bitrate             Description
-----                   -------             -----------
MPEG-2 Video            29776 kbps          1080i / 29,970 fps / 16:9
AUDIO:
Codec                           Language        Bitrate         Description
-----                           --------        -------         -----------
LPCM Audio                      Japanese        1536 kbps       2.0 / 48 kHz / 1536 kbps / 16-bit
SUBTITLES:
Codec                           Language        Bitrate         Description
-----                           --------        -------         -----------
Presentation Graphics           Japanese        76,098 kbps
FILES:
Name            Time In         Length          Size            Total Bitrate
----            -------         ------          ----            -------------
00007.M2TS      0:00:00.000     0:01:50.977     458 827 776     33 075
CHAPTERS:
Number          Time In         Length          Avg Video Rate  Max 1-Sec Rate  Max 1-Sec Time  Max 5-Sec Rate  Max 5-Sec Time  Max 10Sec Rate  Max 10Sec Time  Avg Frame Size  Max Frame Size  Max Frame Time
------          -------         ------          --------------  --------------  --------------  --------------  --------------  --------------  --------------  --------------  --------------  --------------
1               0:00:00.000     0:01:50.977     29 776 kbps     42 471 kbps     00:00:18.718    34 777 kbps     00:00:03.003    33 299 kbps     00:00:03.003    124 191 bytes   544 464 bytes   00:00:32.032
STREAM DIAGNOSTICS:
File            PID             Type            Codec           Language                Seconds                 Bitrate                 Bytes           Packets
----            ---             ----            -----           --------                --------------          --------------          -------------   -----
00007.M2TS      4113 (0x1011)   0x02            MPEG-2                                  110,911                 29 794                  413 060 554     2 246 840
00007.M2TS      4352 (0x1100)   0x80            LPCM            jpn (Japanese)          110,911                 1 544                   21 403 692      133 218
00007.M2TS      4608 (0x1200)   0x90            PGS             jpn (Japanese)          110,911                 76                      1 055 643       5 921


QUICK SUMMARY:
Disc Title: DIO_FINDING_THE_SACRED_HEART
Disc Size: 41 089 492 976 bytes
Protection: AACS
BD-Java: No
Playlist: 00003.MPLS
Size: 458 827 776 bytes
Length: 0:01:50.977
Total Bitrate: 33,08 Mbps
Video: MPEG-2 Video / 29776 kbps / 1080i / 29,970 fps / 16:9
Audio: Japanese / LPCM Audio / 2.0 / 48 kHz / 1536 kbps / 16-bit
Subtitle: Japanese / 76,098 kbps
********************
PLAYLIST: 00008.MPLS
********************

Код:

                                                                                Total   Video
Title                                                           Codec   Length  Movie Size      Disc Size       Bitrate Bitrate Main Audio Track                          Secondary Audio Track
-----                                                           ------  ------- --------------  --------------  ------- ------- ------------------                        ---------------------
00008.MPLS                                                      MPEG-2  0:01:44 437 035 008     41 089 492 976  33,36   29,98   LPCM 2.0 1536Kbps (48kHz/16-bit)

Код:
DISC INFO:
Disc Title:     DIO_FINDING_THE_SACRED_HEART
Disc Size:      41 089 492 976 bytes
Protection:     AACS
BD-Java:        No
BDInfo:         0.5.8
PLAYLIST REPORT:
Name:                   00008.MPLS
Length:                 0:01:44.804 (h:m:s.ms)
Size:                   437 035 008 bytes
Total Bitrate:          33,36 Mbps
VIDEO:
Codec                   Bitrate             Description
-----                   -------             -----------
MPEG-2 Video            29983 kbps          1080i / 29,970 fps / 16:9
AUDIO:
Codec                           Language        Bitrate         Description
-----                           --------        -------         -----------
LPCM Audio                      Japanese        1536 kbps       2.0 / 48 kHz / 1536 kbps / 16-bit
SUBTITLES:
Codec                           Language        Bitrate         Description
-----                           --------        -------         -----------
Interactive Graphics            Japanese        138,956 kbps
FILES:
Name            Time In         Length          Size            Total Bitrate
----            -------         ------          ----            -------------
00008.M2TS      0:00:00.000     0:01:44.804     437 035 008     33 360
CHAPTERS:
Number          Time In         Length          Avg Video Rate  Max 1-Sec Rate  Max 1-Sec Time  Max 5-Sec Rate  Max 5-Sec Time  Max 10Sec Rate  Max 10Sec Time  Avg Frame Size  Max Frame Size  Max Frame Time
------          -------         ------          --------------  --------------  --------------  --------------  --------------  --------------  --------------  --------------  --------------  --------------
1               0:00:00.000     0:01:44.804     29 983 kbps     30 899 kbps     00:01:35.728    30 298 kbps     00:00:03.003    30 172 kbps     00:00:03.036    125 052 bytes   372 563 bytes   00:01:08.568
STREAM DIAGNOSTICS:
File            PID             Type            Codec           Language                Seconds                 Bitrate                 Bytes           Packets
----            ---             ----            -----           --------                --------------          --------------          -------------   -----
00008.M2TS      4113 (0x1011)   0x02            MPEG-2                                  104,705                 30 011                  392 788 381     2 136 924
00008.M2TS      4352 (0x1100)   0x80            LPCM            jpn (Japanese)          104,705                 1 544                   20 206 404      125 766
00008.M2TS      5120 (0x1400)   0x91            IGS             jpn (Japanese)          104,705                 139                     1 820 402       10 001


QUICK SUMMARY:
Disc Title: DIO_FINDING_THE_SACRED_HEART
Disc Size: 41 089 492 976 bytes
Protection: AACS
BD-Java: No
Playlist: 00008.MPLS
Size: 437 035 008 bytes
Length: 0:01:44.804
Total Bitrate: 33,36 Mbps
Video: MPEG-2 Video / 29983 kbps / 1080i / 29,970 fps / 16:9
Audio: Japanese / LPCM Audio / 2.0 / 48 kHz / 1536 kbps / 16-bit
Subtitle: Japanese / 138,956 kbps
********************
PLAYLIST: 00009.MPLS
********************

Код:

                                                                                Total   Video
Title                                                           Codec   Length  Movie Size      Disc Size       Bitrate Bitrate Main Audio Track                          Secondary Audio Track
-----                                                           ------  ------- --------------  --------------  ------- ------- ------------------                        ---------------------
00009.MPLS                                                      MPEG-2  0:01:33 388 810 752     41 089 492 976  33,39   29,99   LPCM 2.0 1536Kbps (48kHz/16-bit)

Код:
DISC INFO:
Disc Title:     DIO_FINDING_THE_SACRED_HEART
Disc Size:      41 089 492 976 bytes
Protection:     AACS
BD-Java:        No
BDInfo:         0.5.8
PLAYLIST REPORT:
Name:                   00009.MPLS
Length:                 0:01:33.159 (h:m:s.ms)
Size:                   388 810 752 bytes
Total Bitrate:          33,39 Mbps
VIDEO:
Codec                   Bitrate             Description
-----                   -------             -----------
MPEG-2 Video            29993 kbps          1080i / 29,970 fps / 16:9
AUDIO:
Codec                           Language        Bitrate         Description
-----                           --------        -------         -----------
LPCM Audio                      Japanese        1536 kbps       2.0 / 48 kHz / 1536 kbps / 16-bit
SUBTITLES:
Codec                           Language        Bitrate         Description
-----                           --------        -------         -----------
Interactive Graphics            Japanese        156,325 kbps
FILES:
Name            Time In         Length          Size            Total Bitrate
----            -------         ------          ----            -------------
00010.M2TS      0:00:00.000     0:01:33.159     388 810 752     33 389
CHAPTERS:
Number          Time In         Length          Avg Video Rate  Max 1-Sec Rate  Max 1-Sec Time  Max 5-Sec Rate  Max 5-Sec Time  Max 10Sec Rate  Max 10Sec Time  Avg Frame Size  Max Frame Size  Max Frame Time
------          -------         ------          --------------  --------------  --------------  --------------  --------------  --------------  --------------  --------------  --------------  --------------
1               0:00:00.000     0:01:33.159     29 993 kbps     31 184 kbps     00:00:29.129    30 282 kbps     00:01:12.172    30 131 kbps     00:00:41.674    125 097 bytes   373 757 bytes   00:01:27.086
STREAM DIAGNOSTICS:
File            PID             Type            Codec           Language                Seconds                 Bitrate                 Bytes           Packets
----            ---             ----            -----           --------                --------------          --------------          -------------   -----
00010.M2TS      4113 (0x1011)   0x02            MPEG-2                                  93,093                  30 015                  349 270 534     1 900 092
00010.M2TS      4352 (0x1100)   0x80            LPCM            jpn (Japanese)          93,093                  1 544                   17 961 248      111 792
00010.M2TS      5120 (0x1400)   0x91            IGS             jpn (Japanese)          93,093                  156                     1 820 402       10 001


QUICK SUMMARY:
Disc Title: DIO_FINDING_THE_SACRED_HEART
Disc Size: 41 089 492 976 bytes
Protection: AACS
BD-Java: No
Playlist: 00009.MPLS
Size: 388 810 752 bytes
Length: 0:01:33.159
Total Bitrate: 33,39 Mbps
Video: MPEG-2 Video / 29993 kbps / 1080i / 29,970 fps / 16:9
Audio: Japanese / LPCM Audio / 2.0 / 48 kHz / 1536 kbps / 16-bit
Subtitle: Japanese / 156,325 kbps
********************
PLAYLIST: 00001.MPLS
********************

Код:

                                                                                Total   Video
Title                                                           Codec   Length  Movie Size      Disc Size       Bitrate Bitrate Main Audio Track                          Secondary Audio Track
-----                                                           ------  ------- --------------  --------------  ------- ------- ------------------                        ---------------------
00001.MPLS                                                      MPEG-2  0:00:20 72 566 784      41 089 492 976  28,95   25,90   LPCM 2.0 1536Kbps (48kHz/16-bit)

Код:
DISC INFO:
Disc Title:     DIO_FINDING_THE_SACRED_HEART
Disc Size:      41 089 492 976 bytes
Protection:     AACS
BD-Java:        No
BDInfo:         0.5.8
PLAYLIST REPORT:
Name:                   00001.MPLS
Length:                 0:00:20.053 (h:m:s.ms)
Size:                   72 566 784 bytes
Total Bitrate:          28,95 Mbps
VIDEO:
Codec                   Bitrate             Description
-----                   -------             -----------
MPEG-2 Video            25899 kbps          1080i / 29,970 fps / 16:9
AUDIO:
Codec                           Language        Bitrate         Description
-----                           --------        -------         -----------
LPCM Audio                      Japanese        1536 kbps       2.0 / 48 kHz / 1536 kbps / 16-bit
FILES:
Name            Time In         Length          Size            Total Bitrate
----            -------         ------          ----            -------------
00001.M2TS      0:00:00.000     0:00:20.053     72 566 784      28 949
CHAPTERS:
Number          Time In         Length          Avg Video Rate  Max 1-Sec Rate  Max 1-Sec Time  Max 5-Sec Rate  Max 5-Sec Time  Max 10Sec Rate  Max 10Sec Time  Avg Frame Size  Max Frame Size  Max Frame Time
------          -------         ------          --------------  --------------  --------------  --------------  --------------  --------------  --------------  --------------  --------------  --------------
1               0:00:00.000     0:00:20.053     25 899 kbps     34 183 kbps     00:00:06.272    30 299 kbps     00:00:04.971    28 733 kbps     00:00:04.904    108 022 bytes   676 059 bytes   00:00:06.506
STREAM DIAGNOSTICS:
File            PID             Type            Codec           Language                Seconds                 Bitrate                 Bytes           Packets
----            ---             ----            -----           --------                --------------          --------------          -------------   -----
00001.M2TS      4113 (0x1011)   0x02            MPEG-2                                  20,020                  25 943                  64 921 336      353 179
00001.M2TS      4352 (0x1100)   0x80            LPCM            jpn (Japanese)          20,020                  1 545                   3 866 604       24 066


QUICK SUMMARY:
Disc Title: DIO_FINDING_THE_SACRED_HEART
Disc Size: 41 089 492 976 bytes
Protection: AACS
BD-Java: No
Playlist: 00001.MPLS
Size: 72 566 784 bytes
Length: 0:00:20.053
Total Bitrate: 28,95 Mbps
Video: MPEG-2 Video / 25899 kbps / 1080i / 29,970 fps / 16:9
Audio: Japanese / LPCM Audio / 2.0 / 48 kHz / 1536 kbps / 16-bit


Скриншоты




























                                                                                       
                       
                       
                       
                       
                       
                                磁力下载:
                                                               
                                       
游客,本主题需向作者支付 7音乐币 才能浏览,金币充值, 免回复、免金币,直接查看内容请开通VIP支付

                                               
  • 38.27 GB
  • 温馨提示

    记得善用社区搜索功能,那里可能会有你想要的资源;论坛站内搜索

    如果你有什么需要的资源可以去资源求档发帖,求助社区的网友,我们会在第一时间给你回复哦;资源求档

    对于本社区网盘链接失效密码错误各种报错请在反馈板块反馈报错发帖,您的支持,是我们发展的最大动力;投诉建议

    回复

    使用道具 举报

    您需要登录后才可以回帖 登录 | 立即注册 微信登录

    本版积分规则

    关注0

    粉丝12

    帖子69803

    发布主题
    阅读排行更多+
    关闭

    站长推荐上一条 /1 下一条

    收藏帖子 返回列表 这是一个自定义按钮
    音乐分享,音乐下载。
    微信公众号
    微信号:hires_
    意见反馈:admin@maomicd.com

    加入我们的官方QQ群和微信群

    Powered by Discuz! X3.4 Archiver|手机版|小黑屋|捌零音乐论坛 ( 苏ICP备20015413号 )|( 苏公网安备 32030502000272号) 繁體

    GMT+8, 2021-5-6 08:59