自购原抓音乐圈:只有自购、合购、原抓级高解析(hires、sacd、dsd)正版音乐资源分享!【点我打开
极速无线网卡:千兆无线网卡、服务器网卡、USB接口台式机笔记本网卡 硬盘代考无损音乐!【点我打开
广告

[摇滚] Kiss - Rocks Vegas 2014 [2016, Hard Rock/Glam Rock, BDRip, 720p]

[复制链接]
全球搬运 发表于 2021-4-13 15:34:04 | 显示全部楼层 |阅读模式 打印 上一主题 下一主题
Kiss - Rocks Vegas 2014
Жанр: Hard Rock/Glam Rock
Продолжительность: 01:28:12+00:25:42
Год выпуска: 2016
Описание: Описание: Концерт группы в Hard Rock Hotel в Лас-Вегасе в ноябре 2014 года....
Источник - Kiss - Rocks Vegas, Blu Ray

Треклист:
01. Detroit Rock City
02. Creatures Of The Night
03. Psycho Circus
04. Parasite
05. War Machine
06. Tears Are Falling
07. Deuce
08. Lick It Up
09. I Love It Loud
10. Hell Or Halleluja
11. Guitar Solo
12. Bass Solo
13. God Of Thunder
14. Do You Love Me
15. Love Gun
16. Black Diamond
17. Shout It Out Loud
18. Rock And Roll All Night
19. God Gave Rock'n'Roll To You (Credits)
Качество: BDRip
Разрешение видео/развертка: 720p
Контейнер: MKV
Видео кодек: H.264
Аудио кодек: DTS, PCM
Видео: AVC, 1280x720 (16:9), 29.970 fps, 8 900 Kbps
Аудио#1: PCM, 48.0 KHz, 2 ch, 1 536 Kbps
Аудио#2: DTS, 48.0 KHz, 6 ch, 1 510 Kbps
MediaInfo /x264Log

x264Log

[Information] [03.09.2016 0:24:29] Standard error stream
-[Information] [03.09.2016 0:24:43] avs [info]: 1280x720p 1:1 @ 30000/1001 fps (cfr)
-[Information] [03.09.2016 0:24:43] x264 [info]: using SAR=1/1
-[Information] [03.09.2016 0:24:43] x264 [info]: using cpu capabilities: MMX2 SSE2Fast SSSE3 SSE4.2 AVX
-[Information] [03.09.2016 0:24:43] x264 [info]: profile High, level 4.1
-[Information] [03.09.2016 12:08:00] x264 [info]: frame I:1117  Avg QP:17.76  size:138488
-[Information] [03.09.2016 12:08:00] x264 [info]: frame P:42776 Avg QP:20.52  size: 58862
-[Information] [03.09.2016 12:08:00] x264 [info]: frame B:114706 Avg QP:22.35  size: 28031
-[Information] [03.09.2016 12:08:00] x264 [info]: consecutive B-frames:  4.0%  5.4% 14.8% 36.7% 17.5% 16.9%  2.0%  1.0%  0.5%  0.5%  0.8%
-[Information] [03.09.2016 12:08:00] x264 [info]: mb I  I16..4:  5.2% 73.0% 21.7%
-[Information] [03.09.2016 12:08:00] x264 [info]: mb P  I16..4:  4.1% 25.8%  4.3%  P16..4: 35.9% 15.7%  9.3%  0.7%  0.2%    skip: 3.8%
-[Information] [03.09.2016 12:08:00] x264 [info]: mb B  I16..4:  0.5%  4.0%  0.6%  B16..8: 36.6% 12.1%  3.5%  direct:15.5%  skip:27.2%  L0:39.9% L1:41.3% BI:18.9%
-[Information] [03.09.2016 12:08:00] x264 [info]: 8x8 transform intra:75.9% inter:64.4%
-[Information] [03.09.2016 12:08:00] x264 [info]: direct mvs  spatial:94.9% temporal:5.1%
-[Information] [03.09.2016 12:08:00] x264 [info]: coded y,uvDC,uvAC intra: 82.8% 80.8% 45.8% inter: 38.3% 44.1% 6.3%
-[Information] [03.09.2016 12:08:00] x264 [info]: i16 v,h,dc,p: 31% 17% 15% 37%
-[Information] [03.09.2016 12:08:00] x264 [info]: i8 v,h,dc,ddl,ddr,vr,hd,vl,hu:  9%  7%  8% 11% 14% 14% 12% 13% 13%
-[Information] [03.09.2016 12:08:00] x264 [info]: i4 v,h,dc,ddl,ddr,vr,hd,vl,hu: 11%  7%  4% 10% 15% 14% 13% 12% 13%
-[Information] [03.09.2016 12:08:00] x264 [info]: i8c dc,h,v,p: 36% 25% 21% 19%
-[Information] [03.09.2016 12:08:00] x264 [info]: Weighted P-Frames: Y:26.5% UV:22.0%
-[Information] [03.09.2016 12:08:00] x264 [info]: ref P L0: 47.5% 11.0% 16.3%  7.0%  5.1%  4.0%  3.4%  2.5%  2.2%  0.9%  0.2%
-[Information] [03.09.2016 12:08:00] x264 [info]: ref B L0: 78.0% 10.4%  4.3%  2.5%  1.8%  1.5%  1.0%  0.4%
-[Information] [03.09.2016 12:08:00] x264 [info]: ref B L1: 94.6%  5.4%
-[Information] [03.09.2016 12:08:00] x264 [info]: kb/s:8900.90
-[Information] [03.09.2016 12:08:00] encoded 158599 frames, 3.76 fps, 8900.90 kb/s


General
Unique ID                                : 216013243063262557603251276101962915051 (0xA282A32766DB9423902D1B85D6B75CEB)
Complete name                            : O:\Kiss - Rocks Vegas.BDRip720p\Kiss-Rocks Vegas.201.BDRip720p.mkv
Format                                   : Matroska
Format version                           : Version 4 / Version 2
File size                                : 7.36 GiB
Duration                                 : 1h 28mn
Overall bit rate                         : 11.9 Mbps
Encoded date                             : UTC 2016-09-03 10:04:43
Writing application                      : mkvmerge v8.6.0 ('A Place In Your World') 64bit
Writing library                          : libebml v1.3.3 + libmatroska v1.4.4
Video
ID                                       : 1
Format                                   : AVC
Format/Info                              : Advanced Video Codec
Format profile                           : High@L4.1
Format settings, CABAC                   : Yes
Format settings, ReFrames                : 9 frames
Codec ID                                 : V_MPEG4/ISO/AVC
Duration                                 : 1h 28mn
Bit rate                                 : 8 900 Kbps
Width                                    : 1 280 pixels
Height                                   : 720 pixels
Display aspect ratio                     : 16:9
Frame rate mode                          : Constant
Frame rate                               : 29.970 (30000/1001) fps
Color space                              : YUV
Chroma subsampling                       : 4:2:0
Bit depth                                : 8 bits
Scan type                                : Progressive
Bits/(Pixel*Frame)                       : 0.322
Stream size                              : 5.48 GiB (74%)
Writing library                          : x264 core 146 r2538 121396c
Encoding settings                        : cabac=1 / ref=9 / deblock=1:-1:-1 / analyse=0x3:0x133 / me=umh / subme=10 / psy=1 / psy_rd=1.00:0.13 / mixed_ref=1 / me_range=32 / chroma_me=1 / trellis=2 / 8x8dct=1 / cqm=0 / deadzone=21,11 / fast_pskip=1 / chroma_qp_offset=-3 / threads=6 / lookahead_threads=1 / sliced_threads=0 / nr=0 / decimate=1 / interlaced=0 / bluray_compat=0 / constrained_intra=0 / bframes=10 / b_pyramid=2 / b_adapt=2 / b_bias=0 / direct=3 / weightb=1 / open_gop=0 / weightp=2 / keyint=300 / keyint_min=29 / scenecut=40 / intra_refresh=0 / rc_lookahead=100 / rc=2pass / mbtree=1 / bitrate=8900 / ratetol=1.0 / qcomp=0.60 / qpmin=0 / qpmax=69 / qpstep=4 / cplxblur=20.0 / qblur=0.5 / vbv_maxrate=50000 / vbv_bufsize=62500 / nal_hrd=none / filler=0 / ip_ratio=1.40 / aq=1:1.00
Default                                  : Yes
Forced                                   : No
Audio #1
ID                                       : 2
Format                                   : PCM
Codec ID                                 : A_PCM/INT/LIT
Duration                                 : 1h 28mn
Bit rate mode                            : Constant
Bit rate                                 : 1 536 Kbps
Channel(s)                               : 2 channels
Sampling rate                            : 48.0 KHz
Frame rate                               : 32.000 fps (1500 spf)
Bit depth                                : 16 bits
Stream size                              : 969 MiB (13%)
Default                                  : Yes
Forced                                   : No
Audio #2
ID                                       : 3
Format                                   : DTS
Format/Info                              : Digital Theater Systems
Mode                                     : 16
Format settings, Endianness              : Big
Codec ID                                 : A_DTS
Duration                                 : 1h 28mn
Bit rate mode                            : Constant
Bit rate                                 : 1 509 Kbps
Channel(s)                               : 6 channels
Channel positions                        : Front: L C R, Side: L R, LFE
Sampling rate                            : 48.0 KHz
Frame rate                               : 93.750 fps (512 spf)
Bit depth                                : 24 bits
Compression mode                         : Lossy
Stream size                              : 952 MiB (13%)
Default                                  : No
Forced                                   : No
Menu
00:00:00.000                             : en:01. Detroit Rock City
00:05:41.007                             : en:02. Creatures Of The Night
00:10:01.000                             : en:03. Psycho Circus
00:16:08.968                             : en:04. Parasite
00:20:06.705                             : en:05. War Machine
00:24:50.489                             : en:06. Tears Are Falling
00:29:06.778                             : en:07. Deuce
00:32:56.541                             : en:08. Lick It Up
00:39:27.098                             : en:09. I Love It Loud
00:42:50.635                             : en:10. Hell Or Halleluja
00:47:17.968                             : en:11. Guitar Solo
00:49:14.952                             : en:12. Bass Solo
00:52:25.709                             : en:13. God Of Thunder
00:57:03.186                             : en:14. Do You Love Me
01:01:30.020                             : en:15.  Love Gun
01:06:14.971                             : en:16. Black Diamond
01:16:11.634                             : en:17. Shout It Out Loud
01:19:00.803                             : en:18. Rock And Roll All Night
01:26:41.997                             : en:19. God Gave Rock'n'Roll To You (Credits)


Скриншоты






























Acoustic set:
01. Coming Home
02. Plaster Caster
03. Hard Luck Woman
04. Christine Sixteen
05. Goin' Blind
06. Love Her All I Can
07. Beth
Качество: BDRip
Разрешение видео/развертка: 720p
Контейнер: MKV
Видео кодек: H.264
Аудио кодек: DTS, PCM
Видео: AVC, 1280x720 (16:9), 29.970 fps, 5 300 Kbps
Аудио: PCM, 48.0 KHz, 2 ch, 1 536 Kbps
MediaInfo /x264Log

x264Log

[Information] [03.09.2016 12:58:46] Standard error stream
-[Information] [03.09.2016 12:58:49] avs [info]: 1280x720p 1:1 @ 30000/1001 fps (cfr)
-[Information] [03.09.2016 12:58:49] x264 [info]: using SAR=1/1
-[Information] [03.09.2016 12:58:49] x264 [info]: using cpu capabilities: MMX2 SSE2Fast SSSE3 SSE4.2 AVX
-[Information] [03.09.2016 12:58:49] x264 [info]: profile High, level 4.1
-[Information] [03.09.2016 15:37:59] x264 [info]: frame I:493   Avg QP:17.86  size:145914
-[Information] [03.09.2016 15:37:59] x264 [info]: frame P:9890  Avg QP:19.90  size: 44822
-[Information] [03.09.2016 15:37:59] x264 [info]: frame B:35829 Avg QP:22.97  size: 14137
-[Information] [03.09.2016 15:37:59] x264 [info]: consecutive B-frames:  1.8%  1.4%  6.7% 26.3% 20.2% 39.9%  2.6%  0.6%  0.7%
-[Information] [03.09.2016 15:37:59] x264 [info]: mb I  I16..4:  3.5% 79.5% 17.0%
-[Information] [03.09.2016 15:37:59] x264 [info]: mb P  I16..4:  1.4% 10.0%  1.1%  P16..4: 45.2% 23.4% 14.4%  0.6%  0.2%    skip: 3.7%
-[Information] [03.09.2016 15:37:59] x264 [info]: mb B  I16..4:  0.1%  0.7%  0.1%  B16..8: 41.2%  9.0%  2.3%  direct: 9.3%  skip:37.4%  L0:41.4% L1:45.3% BI:13.3%
-[Information] [03.09.2016 15:37:59] x264 [info]: 8x8 transform intra:80.1% inter:59.4%
-[Information] [03.09.2016 15:37:59] x264 [info]: direct mvs  spatial:98.1% temporal:1.9%
-[Information] [03.09.2016 15:37:59] x264 [info]: coded y,uvDC,uvAC intra: 85.6% 86.3% 63.1% inter: 26.9% 29.9% 5.5%
-[Information] [03.09.2016 15:37:59] x264 [info]: i16 v,h,dc,p: 18% 14% 11% 57%
-[Information] [03.09.2016 15:37:59] x264 [info]: i8 v,h,dc,ddl,ddr,vr,hd,vl,hu:  9%  8%  7%  9% 13% 12% 14% 12% 15%
-[Information] [03.09.2016 15:37:59] x264 [info]: i4 v,h,dc,ddl,ddr,vr,hd,vl,hu:  9%  9%  4%  9% 14% 13% 15% 12% 16%
-[Information] [03.09.2016 15:37:59] x264 [info]: i8c dc,h,v,p: 43% 22% 17% 18%
-[Information] [03.09.2016 15:37:59] x264 [info]: Weighted P-Frames: Y:1.2% UV:0.6%
-[Information] [03.09.2016 15:37:59] x264 [info]: ref P L0: 40.5%  9.5% 22.2%  6.6%  7.3%  4.1%  4.7%  2.1%  2.7%  0.2%  0.0%
-[Information] [03.09.2016 15:37:59] x264 [info]: ref B L0: 82.1%  9.6%  3.1%  1.9%  1.2%  1.1%  0.6%  0.4%
-[Information] [03.09.2016 15:37:59] x264 [info]: ref B L1: 96.2%  3.8%
-[Information] [03.09.2016 15:37:59] x264 [info]: kb/s:5301.06
-[Information] [03.09.2016 15:37:59] encoded 46212 frames, 4.84 fps, 5301.06 kb/s


General
Unique ID                                : 173823979305080544683531598406585067295 (0x82C547DA9E9D54AD836228534F76A71F)
Complete name                            : O:\Kiss - Rocks Vegas.BDRip720p\Kiss - Rocks Vegas.Acoustic.2016.BDRip720p.mkv
Format                                   : Matroska
Format version                           : Version 4 / Version 2
File size                                : 1.23 GiB
Duration                                 : 25mn 42s
Overall bit rate                         : 6 839 Kbps
Encoded date                             : UTC 2016-09-03 13:33:11
Writing application                      : mkvmerge v8.6.0 ('A Place In Your World') 64bit
Writing library                          : libebml v1.3.3 + libmatroska v1.4.4
Video
ID                                       : 1
Format                                   : AVC
Format/Info                              : Advanced Video Codec
Format profile                           : High@L4.1
Format settings, CABAC                   : Yes
Format settings, ReFrames                : 9 frames
Codec ID                                 : V_MPEG4/ISO/AVC
Duration                                 : 25mn 41s
Bit rate                                 : 5 300 Kbps
Width                                    : 1 280 pixels
Height                                   : 720 pixels
Display aspect ratio                     : 16:9
Frame rate mode                          : Constant
Frame rate                               : 29.970 (30000/1001) fps
Color space                              : YUV
Chroma subsampling                       : 4:2:0
Bit depth                                : 8 bits
Scan type                                : Progressive
Bits/(Pixel*Frame)                       : 0.192
Stream size                              : 974 MiB (78%)
Writing library                          : x264 core 146 r2538 121396c
Encoding settings                        : cabac=1 / ref=9 / deblock=1:-1:-1 / analyse=0x3:0x133 / me=umh / subme=10 / psy=1 / psy_rd=1.00:0.14 / mixed_ref=1 / me_range=32 / chroma_me=1 / trellis=2 / 8x8dct=1 / cqm=0 / deadzone=21,11 / fast_pskip=1 / chroma_qp_offset=-3 / threads=6 / lookahead_threads=1 / sliced_threads=0 / nr=0 / decimate=1 / interlaced=0 / bluray_compat=0 / constrained_intra=0 / bframes=8 / b_pyramid=2 / b_adapt=2 / b_bias=0 / direct=3 / weightb=1 / open_gop=0 / weightp=2 / keyint=300 / keyint_min=29 / scenecut=40 / intra_refresh=0 / rc_lookahead=100 / rc=2pass / mbtree=1 / bitrate=5300 / ratetol=1.0 / qcomp=0.60 / qpmin=0 / qpmax=69 / qpstep=4 / cplxblur=20.0 / qblur=0.5 / vbv_maxrate=50000 / vbv_bufsize=62500 / nal_hrd=none / filler=0 / ip_ratio=1.40 / aq=1:1.00
Default                                  : Yes
Forced                                   : No
Audio
ID                                       : 2
Format                                   : PCM
Codec ID                                 : A_PCM/INT/LIT
Duration                                 : 25mn 42s
Bit rate mode                            : Constant
Bit rate                                 : 1 536 Kbps
Channel(s)                               : 2 channels
Sampling rate                            : 48.0 KHz
Frame rate                               : 32.000 fps (1500 spf)
Bit depth                                : 16 bits
Stream size                              : 282 MiB (22%)
Default                                  : Yes
Forced                                   : No
Menu
00:00:00.000                             : en:01. Coming Home
00:04:24.331                             : en:02. Plaster Caster
00:08:09.823                             : en:03. Hard Luck Woman
00:11:41.701                             : en:04. Christine Sixteen
00:15:16.983                             : en:05. Goin' Blind
00:19:15.721                             : en:06. Love Her All I Can
00:22:29.615                             : en:07. Beth


Скриншоты





















                                                                                       
                       
                       
                       
                       
                       
                                磁力下载:(论坛代下载服务)
                                                               
                                       
游客,本主题需向作者支付 7音乐币 才能浏览,金币充值, 免回复、免金币,直接查看内容请开通VIP支付

                                               
  • 8.59 GB
  • 温馨提示

    记得善用社区搜索功能,那里可能会有你想要的资源;论坛站内搜索

    如果你有什么需要的资源可以去资源求档发帖,求助社区的网友,我们会在第一时间给你回复哦;资源求档

    对于本社区网盘链接失效密码错误各种报错请在反馈板块反馈报错发帖,您的支持,是我们发展的最大动力;投诉建议

    回复

    使用道具 举报

    您需要登录后才可以回帖 登录 | 立即注册 微信登录

    本版积分规则

    关注0

    粉丝12

    帖子69803

    发布主题
    阅读排行更多+
    关闭

    站长推荐上一条 /1 下一条

    收藏帖子 返回列表 这是一个自定义按钮
    音乐分享,音乐下载。
    微信公众号
    微信号:hires_
    意见反馈:admin@maomicd.com

    加入我们的官方QQ群和微信群

    Powered by Discuz! X3.4 Archiver|手机版|小黑屋|捌零音乐论坛 ( 苏ICP备20015413号 )|( 苏公网安备 32030502000272号) 繁體

    GMT+8, 2021-5-9 06:32