自购原抓音乐圈:只有自购、合购、原抓级高解析(hires、sacd、dsd)正版音乐资源分享!【点我打开
极速无线网卡:千兆无线网卡、服务器网卡、USB接口台式机笔记本网卡 硬盘代考无损音乐!【点我打开
广告

[摇滚] Leonard Cohen: Songs from the Road [2009, Folk-Rock, Blu-ray 1080i]

[复制链接]
如果有神 发表于 2021-4-13 15:34:03 | 显示全部楼层 |阅读模式 打印 上一主题 下一主题
Leonard Cohen Songs from the Road
Жанр: Folk-Rock
Продолжительность: 01:11:52
Год выпуска: 2009Описание: Following the celebration of his 40th year as a Columbia artist in 2007 and coinciding with his induction into the Rock And Roll Hall Of Fame in March 2008, Cohen thrilled his fans by announcing his first tour dates in 15 years. He s gone on to play the most prestigious and beautiful venues in virtually every corner of the globe, mesmerizing and charming audiences with performances that were hailed as some of the best of his career. When legend Cohen takes to the stage, raved Ireland s The Independent (June 2008), it s no less than a cultural event of Biblical dimensions. One dozen of Leonard Cohen s most famous songs from those recent world tour performances at auditorium halls, festivals, arenas, and stadiums from Tel Aviv to London, from across Europe to the California desert and his native Canada are now collected on SONGS FROM THE ROAD. The 12-song program filmed in high definition and recorded in 5.1 surround sound will be issued in three separate packages: CD+DVD in a beautiful softpak with a 12-page book, Blu-ray, and 2-LP 180-gram audiophile vinyl in a gatefold jacket.
Качество: Blu-ray
Контейнер: BDMV
Видео: MPEG-4 AVC Video / 20964 kbps / 1080i / 29,970 fps / 16:9 / High Profile 4.1
Аудио #1: Dolby TrueHD Audio English / 5.1 / 96 kHz / 5665 kbps / 16-bit (AC3 Embedded: 5.1 / 48 kHz / 640 kbps / DN -4dB)
Аудио #2: LPCM Audio English / 2.0 / 96 kHz / 4608 kbps / 24-bit
Субтитры: English, Dutch, French, German, Italian, Spanish.Треклист:
1. Lover, Lover, Lover
2. Bird on a Wire
3. Chelsea Hotel
4. Heart With No Companion
5. That Don't Make It Junk
6. Waiting For the Miracle
7. Avalanche
8. Suzanne
9. Partisan, The
10. Famous Blue Raincoat
11. Hallelujah
12. Closing Time
Меню
Меню: англоязычное
Play program | Song select | Backstage Scetch(Supplements) | Set-up options | Resume

Дополнительные материаллы
Songs from the Road backstage scetch (за кулисами концерта: репетиции, интерьвью участников коллектива, отрывки выступления..)

BDInfo
Disc Title:
Disc Size: 23 198 765 174 bytes
Protection: AACS
BD-Java: No
BDInfo: 0.5.3
Notes:
BDINFO HOME:
Cinema Squid
http://www.cinemasquid.com/blu-ray/tools/bdinfo
INCLUDES FORUMS REPORT FOR:
AVS Forum Blu-ray Audio and Video Specifications Thread
http://www.avsforum.com/avs-vb/showthread.php?t=1155731
********************
PLAYLIST: 00003.MPLS
********************

Код:

                                                                                Total   Video
Title                                                           Codec   Length  Movie Size      Disc Size       Bitrate Bitrate Main Audio Track                          Secondary Audio Track
-----                                                           ------  ------- --------------  --------------  ------- ------- ------------------                        ---------------------
00003.MPLS                                                      AVC     1:11:52 18 702 514 176  23 198 765 174  34,70   20,96   Dolby TrueHD 5.1 5665Kbps (96kHz/16-bit)  LPCM 2.0 4608Kbps (96kHz/24-bit)

Код:
DISC INFO:
Disc Title:
Disc Size:      23 198 765 174 bytes
Protection:     AACS
BD-Java:        No
BDInfo:         0.5.3
PLAYLIST REPORT:
Name:                   00003.MPLS
Length:                 1:11:52 (h:m:s)
Size:                   18 702 514 176 bytes
Total Bitrate:          34,70 Mbps
VIDEO:
Codec                   Bitrate             Description
-----                   -------             -----------
MPEG-4 AVC Video        20964 kbps          1080i / 29,970 fps / 16:9 / High Profile 4.1
AUDIO:
Codec                           Language        Bitrate         Description
-----                           --------        -------         -----------
Dolby TrueHD Audio              English         5665 kbps       5.1 / 96 kHz / 5665 kbps / 16-bit (AC3 Embedded: 5.1 / 48 kHz / 640 kbps / DN -4dB)
LPCM Audio                      English         4608 kbps       2.0 / 96 kHz / 4608 kbps / 24-bit
SUBTITLES:
Codec                           Language        Bitrate         Description
-----                           --------        -------         -----------
Presentation Graphics           English         0,003 kbps
Presentation Graphics           Dutch           0,003 kbps
Presentation Graphics           French          0,003 kbps
Presentation Graphics           German          0,003 kbps
Presentation Graphics           Italian         0,003 kbps
Presentation Graphics           Spanish         0,003 kbps
FILES:
Name            Time In         Length          Size            Total Bitrate
----            -------         ------          ----            -------------
00006.M2TS      0:00:00.000     1:11:52.041     18 702 514 176  34 698
CHAPTERS:
Number          Time In         Length          Avg Video Rate  Max 1-Sec Rate  Max 1-Sec Time  Max 5-Sec Rate  Max 5-Sec Time  Max 10Sec Rate  Max 10Sec Time  Avg Frame Size  Max Frame Size  Max Frame Time
------          -------         ------          --------------  --------------  --------------  --------------  --------------  --------------  --------------  --------------  --------------  --------------
1               0:00:00.000     0:08:32.478     18 842 kbps     36 889 kbps     00:00:45.745    29 788 kbps     00:00:43.076    27 737 kbps     00:00:38.171    78 581 bytes    387 306 bytes   00:07:28.915
2               0:08:32.478     0:06:23.549     20 902 kbps     39 122 kbps     00:11:20.146    32 378 kbps     00:11:23.649    31 841 kbps     00:11:20.146    87 180 bytes    386 643 bytes   00:10:23.656
3               0:14:56.028     0:03:43.923     21 025 kbps     31 480 kbps     00:16:09.668    28 935 kbps     00:16:09.668    28 530 kbps     00:16:16.508    87 692 bytes    331 077 bytes   00:16:20.112
4               0:18:39.952     0:06:32.158     22 587 kbps     33 335 kbps     00:20:26.758    30 247 kbps     00:22:48.200    29 462 kbps     00:22:13.799    94 207 bytes    392 932 bytes   00:22:53.138
5               0:25:12.110     0:04:48.621     22 122 kbps     31 721 kbps     00:29:57.796    27 688 kbps     00:25:12.744    26 243 kbps     00:25:12.110    92 268 bytes    390 467 bytes   00:26:07.632
6               0:30:00.732     0:08:02.215     14 918 kbps     29 154 kbps     00:30:02.133    25 516 kbps     00:30:00.732    22 060 kbps     00:30:01.132    62 220 bytes    362 270 bytes   00:30:02.333
7               0:38:02.947     0:04:16.556     15 884 kbps     33 387 kbps     00:38:22.066    25 559 kbps     00:39:27.798    22 841 kbps     00:41:28.352    66 251 bytes    248 226 bytes   00:41:37.561
8               0:42:19.503     0:03:47.594     20 961 kbps     28 928 kbps     00:45:58.222    26 924 kbps     00:45:39.536    26 028 kbps     00:45:56.487    87 426 bytes    351 539 bytes   00:45:59.890
9               0:46:07.097     0:05:11.277     23 470 kbps     39 111 kbps     00:50:26.256    32 777 kbps     00:50:16.613    29 851 kbps     00:46:10.100    97 889 bytes    353 649 bytes   00:49:19.556
10              0:51:18.375     0:05:34.634     23 779 kbps     36 847 kbps     00:55:00.730    31 833 kbps     00:54:56.893    29 854 kbps     00:54:54.991    99 179 bytes    361 781 bytes   00:51:35.592
11              0:56:53.009     0:08:36.482     24 198 kbps     35 624 kbps     01:01:34.991    29 629 kbps     00:57:26.443    28 322 kbps     00:57:20.003    100 924 bytes   361 010 bytes   00:57:19.269
12              1:05:29.492     0:06:19.545     23 611 kbps     30 345 kbps     01:09:40.543    27 983 kbps     01:10:18.247    26 869 kbps     01:10:16.378    98 476 bytes    397 871 bytes   01:08:39.048
13              1:11:49.038     0:00:03.002     3 918 kbps      4 255 kbps      01:11:50.439    0 kbps          00:00:00.000    0 kbps          00:00:00.000    16 525 bytes    25 487 bytes    01:11:49.838
STREAM DIAGNOSTICS:
File            PID             Type            Codec           Language                Seconds                 Bitrate                 Bytes           Packets
----            ---             ----            -----           --------                --------------          --------------          -------------   -----
00006.M2TS      4113 (0x1011)   0x1B            AVC                                     4311,941                20 964                  11 299 640 440  61 486 614
00006.M2TS      4352 (0x1100)   0x80            LPCM            eng (English)           4311,941                4 615                   2 487 320 220   13 799 280
00006.M2TS      4353 (0x1101)   0x83            TrueHD          eng (English)           4311,941                6 305                   3 398 471 910   21 978 433
00006.M2TS      4608 (0x1200)   0x90            PGS             eng (English)           4311,941                0                       1 682           16
00006.M2TS      4609 (0x1201)   0x90            PGS             nld (Dutch)             4311,941                0                       1 682           16
00006.M2TS      4610 (0x1202)   0x90            PGS             fra (French)            4311,941                0                       1 682           16
00006.M2TS      4611 (0x1203)   0x90            PGS             deu (German)            4311,941                0                       1 682           16
00006.M2TS      4612 (0x1204)   0x90            PGS             ita (Italian)           4311,941                0                       1 682           16
00006.M2TS      4613 (0x1205)   0x90            PGS             spa (Spanish)           4311,941                0                       1 682           16

QUICK SUMMARY:
Disc Title:
Disc Size: 23 198 765 174 bytes
Protection: AACS
BD-Java: No
Playlist: 00003.MPLS
Size: 18 702 514 176 bytes
Length: 1:11:52
Total Bitrate: 34,70 Mbps
Video: MPEG-4 AVC Video / 20964 kbps / 1080i / 29,970 fps / 16:9 / High Profile 4.1
Audio: English / Dolby TrueHD Audio / 5.1 / 96 kHz / 5665 kbps / 16-bit (AC3 Embedded: 5.1 / 48 kHz / 640 kbps / DN -4dB)
Audio: English / LPCM Audio / 2.0 / 96 kHz / 4608 kbps / 24-bit
Subtitle: English / 0,003 kbps
Subtitle: Dutch / 0,003 kbps
Subtitle: French / 0,003 kbps
Subtitle: German / 0,003 kbps
Subtitle: Italian / 0,003 kbps
Subtitle: Spanish / 0,003 kbps
********************
PLAYLIST: 00005.MPLS
********************

Код:

                                                                                Total   Video
Title                                                           Codec   Length  Movie Size      Disc Size       Bitrate Bitrate Main Audio Track                          Secondary Audio Track
-----                                                           ------  ------- --------------  --------------  ------- ------- ------------------                        ---------------------
00005.MPLS                                                      AVC     0:21:26 3 579 813 888   23 198 765 174  22,27   18,97   LPCM 2.0 1536Kbps (48kHz/16-bit)

Код:
DISC INFO:
Disc Title:
Disc Size:      23 198 765 174 bytes
Protection:     AACS
BD-Java:        No
BDInfo:         0.5.3
PLAYLIST REPORT:
Name:                   00005.MPLS
Length:                 0:21:26 (h:m:s)
Size:                   3 579 813 888 bytes
Total Bitrate:          22,27 Mbps
VIDEO:
Codec                   Bitrate             Description
-----                   -------             -----------
MPEG-4 AVC Video        18970 kbps          1080i / 29,970 fps / 16:9 / High Profile 4.1
AUDIO:
Codec                           Language        Bitrate         Description
-----                           --------        -------         -----------
LPCM Audio                      English         1536 kbps       2.0 / 48 kHz / 1536 kbps / 16-bit
Dolby Digital Audio             English         192 kbps        2.0 / 48 kHz / 192 kbps / DN -4dB
SUBTITLES:
Codec                           Language        Bitrate         Description
-----                           --------        -------         -----------
Presentation Graphics           English         47,664 kbps
Presentation Graphics           Dutch           43,156 kbps
Presentation Graphics           French          46,877 kbps
Presentation Graphics           German          51,975 kbps
Presentation Graphics           Italian         47,920 kbps
Presentation Graphics           Spanish         49,335 kbps
FILES:
Name            Time In         Length          Size            Total Bitrate
----            -------         ------          ----            -------------
00009.M2TS      0:00:00.000     0:21:25.317     3 579 205 632   22 277
00012.M2TS      0:21:25.317     0:00:00.800     608 256         6 076
CHAPTERS:
Number          Time In         Length          Avg Video Rate  Max 1-Sec Rate  Max 1-Sec Time  Max 5-Sec Rate  Max 5-Sec Time  Max 10Sec Rate  Max 10Sec Time  Avg Frame Size  Max Frame Size  Max Frame Time
------          -------         ------          --------------  --------------  --------------  --------------  --------------  --------------  --------------  --------------  --------------  --------------
1               0:00:00.000     0:21:26.118     18 970 kbps     38 189 kbps     00:21:02.794    35 125 kbps     00:19:02.608    31 010 kbps     00:20:57.789    79 121 bytes    355 606 bytes   00:10:35.868
STREAM DIAGNOSTICS:
File            PID             Type            Codec           Language                Seconds                 Bitrate                 Bytes           Packets
----            ---             ----            -----           --------                --------------          --------------          -------------   -----
00009.M2TS      4113 (0x1011)   0x1B            AVC                                     1285,217                18 981                  3 049 354 332   16 595 038
00009.M2TS      4352 (0x1100)   0x80            LPCM            eng (English)           1285,217                1 543                   247 809 696     1 542 384
00009.M2TS      4353 (0x1101)   0x81            AC3             eng (English)           1285,217                192                     30 848 256      200 835
00009.M2TS      4608 (0x1200)   0x90            PGS             eng (English)           1285,217                48                      7 661 031       43 218
00009.M2TS      4609 (0x1201)   0x90            PGS             nld (Dutch)             1285,217                43                      6 936 285       39 314
00009.M2TS      4610 (0x1202)   0x90            PGS             fra (French)            1285,217                47                      7 534 437       42 586
00009.M2TS      4611 (0x1203)   0x90            PGS             deu (German)            1285,217                52                      8 354 120       47 026
00009.M2TS      4612 (0x1204)   0x90            PGS             ita (Italian)           1285,217                48                      7 702 209       43 481
00009.M2TS      4613 (0x1205)   0x90            PGS             spa (Spanish)           1285,217                49                      7 929 693       44 730
00012.M2TS      4113 (0x1011)   0x1B            AVC                                     0,701                   4 054                   355 037         1 941
00012.M2TS      4352 (0x1100)   0x80            LPCM            eng (English)           0,701                   1 761                   154 240         960
00012.M2TS      4353 (0x1101)   0x81            AC3             eng (English)           0,701                   219                     19 200          125
00012.M2TS      4608 (0x1200)   0x90            PGS             eng (English)           0,701                   19                      1 682           16
00012.M2TS      4609 (0x1201)   0x90            PGS             nld (Dutch)             0,701                   19                      1 682           16
00012.M2TS      4610 (0x1202)   0x90            PGS             fra (French)            0,701                   19                      1 682           16
00012.M2TS      4611 (0x1203)   0x90            PGS             deu (German)            0,701                   19                      1 682           16
00012.M2TS      4612 (0x1204)   0x90            PGS             ita (Italian)           0,701                   19                      1 682           16
00012.M2TS      4613 (0x1205)   0x90            PGS             spa (Spanish)           0,701                   19                      1 682           16

QUICK SUMMARY:
Disc Title:
Disc Size: 23 198 765 174 bytes
Protection: AACS
BD-Java: No
Playlist: 00005.MPLS
Size: 3 579 813 888 bytes
Length: 0:21:26
Total Bitrate: 22,27 Mbps
Video: MPEG-4 AVC Video / 18970 kbps / 1080i / 29,970 fps / 16:9 / High Profile 4.1
Audio: English / LPCM Audio / 2.0 / 48 kHz / 1536 kbps / 16-bit
Audio: English / Dolby Digital Audio / 2.0 / 48 kHz / 192 kbps / DN -4dB
Subtitle: English / 47,664 kbps
Subtitle: Dutch / 43,156 kbps
Subtitle: French / 46,877 kbps
Subtitle: German / 51,975 kbps
Subtitle: Italian / 47,920 kbps
Subtitle: Spanish / 49,335 kbps
********************
PLAYLIST: 00000.MPLS
********************

Код:

                                                                                Total   Video
Title                                                           Codec   Length  Movie Size      Disc Size       Bitrate Bitrate Main Audio Track                          Secondary Audio Track
-----                                                           ------  ------- --------------  --------------  ------- ------- ------------------                        ---------------------
00000.MPLS                                                      AVC     0:00:26 39 413 760      23 198 765 174  11,84   10,67   DD AC3 5.1 640Kbps

Код:
DISC INFO:
Disc Title:
Disc Size:      23 198 765 174 bytes
Protection:     AACS
BD-Java:        No
BDInfo:         0.5.3
PLAYLIST REPORT:
Name:                   00000.MPLS
Length:                 0:00:26 (h:m:s)
Size:                   39 413 760 bytes
Total Bitrate:          11,84 Mbps
VIDEO:
Codec                   Bitrate             Description
-----                   -------             -----------
MPEG-4 AVC Video        10668 kbps          1080i / 29,970 fps / 16:9 / High Profile 4.1
AUDIO:
Codec                           Language        Bitrate         Description
-----                           --------        -------         -----------
Dolby Digital Audio             English         640 kbps        5.1 / 48 kHz / 640 kbps / DN -2dB
FILES:
Name            Time In         Length          Size            Total Bitrate
----            -------         ------          ----            -------------
00000.M2TS      0:00:00.000     0:00:15.382     21 227 520      11 040
00010.M2TS      0:00:15.382     0:00:06.706     15 120 384      18 036
00011.M2TS      0:00:22.088     0:00:04.537     3 065 856       5 405
CHAPTERS:
Number          Time In         Length          Avg Video Rate  Max 1-Sec Rate  Max 1-Sec Time  Max 5-Sec Rate  Max 5-Sec Time  Max 10Sec Rate  Max 10Sec Time  Avg Frame Size  Max Frame Size  Max Frame Time
------          -------         ------          --------------  --------------  --------------  --------------  --------------  --------------  --------------  --------------  --------------  --------------
1               0:00:00.000     0:00:26.626     10 668 kbps     37 766 kbps     00:00:02.669    22 081 kbps     00:00:15.982    13 531 kbps     00:00:01.401    44 494 bytes    202 376 bytes   00:00:20.120
STREAM DIAGNOSTICS:
File            PID             Type            Codec           Language                Seconds                 Bitrate                 Bytes           Packets
----            ---             ----            -----           --------                --------------          --------------          -------------   -----
00000.M2TS      4113 (0x1011)   0x1B            AVC                                     15,315                  9 806                   18 773 617      102 298
00000.M2TS      4352 (0x1100)   0x81            AC3             eng (English)           15,315                  685                     1 310 720       7 680
00010.M2TS      4113 (0x1011)   0x1B            AVC                                     6,640                   16 674                  13 839 281      75 349
00010.M2TS      4352 (0x1100)   0x81            AC3             eng (English)           6,640                   648                     537 600         3 150
00011.M2TS      4113 (0x1011)   0x1B            AVC                                     4,404                   5 256                   2 893 613       15 804

QUICK SUMMARY:
Disc Title:
Disc Size: 23 198 765 174 bytes
Protection: AACS
BD-Java: No
Playlist: 00000.MPLS
Size: 39 413 760 bytes
Length: 0:00:26
Total Bitrate: 11,84 Mbps
Video: MPEG-4 AVC Video / 10668 kbps / 1080i / 29,970 fps / 16:9 / High Profile 4.1
Audio: English / Dolby Digital Audio / 5.1 / 48 kHz / 640 kbps / DN -2dB

Скриншоты





                                                                                       
                       
                       
                       
                       
                       
                                磁力下载:(论坛代下载服务)
                                                               
                                       
游客,本主题需向作者支付 7音乐币 才能浏览,金币充值, 免回复、免金币,直接查看内容请开通VIP支付

                                               
  • 21.61 GB
  • 温馨提示

    记得善用社区搜索功能,那里可能会有你想要的资源;论坛站内搜索

    如果你有什么需要的资源可以去资源求档发帖,求助社区的网友,我们会在第一时间给你回复哦;资源求档

    对于本社区网盘链接失效密码错误各种报错请在反馈板块反馈报错发帖,您的支持,是我们发展的最大动力;投诉建议

    回复

    使用道具 举报

    您需要登录后才可以回帖 登录 | 立即注册 微信登录

    本版积分规则

    发布主题
    阅读排行更多+
    关闭

    站长推荐上一条 /1 下一条

    收藏帖子 返回列表 这是一个自定义按钮
    音乐分享,音乐下载。
    微信公众号
    微信号:hires_
    意见反馈:admin@maomicd.com

    加入我们的官方QQ群和微信群

    Powered by Discuz! X3.4 Archiver|手机版|小黑屋|捌零音乐论坛 ( 苏ICP备20015413号 )|( 苏公网安备 32030502000272号) 繁體

    GMT+8, 2021-5-9 01:27