自购原抓音乐圈:只有自购、合购、原抓级高解析(hires、sacd、dsd)正版音乐资源分享!【点我打开
极速无线网卡:千兆无线网卡、服务器网卡、USB接口台式机笔记本网卡 硬盘代考无损音乐!【点我打开
广告

[摇滚] Big Big Train - Reflectors of Light [2019, Symphonic Progressive Rock, BDRip, 720p]

[复制链接]
韬199435 发表于 2021-4-13 15:34:02 | 显示全部楼层 |阅读模式 打印 上一主题 下一主题
Big Big Train - Reflectors of Light
Жанр: Symphonic Progressive Rock
Продолжительность: 02:20:26
Год выпуска: 2019
Описание:
  • Folklore Overture
  • Folklore
  • Brave Captain
  • Last Train
  • London Plane
  • Meadowland
  • A Mead Hall in Winter
  • Experimental Gentlemen Part Two
  • Swan Hunter
  • Judas Unrepentant
  • The Transit of Venus Across the Sun
  • East Coast Racer
  • Telling the Bees
  • Victorian Brickwork
  • Drums and Brass
  • Wassail
    [/ol]
    Источник Big Big Train - Reflectors of Light [2019, Symphonic Progressive Rock, Blu-ray, 1080p]
    Качество: BDRip
    Разрешение видео/развертка: 720p
    Контейнер: MKV
    Видео кодек: H.264
    Аудио кодек: DTS, FLAC
    Видео: AVC, 1280x720 (16:9), 23.976 fps, 4 750 kb/s
    Аудио#1: DTS, 48.0 kHz, 6 ch, 1 509 kb/s
    Аудио#2: FLAC, 48.0 kHz, 2 ch, 1 652 kb/s
    MediaInfo / x264Log

    x264Log

    [Information] [16.12.2019 1:18:25] Standard error stream
    -[Information] [16.12.2019 1:19:21] y4m [info]: 1280x720p 1:1 @ 24000/1001 fps (cfr)
    -[Information] [16.12.2019 1:19:21] x264 [info]: using SAR=1/1
    -[Information] [16.12.2019 1:19:21] x264 [info]: using cpu capabilities: MMX2 SSE2Fast SSSE3 SSE4.2 AVX
    -[Information] [16.12.2019 1:19:21] x264 [info]: profile High, level 4.1, 4:2:0, 8-bit
    -[Information] [16.12.2019 14:18:58] x264 [info]: frame I:1477  Avg QP:14.98  size:171144
    -[Information] [16.12.2019 14:18:58] x264 [info]: frame P:51253 Avg QP:18.25  size: 51703
    -[Information] [16.12.2019 14:18:58] x264 [info]: frame B:149283 Avg QP:22.31  size: 14055
    -[Information] [16.12.2019 14:18:58] x264 [info]: consecutive B-frames:  2.2%  3.9%  7.7% 56.0% 13.8% 13.2%  1.5%  0.9%  0.7%
    -[Information] [16.12.2019 14:18:58] x264 [info]: mb I  I16..4:  7.7% 59.4% 32.9%
    -[Information] [16.12.2019 14:18:58] x264 [info]: mb P  I16..4:  0.8%  4.5%  0.9%  P16..4: 31.8% 35.4% 13.0%  2.8%  0.5%    skip:10.3%
    -[Information] [16.12.2019 14:18:58] x264 [info]: mb B  I16..4:  0.1%  0.9%  0.1%  B16..8: 35.8% 15.0%  2.5%  direct: 5.9%  skip:39.7%  L0:41.1% L1:45.5% BI:13.4%
    -[Information] [16.12.2019 14:18:58] x264 [info]: 8x8 transform intra:71.9% inter:48.0%
    -[Information] [16.12.2019 14:18:58] x264 [info]: direct mvs  spatial:98.1% temporal:1.9%
    -[Information] [16.12.2019 14:18:58] x264 [info]: coded y,uvDC,uvAC intra: 77.6% 74.3% 49.0% inter: 21.2% 22.0% 6.5%
    -[Information] [16.12.2019 14:18:58] x264 [info]: i16 v,h,dc,p: 38% 24%  7% 32%
    -[Information] [16.12.2019 14:18:58] x264 [info]: i8 v,h,dc,ddl,ddr,vr,hd,vl,hu:  7%  7% 14% 10% 13% 12% 13% 11% 13%
    -[Information] [16.12.2019 14:18:58] x264 [info]: i4 v,h,dc,ddl,ddr,vr,hd,vl,hu:  9% 12% 10%  9% 13% 11% 12% 10% 14%
    -[Information] [16.12.2019 14:18:58] x264 [info]: i8c dc,h,v,p: 35% 32% 18% 15%
    -[Information] [16.12.2019 14:18:58] x264 [info]: Weighted P-Frames: Y:16.1% UV:11.6%
    -[Information] [16.12.2019 14:18:58] x264 [info]: ref P L0: 51.3%  8.5% 15.5%  6.4%  5.2%  4.1%  3.8%  2.3%  2.5%  0.5%  0.0%
    -[Information] [16.12.2019 14:18:58] x264 [info]: ref B L0: 82.8%  8.2%  3.5%  1.8%  1.4%  1.1%  0.8%  0.4%
    -[Information] [16.12.2019 14:18:58] x264 [info]: ref B L1: 96.7%  3.3%
    -[Information] [16.12.2019 14:18:58] x264 [info]: kb/s:4748.18
    -[Information] [16.12.2019 14:18:58] encoded 202013 frames, 4.32 fps, 4748.18 kb/s

    General
    Unique ID                   : 315603859424210227555918134188502608386 (0xED6F17A3C939DA2A0D90062F7182EA02)
    Complete name               : T:\BDRip\Big Big Train - Reflectors of Light.BDRip720p.mkv
    Format                      : Matroska
    Format version              : Version 2
    File size                   : 7.76 GiB
    Duration                    : 2 h 20 min
    Overall bit rate mode       : Variable
    Overall bit rate            : 7 912 kb/s
    Movie name                  : Big Big Train - Reflectors of Light.BDRip720p @ rutracker.org
    Encoded date                : UTC 2019-12-16 20:37:56
    Writing application         : mkvmerge v41.0.0 ('Smarra') 64-bit
    Writing library             : libebml v1.3.9 + libmatroska v1.5.2
    Video
    ID                          : 1
    Format                      : AVC
    Format/Info                 : Advanced Video Codec
    Format profile              : High@L4.1
    Format settings             : CABAC / 9 Ref Frames
    Format settings, CABAC      : Yes
    Format settings, Reference  : 9 frames
    Codec ID                    : V_MPEG4/ISO/AVC
    Duration                    : 2 h 20 min
    Bit rate                    : 4 750 kb/s
    Width                       : 1 280 pixels
    Height                      : 720 pixels
    Display aspect ratio        : 16:9
    Frame rate mode             : Constant
    Frame rate                  : 23.976 (24000/1001) FPS
    Color space                 : YUV
    Chroma subsampling          : 4:2:0
    Bit depth                   : 8 bits
    Scan type                   : Progressive
    Bits/(Pixel*Frame)          : 0.215
    Stream size                 : 4.66 GiB (60%)
    Title                       : anbelk27 @ rutracker.org
    Writing library             : x264 core 157 r2935 545de2f
    Encoding settings           : cabac=1 / ref=9 / deblock=1:-3:-3 / analyse=0x3:0x133 / me=umh / subme=11 / psy=1 / psy_rd=1.15:0.05 / mixed_ref=1 / me_range=40 / chroma_me=1 / trellis=2 / 8x8dct=1 / cqm=0 / deadzone=21,11 / fast_pskip=1 / chroma_qp_offset=-3 / threads=6 / lookahead_threads=1 / sliced_threads=0 / nr=0 / decimate=1 / interlaced=0 / bluray_compat=0 / constrained_intra=0 / bframes=8 / b_pyramid=2 / b_adapt=2 / b_bias=0 / direct=3 / weightb=1 / open_gop=0 / weightp=2 / keyint=240 / keyint_min=23 / scenecut=50 / intra_refresh=0 / rc_lookahead=100 / rc=2pass / mbtree=1 / bitrate=4750 / ratetol=1.0 / qcomp=0.60 / qpmin=0 / qpmax=69 / qpstep=4 / cplxblur=20.0 / qblur=0.5 / vbv_maxrate=50000 / vbv_bufsize=62500 / nal_hrd=none / filler=0 / ip_ratio=1.40 / aq=1:1.00
    Default                     : Yes
    Forced                      : No
    Audio #1
    ID                          : 2
    Format                      : DTS
    Format/Info                 : Digital Theater Systems
    Codec ID                    : A_DTS
    Duration                    : 2 h 20 min
    Bit rate mode               : Constant
    Bit rate                    : 1 509 kb/s
    Channel(s)                  : 6 channels
    Channel layout              : C L R Ls Rs LFE
    Sampling rate               : 48.0 kHz
    Frame rate                  : 93.750 FPS (512 SPF)
    Bit depth                   : 24 bits
    Compression mode            : Lossy
    Stream size                 : 1.48 GiB (19%)
    Title                       : DTS 5.1 @ 24 bit
    Default                     : Yes
    Forced                      : No
    Audio #2
    ID                          : 3
    Format                      : FLAC
    Format/Info                 : Free Lossless Audio Codec
    Codec ID                    : A_FLAC
    Duration                    : 2 h 20 min
    Bit rate mode               : Variable
    Bit rate                    : 1 652 kb/s
    Channel(s)                  : 2 channels
    Channel layout              : L R
    Sampling rate               : 48.0 kHz
    Frame rate                  : 11.719 FPS (4096 SPF)
    Bit depth                   : 24 bits
    Compression mode            : Lossless
    Stream size                 : 1.62 GiB (21%)
    Title                       : FLAC 2.0 @ 24 bit
    Writing library             : libFLAC 1.2.1 (UTC 2007-09-17)
    Default                     : No
    Forced                      : No
    Menu
    00:00:00.000                : en: 01. Folklore Overture
    00:02:26.688                : en: 02. Folklore
    00:10:47.522                : en: 03. Brave Captain
    00:22:49.326                : en: 04. Last Train
    00:29:33.188                : en: 05. London Plane
    00:40:22.003                : en: 06. Meadowland
    00:45:15.713                : en: 07. A Mead Hall in Winter
    01:00:46.560                : en: 08. Experimental Gentlemen Part Two
    01:06:41.331                : en: 09. Swan Hunter
    01:14:42.019                : en: 10. Judas Unrepentant
    01:22:12.219                : en: 11. The Transit of Venus Across the Sun
    01:30:59.329                : en: 12. East Coast Racer
    01:47:04.126                : en: 13. Telling the Bees
    01:52:43.465                : en: 14. Victorian Brickwork
    02:06:25.578                : en: 15. Drums and Brass
    02:11:04.857                : en: 16. Wassail
    02:19:12.010                : en: Credits

    Скриншоты











                                                                                           
                           
                           
                           
                           
                           
                                    磁力下载:
                                                                   
                                           
    游客,本主题需向作者支付 7音乐币 才能浏览,金币充值, 免回复、免金币,直接查看内容请开通VIP支付

                                                   
  • 7.76 GB
  • 温馨提示

    记得善用社区搜索功能,那里可能会有你想要的资源;论坛站内搜索

    如果你有什么需要的资源可以去资源求档发帖,求助社区的网友,我们会在第一时间给你回复哦;资源求档

    对于本社区网盘链接失效密码错误各种报错请在反馈板块反馈报错发帖,您的支持,是我们发展的最大动力;投诉建议

    回复

    使用道具 举报

    您需要登录后才可以回帖 登录 | 立即注册 微信登录

    本版积分规则

    关注0

    粉丝0

    帖子30176

    发布主题
    阅读排行更多+
    关闭

    站长推荐上一条 /1 下一条

    收藏帖子 返回列表 这是一个自定义按钮
    音乐分享,音乐下载。
    微信公众号
    微信号:hires_
    意见反馈:admin@maomicd.com

    加入我们的官方QQ群和微信群

    Powered by Discuz! X3.4 Archiver|手机版|小黑屋|捌零音乐论坛 ( 苏ICP备20015413号 )|( 苏公网安备 32030502000272号) 繁體

    GMT+8, 2021-5-6 09:46