自购原抓音乐圈:只有自购、合购、原抓级高解析(hires、sacd、dsd)正版音乐资源分享!【点我打开
极速无线网卡:千兆无线网卡、服务器网卡、USB接口台式机笔记本网卡 硬盘代考无损音乐!【点我打开
广告

[摇滚] Big Big Train - Reflectors of Light [2019, Symphonic Progressive Rock, Blu-ray, 1080p]

[复制链接]
全球搬运 发表于 2021-4-13 15:34:02 | 显示全部楼层 |阅读模式 打印 上一主题 下一主题
Big Big Train - Reflectors of Light
Жанр: Symphonic Progressive Rock
Продолжительность: 02:36:55
Год выпуска: 2019
Описание:
  • Folklore Overture (Manners / Longdon)
  • Folklore (Longdon)
  • Brave Captain (Longdon)
  • Last Train (Spawton)
  • London Plane (Spawton)
  • Meadowland (Sjoblom / Longdon / Spawton)
  • A Mead Hall in Winter (Sjoblom / Longdon / Spawton)
  • Experimental Gentlemen Part Two (Spawton)
  • Swan Hunter (Longdon / Spawton)
  • Judas Unrepentant (Longdon)
  • The Transit of Venus Across the Sun (Spawton)
  • East Coast Racer (Spawton / Manners)
  • Telling the Bees (Longdon)
  • Victorian Brickwork (Spawton)
  • Drums and Brass (D'Virgilio)
  • Wassail (Longdon)
    Bonus
  • The Transit of Venus Across the Sun - with reprise (Spawton)
  • Summer's Lease (Spawton)
    [/ol]
    Line-up:
    Nick D'Virgilio: drums, percussion, vocals
    Dave Gregory: guitars
    Rachel Hall: violin, vocals
    David Longdon: vocals, flute, percussion
    Danny Manners: keyboards
    Ricard Sjoblom: guitars, keyboards, vocals
    Greg Spawton: bass guitar, bass pedals
    Andy Poole: keyboards, guitars, mandolin
    and the Big Big Train Brass Band
    Dave Desmond: trombone
    Ben Godfrey: trumpet
    Nick Stones: French horn
    John Storey: euphonium
    Jon Truscott: tuba
    Доп. информация: шикарный диск, шикарная музыка, шикарное видео, шикарный звук. По качеству блюров Big Big Train догоняют Марильён, а по качеству музыки они их перегнали много лет назад...
    Концерт записан два года назад в Cadogan Hall в Лондоне в течение двух сентябрьских дней. Два бонусных трека записаны вживую в студии Real World Studios в апреле того же года. Диск издан в виде книжки, как и предыдущий.
    Добротно и красиво. Коллекционеры и фанаты - маст хэв! Коврики - где и всегда.
    Качество: Blu-ray
    Разрешение видео/развертка: 1080p
    Контейнер: BDMV
    Видео кодек: H.264
    Аудио кодек: DTS
    Видео: MPEG-4 AVC Video / 14943 kbps / 1080p / 23.976 fps / 16:9 / High Profile 4.1
    Аудио: LPCM Audio / 2.0 / 48 kHz / 2304 kbps / 24-bit
    Аудио 2: DTS-HD Master Audio / 5.1 / 48 kHz / 5195 kbps / 24-bit (DTS Core: 5.1 / 48 kHz / 1509 kbps / 24-bit)
    Аудио 3: LPCM Audio / 5.1 / 48 kHz / 6912 kbps / 24-bit
    Отчёт MediaInfo / BDInfo

    Disc Title:     EERBR002
    Disc Size:      35,123,188,796 bytes
    Protection:     AACS
    Extras:         BD-Java
    BDInfo:         0.7.4.0
    Notes:
    BDINFO HOME:
      Cinema Squid (old)
        http://www.cinemasquid.com/blu-ray/tools/bdinfo
      UniqProject GitHub (new)
       https://github.com/UniqProject/BDInfo
    INCLUDES FORUMS REPORT FOR:
      AVS Forum Blu-ray Audio and Video Specifications Thread
        http://www.avsforum.com/avs-vb/showthread.php?t=1155731
    ********************
    PLAYLIST: 00002.MPLS
    ********************

    Код:

                                                                                    Total   Video
    Title                                                           Codec   Length  Movie Size      Disc Size       Bitrate Bitrate Main Audio Track                          Secondary Audio Track
    -----                                                           ------  ------- --------------  --------------  ------- ------- ------------------                        ---------------------
    00002.MPLS                                                      AVC     2:20:25 32,807,101,824  35,123,188,796  31.15   14.94   LPCM 2.0 2304Kbps (48kHz/24-bit)          DTS-HD Master 5.1 5195Kbps (48kHz/24-bit)

    Код:
    DISC INFO:
    Disc Title:     EERBR002
    Disc Size:      35,123,188,796 bytes
    Protection:     AACS
    Extras:         BD-Java
    BDInfo:         0.7.4.0
    PLAYLIST REPORT:
    Name:                   00002.MPLS
    Length:                 2:20:25.625 (h:m:s.ms)
    Size:                   32,807,101,824 bytes
    Total Bitrate:          31.15 Mbps
    VIDEO:
    Codec                   Bitrate             Description
    -----                   -------             -----------
    MPEG-4 AVC Video        14943 kbps          1080p / 23.976 fps / 16:9 / High Profile 4.1
    AUDIO:
    Codec                           Language        Bitrate         Description
    -----                           --------        -------         -----------
    LPCM Audio                      English         2304 kbps       2.0 / 48 kHz /  2304 kbps / 24-bit
    DTS-HD Master Audio             English         5195 kbps       5.1 / 48 kHz /  5195 kbps / 24-bit (DTS Core: 5.1 / 48 kHz /  1509 kbps / 24-bit)
    LPCM Audio                      English         6912 kbps       5.1 / 48 kHz /  6912 kbps / 24-bit
    FILES:
    Name            Time In         Length          Size            Total Bitrate
    ----            -------         ------          ----            -------------
    00002.M2TS      0:00:00.000     2:20:25.625     32,807,101,824  31,150
    CHAPTERS:
    Number          Time In         Length          Avg Video Rate  Max 1-Sec Rate  Max 1-Sec Time  Max 5-Sec Rate  Max 5-Sec Time  Max 10Sec Rate  Max 10Sec Time  Avg Frame Size  Max Frame Size  Max Frame Time
    ------          -------         ------          --------------  --------------  --------------  --------------  --------------  --------------  --------------  --------------  --------------  --------------
    1               0:00:00.000     0:02:26.688     7,214 kbps      17,137 kbps     00:01:52.695    15,290 kbps     00:01:52.695    14,373 kbps     00:00:47.255    37,601 bytes    283,439 bytes   00:02:01.120
    2               0:02:26.688     0:08:20.833     14,449 kbps     32,213 kbps     00:04:31.312    24,530 kbps     00:05:16.065    21,854 kbps     00:04:28.643    75,328 bytes    632,885 bytes   00:05:29.287
    3               0:10:47.521     0:12:01.804     14,883 kbps     33,357 kbps     00:21:07.349    24,588 kbps     00:18:20.849    22,366 kbps     00:21:13.355    77,593 bytes    576,354 bytes   00:16:22.690
    4               0:22:49.326     0:06:43.861     15,852 kbps     31,828 kbps     00:28:19.489    24,028 kbps     00:26:06.314    21,696 kbps     00:25:10.342    82,647 bytes    510,610 bytes   00:25:45.210
    5               0:29:33.188     0:10:48.814     16,216 kbps     31,494 kbps     00:32:37.580    23,930 kbps     00:38:10.454    21,798 kbps     00:32:07.050    84,541 bytes    600,106 bytes   00:40:06.153
    6               0:40:22.002     0:04:53.710     15,533 kbps     29,821 kbps     00:44:22.660    24,017 kbps     00:43:59.928    21,971 kbps     00:41:43.209    80,982 bytes    589,040 bytes   00:43:36.113
    7               0:45:15.713     0:15:30.846     14,790 kbps     29,927 kbps     00:56:54.369    23,754 kbps     00:58:46.856    21,803 kbps     00:53:42.719    77,111 bytes    546,068 bytes   00:52:00.283
    8               1:00:46.559     0:05:54.771     16,304 kbps     35,655 kbps     01:01:38.027    24,702 kbps     01:02:20.403    22,328 kbps     01:05:54.742    85,003 bytes    687,135 bytes   01:02:03.553
    9               1:06:41.330     0:08:00.688     13,768 kbps     29,391 kbps     01:13:59.601    24,445 kbps     01:11:55.644    21,890 kbps     01:11:42.131    71,783 bytes    553,509 bytes   01:11:20.442
    10              1:14:42.019     0:07:30.199     15,230 kbps     30,884 kbps     01:15:21.767    23,928 kbps     01:17:38.487    22,371 kbps     01:20:36.081    79,404 bytes    492,908 bytes   01:20:33.787
    11              1:22:12.218     0:08:47.109     13,041 kbps     31,219 kbps     01:28:53.077    23,079 kbps     01:29:25.360    21,528 kbps     01:29:00.877    67,989 bytes    521,846 bytes   01:28:42.567
    12              1:30:59.328     0:16:04.797     14,763 kbps     33,067 kbps     01:33:30.146    24,410 kbps     01:38:05.379    22,221 kbps     01:39:07.358    76,968 bytes    574,149 bytes   01:35:16.293
    13              1:47:04.126     0:05:39.338     16,636 kbps     36,550 kbps     01:51:15.835    24,986 kbps     01:51:01.905    22,063 kbps     01:48:05.145    86,730 bytes    574,175 bytes   01:48:27.042
    14              1:52:43.465     0:13:42.112     16,869 kbps     36,008 kbps     01:58:33.773    24,249 kbps     01:58:33.731    22,214 kbps     01:57:48.603    87,949 bytes    593,742 bytes   02:04:56.864
    15              2:06:25.578     0:04:39.278     12,353 kbps     32,908 kbps     02:10:55.931    23,182 kbps     02:09:35.809    21,678 kbps     02:07:58.921    64,401 bytes    579,729 bytes   02:10:03.086
    16              2:11:04.857     0:08:07.153     16,784 kbps     38,611 kbps     02:18:11.366    24,429 kbps     02:13:28.208    22,106 kbps     02:14:33.106    87,503 bytes    692,645 bytes   02:15:40.382
    17              2:19:12.010     0:01:13.615     1,340 kbps      8,384 kbps      02:19:14.554    7,870 kbps      02:19:12.927    7,070 kbps      02:19:12.135    6,999 bytes     265,024 bytes   02:19:12.969
    STREAM DIAGNOSTICS:
    File            PID             Type            Codec           Language                Seconds                 Bitrate                 Bytes           Packets
    ----            ---             ----            -----           --------                --------------          --------------          -------------   -----
    00002.M2TS      4113 (0x1011)   0x1B            AVC                                     8425.542                14,943                  15,738,137,006  85,653,217
    00002.M2TS      4352 (0x1100)   0x80            LPCM            eng (English)           8425.542                2,310                   2,433,320,500   13,481,000
    00002.M2TS      4353 (0x1101)   0x86            DTS-HD MA       eng (English)           8425.542                5,195                   5,471,069,156   31,010,813
    00002.M2TS      4354 (0x1102)   0x80            LPCM            eng (English)           8425.542                6,918                   7,286,480,500   40,443,000


    QUICK SUMMARY:
    Disc Title: EERBR002
    Disc Size: 35,123,188,796 bytes
    Protection: AACS
    Playlist: 00002.MPLS
    Size: 32,807,101,824 bytes
    Length: 2:20:25.625
    Total Bitrate: 31.15 Mbps
    Video: MPEG-4 AVC Video / 14943 kbps / 1080p / 23.976 fps / 16:9 / High Profile 4.1
    Audio: English / LPCM Audio / 2.0 / 48 kHz /  2304 kbps / 24-bit
    Audio: English / DTS-HD Master Audio / 5.1 / 48 kHz /  5195 kbps / 24-bit (DTS Core: 5.1 / 48 kHz /  1509 kbps / 24-bit)
    Audio: English / LPCM Audio / 5.1 / 48 kHz /  6912 kbps / 24-bit
    ********************
    PLAYLIST: 00003.MPLS
    ********************

    Код:

                                                                                    Total   Video
    Title                                                           Codec   Length  Movie Size      Disc Size       Bitrate Bitrate Main Audio Track                          Secondary Audio Track
    -----                                                           ------  ------- --------------  --------------  ------- ------- ------------------                        ---------------------
    00003.MPLS                                                      AVC     0:11:20 1,543,394,688   35,123,188,796  18.15   14.96   LPCM 2.0 2304Kbps (48kHz/24-bit)

    Код:
    DISC INFO:
    Disc Title:     EERBR002
    Disc Size:      35,123,188,796 bytes
    Protection:     AACS
    Extras:         BD-Java
    BDInfo:         0.7.4.0
    PLAYLIST REPORT:
    Name:                   00003.MPLS
    Length:                 0:11:20.471 (h:m:s.ms)
    Size:                   1,543,394,688 bytes
    Total Bitrate:          18.15 Mbps
    VIDEO:
    Codec                   Bitrate             Description
    -----                   -------             -----------
    MPEG-4 AVC Video        14963 kbps          1080p / 23.976 fps / 16:9 / High Profile 4.1
    AUDIO:
    Codec                           Language        Bitrate         Description
    -----                           --------        -------         -----------
    LPCM Audio                      English         2304 kbps       2.0 / 48 kHz /  2304 kbps / 24-bit
    FILES:
    Name            Time In         Length          Size            Total Bitrate
    ----            -------         ------          ----            -------------
    00003.M2TS      0:00:00.000     0:11:20.471     1,543,394,688   18,144
    CHAPTERS:
    Number          Time In         Length          Avg Video Rate  Max 1-Sec Rate  Max 1-Sec Time  Max 5-Sec Rate  Max 5-Sec Time  Max 10Sec Rate  Max 10Sec Time  Avg Frame Size  Max Frame Size  Max Frame Time
    ------          -------         ------          --------------  --------------  --------------  --------------  --------------  --------------  --------------  --------------  --------------  --------------
    1               0:00:00.000     0:11:20.471     14,964 kbps     26,961 kbps     00:00:10.218    22,974 kbps     00:08:52.949    21,287 kbps     00:07:48.551    78,023 bytes    399,947 bytes   00:07:22.316
    STREAM DIAGNOSTICS:
    File            PID             Type            Codec           Language                Seconds                 Bitrate                 Bytes           Packets
    ----            ---             ----            -----           --------                --------------          --------------          -------------   -----
    00003.M2TS      4113 (0x1011)   0x1B            AVC                                     680.346                 14,966                  1,272,796,443   6,926,976
    00003.M2TS      4352 (0x1100)   0x80            LPCM            eng (English)           680.346                 2,311                   196,519,736     1,088,752


    QUICK SUMMARY:
    Disc Title: EERBR002
    Disc Size: 35,123,188,796 bytes
    Protection: AACS
    Playlist: 00003.MPLS
    Size: 1,543,394,688 bytes
    Length: 0:11:20.471
    Total Bitrate: 18.15 Mbps
    Video: MPEG-4 AVC Video / 14963 kbps / 1080p / 23.976 fps / 16:9 / High Profile 4.1
    Audio: English / LPCM Audio / 2.0 / 48 kHz /  2304 kbps / 24-bit
    ********************
    PLAYLIST: 00004.MPLS
    ********************

    Код:

                                                                                    Total   Video
    Title                                                           Codec   Length  Movie Size      Disc Size       Bitrate Bitrate Main Audio Track                          Secondary Audio Track
    -----                                                           ------  ------- --------------  --------------  ------- ------- ------------------                        ---------------------
    00004.MPLS                                                      AVC     0:05:10 705,721,728     35,123,188,796  18.17   14.99   LPCM 2.0 2304Kbps (48kHz/24-bit)

    Код:
    DISC INFO:
    Disc Title:     EERBR002
    Disc Size:      35,123,188,796 bytes
    Protection:     AACS
    Extras:         BD-Java
    BDInfo:         0.7.4.0
    PLAYLIST REPORT:
    Name:                   00004.MPLS
    Length:                 0:05:10.643 (h:m:s.ms)
    Size:                   705,721,728 bytes
    Total Bitrate:          18.17 Mbps
    VIDEO:
    Codec                   Bitrate             Description
    -----                   -------             -----------
    MPEG-4 AVC Video        14990 kbps          1080p / 23.976 fps / 16:9 / High Profile 4.1
    AUDIO:
    Codec                           Language        Bitrate         Description
    -----                           --------        -------         -----------
    LPCM Audio                      English         2304 kbps       2.0 / 48 kHz /  2304 kbps / 24-bit
    FILES:
    Name            Time In         Length          Size            Total Bitrate
    ----            -------         ------          ----            -------------
    00004.M2TS      0:00:00.000     0:05:10.643     705,721,728     18,172
    CHAPTERS:
    Number          Time In         Length          Avg Video Rate  Max 1-Sec Rate  Max 1-Sec Time  Max 5-Sec Rate  Max 5-Sec Time  Max 10Sec Rate  Max 10Sec Time  Avg Frame Size  Max Frame Size  Max Frame Time
    ------          -------         ------          --------------  --------------  --------------  --------------  --------------  --------------  --------------  --------------  --------------  --------------
    1               0:00:00.000     0:05:10.643     14,992 kbps     27,323 kbps     00:00:06.881    22,335 kbps     00:00:06.881    19,991 kbps     00:00:06.881    78,181 bytes    504,478 bytes   00:01:35.053
    STREAM DIAGNOSTICS:
    File            PID             Type            Codec           Language                Seconds                 Bitrate                 Bytes           Packets
    ----            ---             ----            -----           --------                --------------          --------------          -------------   -----
    00004.M2TS      4113 (0x1011)   0x1B            AVC                                     310.560                 14,996                  582,140,054     3,168,186
    00004.M2TS      4352 (0x1100)   0x80            LPCM            eng (English)           310.560                 2,311                   89,714,276      497,032


    QUICK SUMMARY:
    Disc Title: EERBR002
    Disc Size: 35,123,188,796 bytes
    Protection: AACS
    Playlist: 00004.MPLS
    Size: 705,721,728 bytes
    Length: 0:05:10.643
    Total Bitrate: 18.17 Mbps
    Video: MPEG-4 AVC Video / 14990 kbps / 1080p / 23.976 fps / 16:9 / High Profile 4.1
    Audio: English / LPCM Audio / 2.0 / 48 kHz /  2304 kbps / 24-bit


    Скриншоты









                                                                                           
                           
                           
                           
                           
                           
                                    磁力下载:
                                                                   
                                           
    游客,本主题需向作者支付 7音乐币 才能浏览,金币充值, 免回复、免金币,直接查看内容请开通VIP支付

                                                   
  • 32.71 GB
  • 温馨提示

    记得善用社区搜索功能,那里可能会有你想要的资源;论坛站内搜索

    如果你有什么需要的资源可以去资源求档发帖,求助社区的网友,我们会在第一时间给你回复哦;资源求档

    对于本社区网盘链接失效密码错误各种报错请在反馈板块反馈报错发帖,您的支持,是我们发展的最大动力;投诉建议

    回复

    使用道具 举报

    您需要登录后才可以回帖 登录 | 立即注册 微信登录

    本版积分规则

    关注0

    粉丝12

    帖子69803

    发布主题
    阅读排行更多+
    关闭

    站长推荐上一条 /1 下一条

    收藏帖子 返回列表 这是一个自定义按钮
    音乐分享,音乐下载。
    微信公众号
    微信号:hires_
    意见反馈:admin@maomicd.com

    加入我们的官方QQ群和微信群

    Powered by Discuz! X3.4 Archiver|手机版|小黑屋|捌零音乐论坛 ( 苏ICP备20015413号 )|( 苏公网安备 32030502000272号) 繁體

    GMT+8, 2021-5-7 00:57