自购原抓音乐圈:只有自购、合购、原抓级高解析(hires、sacd、dsd)正版音乐资源分享!【点我打开
极速无线网卡:千兆无线网卡、服务器网卡、USB接口台式机笔记本网卡 硬盘代考无损音乐!【点我打开
广告

[摇滚] Elton John • The Million Dollar Piano (2013) [2014, Pop Rock, BDRip 1080p]

[复制链接]
fqw1001 发表于 2021-4-13 15:34:02 | 显示全部楼层 |阅读模式 打印 上一主题 下一主题
Elton John
The Million Dollar Piano
Жанр: Pop Rock
Продолжительность: 01:50:53
Год выпуска: 201401. The Bitch Is Back
02. Bennie And The Jets
03. Rocket Man
04. Levon
05. Tiny Dancer
06. Your Song
07. Mona Lisas And Mad Hatters
08. Better Off Dead
09. Indian Sunset
10. Blue Eyes
11. Goodbye Yellow Brick Road
12. I Guess That's Why They Call It The Blues
13. Don't Let The Sun Go Down On Me
14. Philadelphia Freedom
15. I'm Still Standing
16. Crocodile Rock
17. Saturday Night's Alright For Fighting
18. Circle Of Life
19 Song For GuyКачество: BDRip 1080p
Контейнер: MKV
Видео кодек: H.264
Аудио кодек: DTS
Видео: MPEG4 Video (H264) 1920x1080 29.97fps 8340Kbps
Аудио: DTS 48000Hz 6ch 1536kbps
Отчёт MediaInfo / BDInfo

General
Unique ID                      : 180385157457712167502713506461928697788 (0x87B4EAE99BC0B2F49B280E4C70ACAFBC)
Complete name                  : L:\Elton John - The Million Dollar Piano (2014).mkv
Format                         : Matroska
Format version                 : Version 4 / Version 2
File size                      : 7.65 GiB
Duration                       : 1h 51mn
Overall bit rate               : 9 850 Kbps
Encoded date                   : UTC 2014-06-27 16:32:06
Writing application            : mkvmerge v7.0.0 ('Where We Going') 32bit built on Jun  9 2014 15:08:34
Writing library                : libebml v1.3.0 + libmatroska v1.4.1
Video
ID                             : 1
Format                         : AVC
Format/Info                    : Advanced Video Codec
Format profile                 : High@L4.1
Format settings, CABAC         : Yes
Format settings, ReFrames      : 4 frames
Codec ID                       : V_MPEG4/ISO/AVC
Duration                       : 1h 51mn
Bit rate                       : 8 340 Kbps
Width                          : 1 920 pixels
Height                         : 1 080 pixels
Display aspect ratio           : 16:9
Frame rate mode                : Constant
Frame rate                     : 29.970 fps
Color space                    : YUV
Chroma subsampling             : 4:2:0
Bit depth                      : 8 bits
Scan type                      : Progressive
Bits/(Pixel*Frame)             : 0.134
Stream size                    : 6.32 GiB (83%)
Title                          : English
Writing library                : x264 core 142 r2431 ac76440
Encoding settings              : cabac=1 / ref=4 / deblock=1:0:0 / analyse=0x3:0x113 /
me=umh / subme=8 / psy=1 / psy_rd=1.00:0.00 / mixed_ref=1 / me_range=16 /
chroma_me=1 / trellis=1 / 8x8dct=1 / cqm=0 / deadzone=21,11 / fast_pskip=1 /
chroma_qp_offset=-2 / threads=6 / lookahead_threads=1 / sliced_threads=0 /
nr=0 / decimate=1 / interlaced=0 / bluray_compat=0 / constrained_intra=0 /
bframes=3 / b_pyramid=2 / b_adapt=2 / b_bias=0 / direct=3 / weightb=1 /
open_gop=0 / weightp=2 / keyint=240 / keyint_min=24 / scenecut=40 /
intra_refresh=0 / rc_lookahead=50 / rc=2pass / mbtree=1 / bitrate=8340 /
ratetol=1.0 / qcomp=0.60 / qpmin=0 / qpmax=69 / qpstep=4 / cplxblur=20.0 /
qblur=0.5 / ip_ratio=1.40 / aq=1:1.00
Language                       : English
Default                        : Yes
Forced                         : No
Audio
ID                             : 2
Format                         : DTS
Format/Info                    : Digital Theater Systems
Mode                           : 16
Format settings, Endianness    : Big
Codec ID                       : A_DTS
Duration                       : 1h 51mn
Bit rate mode                  : Constant
Bit rate                       : 1 509 Kbps
Channel(s)                     : 6 channels
Channel positions              : Front: L C R, Side: L R, LFE
Sampling rate                  : 48.0 KHz
Bit depth                      : 24 bits
Compression mode               : Lossy
Stream size                    : 1.17 GiB (15%)
Title                          : English
Language                       : English
Default                        : Yes
Forced                         : No
Menu
00:00:00.000                   : en:00:00:00.000
00:06:11.238                   : en:00:06:11.238
00:13:21.067                   : en:00:13:21.067
00:18:52.798                   : en:00:18:52.798
00:29:52.224                   : en:00:29:52.224
00:38:04.349                   : en:00:38:04.349
00:43:21.265                   : en:00:43:21.265
00:48:47.324                   : en:00:48:47.324
00:52:18.302                   : en:00:52:18.302
01:00:59.189                   : en:01:00:59.189
01:04:28.465                   : en:01:04:28.465
01:07:39.455                   : en:01:07:39.455
01:16:23.012                   : en:01:16:23.012
01:22:19.468                   : en:01:22:19.468
01:27:20.435                   : en:01:27:20.435
01:30:37.098                   : en:01:30:37.098
01:35:11.539                   : en:01:35:11.539
01:40:32.326                   : en:01:40:32.326
01:47:45.492                   : en:01:47:45.492


Скриншоты
























Мои раздачи ®
https://rutracker.org/forum/https://rutracker.net/forum/tracker.php?rid=9539252


                                                                                       
                       
                       
                       
                       
                       
                                磁力下载:(论坛代下载服务)
                                                               
                                       
游客,本主题需向作者支付 7音乐币 才能浏览,金币充值, 免回复、免金币,直接查看内容请开通VIP支付

                                               
  • 7.65 GB
  • 温馨提示

    记得善用社区搜索功能,那里可能会有你想要的资源;论坛站内搜索

    如果你有什么需要的资源可以去资源求档发帖,求助社区的网友,我们会在第一时间给你回复哦;资源求档

    对于本社区网盘链接失效密码错误各种报错请在反馈板块反馈报错发帖,您的支持,是我们发展的最大动力;投诉建议

    回复

    使用道具 举报

    您需要登录后才可以回帖 登录 | 立即注册 微信登录

    本版积分规则

    关注0

    粉丝0

    帖子29518

    发布主题
    阅读排行更多+
    关闭

    站长推荐上一条 /1 下一条

    收藏帖子 返回列表 这是一个自定义按钮
    音乐分享,音乐下载。
    微信公众号
    微信号:hires_
    意见反馈:admin@maomicd.com

    加入我们的官方QQ群和微信群

    Powered by Discuz! X3.4 Archiver|手机版|小黑屋|捌零音乐论坛 ( 苏ICP备20015413号 )|( 苏公网安备 32030502000272号) 繁體

    GMT+8, 2021-5-18 19:19