自购原抓音乐圈:只有自购、合购、原抓级高解析(hires、sacd、dsd)正版音乐资源分享!【点我打开
极速无线网卡:千兆无线网卡、服务器网卡、USB接口台式机笔记本网卡 硬盘代考无损音乐!【点我打开
广告

[摇滚] Eagles - Live from the Forum MMXVIII [2020, Rock, BDRip, 720p]

[复制链接]
韬199435 发表于 2021-4-13 15:34:02 | 显示全部楼层 |阅读模式 打印 上一主题 下一主题
Eagles - Live from the Forum MMXVIII
Жанр: Rock
Продолжительность: 02:25:16
Год выпуска: 2020
Треклист:
01. Introduction
02. Seven Bridges Road
03. Joe Walsh: "How Ya Doin?"
04. Take It Easy
05. One Of These Nights
06. Don Henley: "Good Evening, Ladies And Gentlemen"
07. Take It To The Limit
08. Tequila Sunrise
09. In The City
10. Timothy B. Schmit: "Hey, Everybody, That's Joe Walsh"
11. I Can't Tell You Why
12. New Kid In Town
13. Don Henley: "Just Want To Thank All Of You."
14. How Long
15. Deacon Frey: "Hello, Everybody."
16. Peaceful Easy Feeling
17. Ol' 55
18. Lyin' Eyes
19. Love Will Keep Us Alive
20. Vince Gill: "How's Everybody Doing?"
21. Don't Let Our Love Start Slippin' Away
22. Those Shoes
23. Already Gone
24. Walk Away
25. Joe Walsh: "Is Everybody Ok?"
26. Life's Been Good
27. The Boys Of Summer
28. Heartache Tonight
29. Funk #49
30. Life In The Fast Lane
31. Hotel California
32. Rocky Mountain Way
33. Desperado
34. The Long Run
Источник Eagles - Live from the Forum MMXVIII [2020, Rock, Blu-ray, 1080p]
Качество: BDRip
Разрешение видео/развертка: 720p
Контейнер: MKV
Видео кодек: H.264
Аудио кодек: DTS, FLAC
Видео: AVC, 1280x544 (2.35:1), 23.976 fps, 4 000 kb/s
Аудио#1: DTS, 48.0 kHz, 6 ch, 1 509 kb/s
Аудио#2: FLAC, 48.0 kHz, 2 ch, 1 665 kb/s
MediaInfo / x264Log

x264Log

[Information] [30.10.2020 09:49:50] Standard error stream
-[Information] [30.10.2020 09:50:15] y4m [info]: 1280x544p 1:1 @ 24000/1001 fps (cfr)
-[Information] [30.10.2020 09:50:15] x264 [info]: using SAR=1/1
-[Information] [30.10.2020 09:50:15] x264 [info]: using cpu capabilities: MMX2 SSE2Fast SSSE3 SSE4.2 AVX FMA3 BMI2 AVX2
-[Information] [30.10.2020 09:50:15] x264 [info]: profile Progressive High, level 4.1, 4:2:0, 8-bit
-[Information] [30.10.2020 18:37:31] x264 [info]: frame I:1838  Avg QP:10.77  size:113237
-[Information] [30.10.2020 18:37:31] x264 [info]: frame P:48918 Avg QP:13.97  size: 41036
-[Information] [30.10.2020 18:37:31] x264 [info]: frame B:158225 Avg QP:16.44  size: 13545
-[Information] [30.10.2020 18:37:31] x264 [info]: consecutive B-frames:  1.9%  3.4%  9.6% 33.1% 21.9% 23.8%  4.2%  2.1%
-[Information] [30.10.2020 18:37:31] x264 [info]: mb I  I16..4: 12.7% 56.5% 30.8%
-[Information] [30.10.2020 18:37:31] x264 [info]: mb P  I16..4:  1.8%  6.3%  1.4%  P16..4: 25.7% 32.4% 17.4%  4.7%  0.7%    skip: 9.6%
-[Information] [30.10.2020 18:37:31] x264 [info]: mb B  I16..4:  0.5%  1.2%  0.2%  B16..8: 32.3% 23.8%  5.7%  direct: 6.7%  skip:29.6%  L0:45.1% L1:39.4% BI:15.5%
-[Information] [30.10.2020 18:37:31] x264 [info]: 8x8 transform intra:62.8% inter:50.3%
-[Information] [30.10.2020 18:37:31] x264 [info]: direct mvs  spatial:93.0% temporal:7.0%
-[Information] [30.10.2020 18:37:31] x264 [info]: coded y,uvDC,uvAC intra: 65.6% 78.8% 72.5% inter: 23.4% 24.2% 12.7%
-[Information] [30.10.2020 18:37:31] x264 [info]: i16 v,h,dc,p: 78%  9%  5%  8%
-[Information] [30.10.2020 18:37:31] x264 [info]: i8 v,h,dc,ddl,ddr,vr,hd,vl,hu:  8%  8% 22%  9% 11% 10% 10% 10% 13%
-[Information] [30.10.2020 18:37:31] x264 [info]: i4 v,h,dc,ddl,ddr,vr,hd,vl,hu: 10%  8% 24%  8% 11% 10%  9%  9% 12%
-[Information] [30.10.2020 18:37:31] x264 [info]: i8c dc,h,v,p: 52% 24% 14% 10%
-[Information] [30.10.2020 18:37:31] x264 [info]: Weighted P-Frames: Y:5.7% UV:2.2%
-[Information] [30.10.2020 18:37:31] x264 [info]: ref P L0: 47.5%  5.9% 17.1%  8.0%  5.7%  4.4%  3.5%  2.0%  1.7%  1.5%  1.3%  1.3%  0.1%  0.0%
-[Information] [30.10.2020 18:37:31] x264 [info]: ref B L0: 69.4% 12.8%  6.8%  3.3%  2.4%  1.8%  1.4%  0.9%  0.7%  0.5%  0.2%
-[Information] [30.10.2020 18:37:31] x264 [info]: ref B L1: 93.7%  6.3%
-[Information] [30.10.2020 18:37:31] x264 [info]: kb/s:4000.47
-[Information] [30.10.2020 18:37:31] encoded 208981 frames, 6.61 fps, 4000.47 kb/s

General
Unique ID                   : 22031757995399988785396218642542428567 (0x10932988E4CF071E484B95A9F4450197)
Complete name               : D:\BDRip\Eagles - Live from the Forum MMXVIII.BDRip720p.mkv
Format                      : Matroska
Format version              : Version 4
File size                   : 7.28 GiB
Duration                    : 2 h 25 min
Overall bit rate mode       : Variable
Overall bit rate            : 7 177 kb/s
Movie name                  : Eagles - Live from the Forum MMXVIII.BDRip720p @ rutracker.org
Encoded date                : UTC 2020-10-31 12:16:05
Writing application         : mkvmerge v50.0.0 ('Awakenings') 64-bit
Writing library             : libebml v1.4.0 + libmatroska v1.6.2
Video
ID                          : 1
Format                      : AVC
Format/Info                 : Advanced Video Codec
Format profile              : High@L4.1
Format settings             : CABAC / 12 Ref Frames
Format settings, CABAC      : Yes
Format settings, Reference  : 12 frames
Codec ID                    : V_MPEG4/ISO/AVC
Duration                    : 2 h 25 min
Bit rate                    : 4 000 kb/s
Width                       : 1 280 pixels
Height                      : 544 pixels
Display aspect ratio        : 2.35:1
Frame rate mode             : Constant
Frame rate                  : 23.976 (24000/1001) FPS
Color space                 : YUV
Chroma subsampling          : 4:2:0
Bit depth                   : 8 bits
Scan type                   : Progressive
Bits/(Pixel*Frame)          : 0.240
Stream size                 : 4.06 GiB (56%)
Title                       : anbelk27 @ rutracker.org
Writing library             : x264 core 157 r2969 d4099dd
Encoding settings           : cabac=1 / ref=12 / deblock=1:-3:-3 / analyse=0x3:0x133 / me=tesa / subme=11 / psy=1 / psy_rd=1.13:0.07 / mixed_ref=1 / me_range=40 / chroma_me=1 / trellis=2 / 8x8dct=1 / cqm=0 / deadzone=21,11 / fast_pskip=1 / chroma_qp_offset=-3 / threads=12 / lookahead_threads=2 / sliced_threads=0 / nr=0 / decimate=1 / interlaced=0 / bluray_compat=0 / constrained_intra=0 / bframes=7 / b_pyramid=2 / b_adapt=2 / b_bias=0 / direct=3 / weightb=1 / open_gop=0 / weightp=2 / keyint=240 / keyint_min=23 / scenecut=50 / intra_refresh=0 / rc_lookahead=80 / rc=2pass / mbtree=1 / bitrate=4000 / ratetol=1.0 / qcomp=0.60 / qpmin=0 / qpmax=69 / qpstep=4 / cplxblur=20.0 / qblur=0.5 / vbv_maxrate=50000 / vbv_bufsize=62500 / nal_hrd=none / filler=0 / ip_ratio=1.40 / aq=1:1.00
Default                     : Yes
Forced                      : No
Audio #1
ID                          : 2
Format                      : DTS
Format/Info                 : Digital Theater Systems
Codec ID                    : A_DTS
Duration                    : 2 h 25 min
Bit rate mode               : Constant
Bit rate                    : 1 509 kb/s
Channel(s)                  : 6 channels
Channel layout              : C L R Ls Rs LFE
Sampling rate               : 48.0 kHz
Frame rate                  : 93.750 FPS (512 SPF)
Bit depth                   : 24 bits
Compression mode            : Lossy
Stream size                 : 1.53 GiB (21%)
Title                       : DTS 5.1 @ 24 bit
Default                     : Yes
Forced                      : No
Audio #2
ID                          : 3
Format                      : FLAC
Format/Info                 : Free Lossless Audio Codec
Codec ID                    : A_FLAC
Duration                    : 2 h 25 min
Bit rate mode               : Variable
Bit rate                    : 1 665 kb/s
Channel(s)                  : 2 channels
Channel layout              : L R
Sampling rate               : 48.0 kHz
Frame rate                  : 11.719 FPS (4096 SPF)
Bit depth                   : 24 bits
Compression mode            : Lossless
Stream size                 : 1.69 GiB (23%)
Title                       : FLAC 2.0 @ 24 bit
Writing library             : libFLAC 1.2.1 (UTC 2007-09-17)
Default                     : No
Forced                      : No
Menu
00:00:00.000                : en: 01. Introduction
00:01:29.464                : en: 02. Seven Bridges Road
00:05:01.968                : en: 03. Joe Walsh: "How Ya Doin?"
00:05:37.254                : en: 04. Take It Easy
00:09:55.970                : en: 05. One Of These Nights
00:14:16.981                : en: 06.  Don Henley: "Good Evening, Ladies And Gentlemen"
00:16:29.447                : en: 07. Take It To The Limit
00:20:54.587                : en: 08. Tequila Sunrise
00:23:59.480                : en: 09.  In The City
00:29:51.331                : en: 10. Timothy B. Schmit: "Hey, Everybody, That's Joe Walsh"
00:30:39.838                : en: 11.  I Can't Tell You Why
00:35:45.810                : en: 12. New Kid In Town
00:40:54.953                : en: 13.  Don Henley: "Just Want To Thank All Of You."
00:42:27.253                : en: 14. How Long
00:45:47.703                : en: 15. Deacon Frey: "Hello, Everybody."
00:46:26.075                : en: 16. Peaceful Easy Feeling
00:51:08.274                : en: 17. Ol' 55
00:55:28.033                : en: 18. Lyin' Eyes
01:04:27.447                : en: 19. Love Will Keep Us Alive
01:08:41.784                : en: 20. Vince Gill: "How's Everybody Doing?"
01:09:15.693                : en: 21. Don't Let Our Love Start Slippin' Away
01:14:36.973                : en: 22. Those Shoes
01:19:45.155                : en: 23. Already Gone
01:24:08.835                : en: 24. Walk Away
01:28:07.699                : en: 25. Joe Walsh: "Is Everybody Ok?"
01:30:02.814                : en: 26.  Life's Been Good
01:38:06.964                : en: 27. The Boys Of Summer
01:43:16.649                : en: 28. Heartache Tonight
01:47:50.464                : en: 29. Funk #49
01:52:31.536                : en: 30.  Life In The Fast Lane
01:59:32.666                : en: 31. Hotel California
02:09:05.738                : en: 32. Rocky Mountain Way
02:15:36.795                : en: 33.Desperado
02:20:36.720                : en: 34. The Long Run


Скриншоты











                                                                                       
                       
                       
                       
                       
                       
                                磁力下载:
                                                               
                                       
游客,本主题需向作者支付 7音乐币 才能浏览,金币充值, 免回复、免金币,直接查看内容请开通VIP支付

                                               
  • 7.28 GB
  • 温馨提示

    记得善用社区搜索功能,那里可能会有你想要的资源;论坛站内搜索

    如果你有什么需要的资源可以去资源求档发帖,求助社区的网友,我们会在第一时间给你回复哦;资源求档

    对于本社区网盘链接失效密码错误各种报错请在反馈板块反馈报错发帖,您的支持,是我们发展的最大动力;投诉建议

    回复

    使用道具 举报

    您需要登录后才可以回帖 登录 | 立即注册 微信登录

    本版积分规则

    关注0

    粉丝0

    帖子30176

    发布主题
    阅读排行更多+
    关闭

    站长推荐上一条 /1 下一条

    收藏帖子 返回列表 这是一个自定义按钮
    音乐分享,音乐下载。
    微信公众号
    微信号:hires_
    意见反馈:admin@maomicd.com

    加入我们的官方QQ群和微信群

    Powered by Discuz! X3.4 Archiver|手机版|小黑屋|捌零音乐论坛 ( 苏ICP备20015413号 )|( 苏公网安备 32030502000272号) 繁體

    GMT+8, 2021-5-6 09:24