自购原抓音乐圈:只有自购、合购、原抓级高解析(hires、sacd、dsd)正版音乐资源分享!【点我打开
极速无线网卡:千兆无线网卡、服务器网卡、USB接口台式机笔记本网卡 硬盘代考无损音乐!【点我打开
广告

[摇滚] Foo Fighters • Times Like These (Celebrating America) [2021, Alternative Rock, HDTV, 1080i]

[复制链接]
lz189 发表于 2021-4-13 15:34:02 | 显示全部楼层 |阅读模式 打印 上一主题 下一主题
Foo Fighters
Times Like These



Жанр: Alternative Rock
Продолжительность: 00:04:15
Год выпуска: 2021
Качество: HDTV
Разрешение видео/развертка: 1080i
Контейнер: TS
Видео кодек: MPEG2
Аудио кодек: AC3
Видео: MPEG2 Video 1920x1080 29.97fps 12.3 Mb/s
Аудио: Dolby AC3 48000Hz 6ch 384kbps
Отчёт MediaInfo / BDInfo

General
ID                             : 1 (0x1)
Complete name                  : F:\Foo Fighters - Times Like These (Celebrating America) 2021.ts
Format                         : MPEG-TS
File size                      : 408 MiB
Duration                       : 4 min 15 s
Overall bit rate mode          : Variable
Overall bit rate               : 13.4 Mb/s
Movie name                     : Celebrating America
Law rating                     : None
Video
ID                             : 49 (0x31)
Menu ID                        : 1 (0x1)
Format                         : MPEG Video
Format version                 : Version 2
Format profile                 : Main@High
Format settings                : CustomMatrix / BVOP
Format settings, BVOP          : Yes
Format settings, Matrix        : Custom
Format settings, GOP           : Variable
Codec ID                       : 2
Duration                       : 4 min 15 s
Bit rate mode                  : Variable
Bit rate                       : 12.3 Mb/s
Maximum bit rate               : 17.6 Mb/s
Width                          : 1 920 pixels
Height                         : 1 080 pixels
Display aspect ratio           : 16:9
Active Format Description      : Full frame 16:9 image
Frame rate                     : 29.970 (30000/1001) FPS
Color space                    : YUV
Chroma subsampling             : 4:2:0
Bit depth                      : 8 bits
Compression mode               : Lossy
Bits/(Pixel*Frame)             : 0.199
Time code of first frame       : 00:00:00;00
Time code source               : Group of pictures header
GOP, Open/Closed               : Open
GOP, Open/Closed of first fram : Closed
Stream size                    : 376 MiB (92%)
Audio
ID                             : 52 (0x34)
Menu ID                        : 1 (0x1)
Format                         : AC-3
Format/Info                    : Audio Coding 3
Commercial name                : Dolby Digital
Codec ID                       : 129
Duration                       : 4 min 15 s
Bit rate mode                  : Constant
Bit rate                       : 384 kb/s
Channel(s)                     : 6 channels
Channel layout                 : L R C LFE Ls Rs
Sampling rate                  : 48.0 kHz
Frame rate                     : 31.250 FPS (1536 SPF)
Compression mode               : Lossy
Delay relative to video        : -42 ms
Stream size                    : 11.7 MiB (3%)
Language                       : English
Service kind                   : Complete Main


Скриншоты












Мои раздачи ®
https://rutracker.org/forum/https://rutracker.net/forum/tracker.php?rid=9539252

5 дней на раздаче!


                                                                                       
                       
                       
                       
                       
                       
                                磁力下载:
                                                               
                                       
游客,本主题需向作者支付 7音乐币 才能浏览,金币充值, 免回复、免金币,直接查看内容请开通VIP支付

                                               
  • 408.4 MB
  • 温馨提示

    记得善用社区搜索功能,那里可能会有你想要的资源;论坛站内搜索

    如果你有什么需要的资源可以去资源求档发帖,求助社区的网友,我们会在第一时间给你回复哦;资源求档

    对于本社区网盘链接失效密码错误各种报错请在反馈板块反馈报错发帖,您的支持,是我们发展的最大动力;投诉建议

    回复

    使用道具 举报

    您需要登录后才可以回帖 登录 | 立即注册 微信登录

    本版积分规则

    关注0

    粉丝0

    帖子30121

    发布主题
    阅读排行更多+
    关闭

    站长推荐上一条 /1 下一条

    收藏帖子 返回列表 这是一个自定义按钮
    音乐分享,音乐下载。
    微信公众号
    微信号:hires_
    意见反馈:admin@maomicd.com

    加入我们的官方QQ群和微信群

    Powered by Discuz! X3.4 Archiver|手机版|小黑屋|捌零音乐论坛 ( 苏ICP备20015413号 )|( 苏公网安备 32030502000272号) 繁體

    GMT+8, 2021-5-7 00:26