自购原抓音乐圈:只有自购、合购、原抓级高解析(hires、sacd、dsd)正版音乐资源分享!【点我打开
极速无线网卡:千兆无线网卡、服务器网卡、USB接口台式机笔记本网卡 硬盘代考无损音乐!【点我打开
广告

[摇滚] David Gilmour: Remember That Night - Disc 2 (David Mallet) [2007, Rock, Blu-Ray, 1080i]

[复制链接]
elmisy 发表于 2021-4-13 15:34:02 | 显示全部楼层 |阅读模式 打印 上一主题 下一主题
David Gilmour: Remember That Night - Disc 2
Год выпуска: 2007
Жанр: Rock
Продолжительность: 120 минут
Режиссер: David Mallet
В ролях: David Gilmour, Richard Wright, Phil Manzanera, Jon Carin, Guy Pratt, Steve DiStanislao, Dick Parry
Специальные гости: David Crosby, Graham Nash, David Bowie, Robert Wyatt
Описание:
Второй диск двухдискового Blu-Ray издания концерта Дэвида Гилмора "Remember That Night"
Содержит бонусы - тринадцать дополнительных концертных треков, видеоклипы, документалки и т.д.
Треклист:
01. Wot's... Uh The Deal
02. Dominoes
03. Wearing The Inside Out (featuring Richard Wright)
04. Arnold Layne (featuring Richard Wright)
05. Comfortably Numb (featuring Richard Wright)
06. Dark Globe
07. Astronomy Domine
08. This Heaven
09. Castellorizon
10. On An Island
11. The Blue
12. Take A Breath
13. High Hopes
14. On An Island (Music Video)
15. Smile (Music Video)
16. Island Jam 2007
Бонусы:
17. Breaking Bread, Drinking Wine (Documentary)
18. The Making Of "On An Island" (Documentary)
19. The West Coast (Documentary)
20. Photo Gallery
Первый диск раздается тут https://rutracker.org/forum/https://rutracker.net/forum/viewtopic.php?t=861530
В раздачу включены сканы бокса, буклета, дисков.
Качество: Blu-Ray
Формат: BDMV
Видео кодек: VC1
Аудио кодек: AC3, PCM
Видео: 1080i (1920x1080, 16:9)
Аудио: Концерт: PCM Stereo (48kHz/24bit), Dolby TrueHD 5.1 Surround Sound (48kHz/24bit), Бонусы: Dolby Digital 5.1 Surround Sound (512 kbps)
Другие мои Blu-ray релизы
Nightwish: End Of An Era https://rutracker.org/forum/https://rutracker.net/forum/viewtopic.php?t=1938391
Cirque Du Soleil: Midnight Sun https://rutracker.org/forum/https://rutracker.net/forum/viewtopic.php?t=1489214
Sting: Bring On The Night https://rutracker.org/forum/https://rutracker.net/forum/viewtopic.php?t=1456373
Elton John: The Red Piano https://rutracker.org/forum/https://rutracker.net/forum/viewtopic.php?t=1390642
Ken Hensley: Blood On The Highway https://rutracker.org/forum/https://rutracker.net/forum/viewtopic.php?t=1294230
Legends: Live At Montreux 1997 https://rutracker.org/forum/https://rutracker.net/forum/viewtopic.php?t=1278111
Elvis Costello And The Imposters: Club Date - Live In Memphis https://rutracker.org/forum/https://rutracker.net/forum/viewtopic.php?t=1245616
Within Temptation: Black Symphony https://rutracker.org/forum/https://rutracker.net/forum/viewtopic.php?t=1219694
Cirque Du Soleil: Corteo https://rutracker.org/forum/https://rutracker.net/forum/viewtopic.php?t=1190566
Jethro Tull: Live At Montreux 2003 https://rutracker.org/forum/https://rutracker.net/forum/viewtopic.php?t=1179184
The Rolling Stones: Shine A Light https://rutracker.org/forum/https://rutracker.net/forum/viewtopic.php?t=1163676
Bruce Springsteen With The Sessions Band: Live In Dublin https://rutracker.org/forum/https://rutracker.net/forum/viewtopic.php?t=1155836
Robbie Williams: Live At The Albert https://rutracker.org/forum/https://rutracker.net/forum/viewtopic.php?t=1136468
Alice Cooper: Live At Montreux 2005 https://rutracker.org/forum/https://rutracker.net/forum/viewtopic.php?t=1073534
Destiny's Child: Live In Atlanta https://rutracker.org/forum/https://rutracker.net/forum/viewtopic.php?t=1060424
ABBA: The Movie https://rutracker.org/forum/https://rutracker.net/forum/viewtopic.php?t=1048758
Mariah Carey: The Adventures Of Mimi https://rutracker.org/forum/https://rutracker.net/forum/viewtopic.php?t=1036724
Andrea Bocelli: Vivere - Live In Tuscany https://rutracker.org/forum/https://rutracker.net/forum/viewtopic.php?t=1029050
ZZ Top - Live From Texas https://rutracker.org/forum/https://rutracker.net/forum/viewtopic.php?t=1027376
Led Zeppelin: The Song Remains The Same https://rutracker.org/forum/https://rutracker.net/forum/viewtopic.php?t=989629
Yes: Live At Montreux 2003 https://rutracker.org/forum/https://rutracker.net/forum/viewtopic.php?t=930113
Deep Purple: Live At Montreux 2006 - The All Came Down To Montreux https://rutracker.org/forum/https://rutracker.net/forum/viewtopic.php?t=920684
Celine Dion: Live in Las Vegas - A New Day... Bonus Disk https://rutracker.org/forum/https://rutracker.net/forum/viewtopic.php?t=848388
Elton John. Elton 60: Live At Madison Square Garden https://rutracker.org/forum/https://rutracker.net/forum/viewtopic.php?t=872786
Santana: Hymns for Peace - Live at Montreux https://rutracker.org/forum/https://rutracker.net/forum/viewtopic.php?t=818177

BDInfo

Disc Title:     Disc_2
Disc Size:      46 343 435 312 bytes
Protection:     AACS
BD-Java:        No
BDInfo:         0.5.8
Notes:
BDINFO HOME:
  Cinema Squid
    http://www.cinemasquid.com/blu-ray/tools/bdinfo
INCLUDES FORUMS REPORT FOR:
  AVS Forum Blu-ray Audio and Video Specifications Thread
    http://www.avsforum.com/avs-vb/showthread.php?t=1155731
********************
PLAYLIST: 00030.MPLS
********************

Код:

                                                                                Total   Video
Title                                                           Codec   Length  Movie Size      Disc Size       Bitrate Bitrate Main Audio Track                          Secondary Audio Track
-----                                                           ------  ------- --------------  --------------  ------- ------- ------------------                        ---------------------
00030.MPLS                                                      VC-1    0:46:31 11 279 149 056  46 343 435 312  32,32   29,98   DD AC3 2.0 640Kbps

Код:
DISC INFO:
Disc Title:     Disc_2
Disc Size:      46 343 435 312 bytes
Protection:     AACS
BD-Java:        No
BDInfo:         0.5.8
PLAYLIST REPORT:
Name:                   00030.MPLS
Length:                 0:46:31.989 (h:m:s.ms)
Size:                   11 279 149 056 bytes
Total Bitrate:          32,32 Mbps
VIDEO:
Codec                   Bitrate             Description
-----                   -------             -----------
VC-1 Video              29982 kbps          1080i / 29,970 fps / 16:9 / Advanced Profile 3
AUDIO:
Codec                           Language        Bitrate         Description
-----                           --------        -------         -----------
Dolby Digital Audio             English         640 kbps        2.0 / 48 kHz / 640 kbps / DN -1dB
SUBTITLES:
Codec                           Language        Bitrate         Description
-----                           --------        -------         -----------
Interactive Graphics            English         0,386 kbps
Presentation Graphics           English         35,113 kbps
Presentation Graphics           French          33,888 kbps
Presentation Graphics           Spanish         32,676 kbps
Presentation Graphics           Portuguese      31,716 kbps
Presentation Graphics           Japanese        23,194 kbps
Presentation Graphics           Chinese         29,184 kbps
Presentation Graphics           Chinese         27,555 kbps
FILES:
Name            Time In         Length          Size            Total Bitrate
----            -------         ------          ----            -------------
00028.M2TS      0:00:00.000     0:46:31.989     11 279 149 056  32 319
CHAPTERS:
Number          Time In         Length          Avg Video Rate  Max 1-Sec Rate  Max 1-Sec Time  Max 5-Sec Rate  Max 5-Sec Time  Max 10Sec Rate  Max 10Sec Time  Avg Frame Size  Max Frame Size  Max Frame Time
------          -------         ------          --------------  --------------  --------------  --------------  --------------  --------------  --------------  --------------  --------------  --------------
1               0:00:00.000     0:05:53.820     28 167 kbps     55 641 kbps     00:05:26.426    43 311 kbps     00:05:36.035    40 851 kbps     00:02:18.037    117 491 bytes   564 576 bytes   00:00:35.001
2               0:05:53.820     0:04:51.291     28 086 kbps     51 457 kbps     00:06:24.183    39 585 kbps     00:07:51.771    37 218 kbps     00:07:51.771    117 143 bytes   532 906 bytes   00:06:49.842
3               0:10:45.111     0:05:07.106     29 687 kbps     57 292 kbps     00:11:24.383    40 364 kbps     00:11:05.031    38 266 kbps     00:11:05.031    123 820 bytes   646 682 bytes   00:10:59.692
4               0:15:52.217     0:06:35.094     29 885 kbps     61 010 kbps     00:20:04.203    42 589 kbps     00:20:13.612    40 686 kbps     00:20:08.540    124 647 bytes   717 237 bytes   00:22:03.088
5               0:22:27.312     0:04:15.288     31 692 kbps     57 756 kbps     00:24:46.051    43 574 kbps     00:23:46.958    41 458 kbps     00:24:45.984    132 182 bytes   665 883 bytes   00:24:34.606
6               0:26:42.601     0:04:07.547     31 982 kbps     55 945 kbps     00:29:49.354    43 119 kbps     00:29:49.154    41 369 kbps     00:27:14.833    133 409 bytes   770 491 bytes   00:27:07.325
7               0:30:50.148     0:05:53.586     31 685 kbps     55 397 kbps     00:35:05.103    42 875 kbps     00:31:48.907    40 923 kbps     00:31:48.940    132 153 bytes   727 970 bytes   00:31:53.645
8               0:36:43.734     0:04:13.886     29 930 kbps     55 954 kbps     00:38:10.087    43 610 kbps     00:37:38.256    41 386 kbps     00:37:37.388    124 867 bytes   610 755 bytes   00:37:52.570
9               0:40:57.621     0:05:34.367     29 389 kbps     55 912 kbps     00:45:26.156    43 408 kbps     00:46:18.876    40 504 kbps     00:46:14.271    122 612 bytes   814 473 bytes   00:46:23.647
STREAM DIAGNOSTICS:
File            PID             Type            Codec           Language                Seconds                 Bitrate                 Bytes           Packets
----            ---             ----            -----           --------                --------------          --------------          -------------   -----
00028.M2TS      4113 (0x1011)   0xEA            VC-1                                    2791,889                29 983                  10 463 570 403  56 917 859
00028.M2TS      4352 (0x1100)   0x81            AC3             eng (English)           2791,889                640                     223 360 000     1 308 750
00028.M2TS      4608 (0x1200)   0x90            PGS             eng (English)           2791,889                35                      12 254 444      69 583
00028.M2TS      4609 (0x1201)   0x90            PGS             fra (French)            2791,889                34                      11 826 728      67 132
00028.M2TS      4610 (0x1202)   0x90            PGS             spa (Spanish)           2791,889                33                      11 403 950      64 801
00028.M2TS      4611 (0x1203)   0x90            PGS             por (Portuguese)        2791,889                32                      11 068 877      62 985
00028.M2TS      4612 (0x1204)   0x90            PGS             jpn (Japanese)          2791,889                23                      8 094 508       46 767
00028.M2TS      4613 (0x1205)   0x90            PGS             zho (Chinese)           2791,889                29                      10 185 038      58 124
00028.M2TS      4614 (0x1206)   0x90            PGS             zho (Chinese)           2791,889                28                      9 616 784       55 065
00028.M2TS      5120 (0x1400)   0x91            IGS             eng (English)           2791,889                0                       134 830         925


QUICK SUMMARY:
Disc Title: Disc_2
Disc Size: 46 343 435 312 bytes
Protection: AACS
BD-Java: No
Playlist: 00030.MPLS
Size: 11 279 149 056 bytes
Length: 0:46:31.989
Total Bitrate: 32,32 Mbps
Video: VC-1 Video / 29982 kbps / 1080i / 29,970 fps / 16:9 / Advanced Profile 3
Audio: English / Dolby Digital Audio / 2.0 / 48 kHz / 640 kbps / DN -1dB
Subtitle: English / 0,386 kbps
Subtitle: English / 35,113 kbps
Subtitle: French / 33,888 kbps
Subtitle: Spanish / 32,676 kbps
Subtitle: Portuguese / 31,716 kbps
Subtitle: Japanese / 23,194 kbps
Subtitle: Chinese / 29,184 kbps
Subtitle: Chinese / 27,555 kbps
********************
PLAYLIST: 00034.MPLS
********************

Код:

                                                                                Total   Video
Title                                                           Codec   Length  Movie Size      Disc Size       Bitrate Bitrate Main Audio Track                          Secondary Audio Track
-----                                                           ------  ------- --------------  --------------  ------- ------- ------------------                        ---------------------
00034.MPLS                                                      VC-1    0:32:34 7 819 695 168   46 343 435 312  32,00   29,89   DD AC3 2.0 640Kbps

Код:
DISC INFO:
Disc Title:     Disc_2
Disc Size:      46 343 435 312 bytes
Protection:     AACS
BD-Java:        No
BDInfo:         0.5.8
PLAYLIST REPORT:
Name:                   00034.MPLS
Length:                 0:32:34.986 (h:m:s.ms)
Size:                   7 819 695 168 bytes
Total Bitrate:          32,00 Mbps
VIDEO:
Codec                   Bitrate             Description
-----                   -------             -----------
VC-1 Video              29889 kbps          1080i / 29,970 fps / 16:9 / Advanced Profile 3
AUDIO:
Codec                           Language        Bitrate         Description
-----                           --------        -------         -----------
Dolby Digital Audio             English         640 kbps        2.0 / 48 kHz / 640 kbps / DN -1dB
SUBTITLES:
Codec                           Language        Bitrate         Description
-----                           --------        -------         -----------
Presentation Graphics           English         9,700 kbps
FILES:
Name            Time In         Length          Size            Total Bitrate
----            -------         ------          ----            -------------
00034.M2TS      0:00:00.000     0:03:21.234     735 977 472     29 259
00035.M2TS      0:03:21.234     0:07:09.896     1 628 552 256   30 306
00036.M2TS      0:10:31.130     0:06:16.109     1 555 838 976   33 093
00037.M2TS      0:16:47.239     0:06:13.172     1 542 955 008   33 078
00038.M2TS      0:23:00.412     0:09:34.574     2 356 371 456   32 809
CHAPTERS:
Number          Time In         Length          Avg Video Rate  Max 1-Sec Rate  Max 1-Sec Time  Max 5-Sec Rate  Max 5-Sec Time  Max 10Sec Rate  Max 10Sec Time  Avg Frame Size  Max Frame Size  Max Frame Time
------          -------         ------          --------------  --------------  --------------  --------------  --------------  --------------  --------------  --------------  --------------  --------------
1               0:00:00.000     0:03:21.234     27 283 kbps     56 218 kbps     00:00:13.413    42 899 kbps     00:00:13.213    39 905 kbps     00:02:17.570    113 774 bytes   746 162 bytes   00:00:04.637
2               0:03:21.234     0:07:09.896     28 263 kbps     53 639 kbps     00:10:05.071    43 005 kbps     00:10:13.746    41 027 kbps     00:10:13.946    117 880 bytes   631 628 bytes   00:10:05.104
3               0:10:31.130     0:06:16.109     30 949 kbps     57 502 kbps     00:15:25.791    43 868 kbps     00:14:38.711    41 333 kbps     00:14:38.644    129 083 bytes   732 741 bytes   00:10:51.917
4               0:16:47.239     0:06:13.172     30 915 kbps     60 410 kbps     00:19:47.185    44 020 kbps     00:22:41.193    41 618 kbps     00:19:52.624    129 301 bytes   839 703 bytes   00:22:19.471
5               0:23:00.412     0:09:34.574     30 659 kbps     56 490 kbps     00:28:29.707    43 789 kbps     00:32:13.865    41 544 kbps     00:32:13.931    127 882 bytes   670 059 bytes   00:23:29.307
STREAM DIAGNOSTICS:
File            PID             Type            Codec           Language                Seconds                 Bitrate                 Bytes           Packets
----            ---             ----            -----           --------                --------------          --------------          -------------   -----
00034.M2TS      4113 (0x1011)   0xEA            VC-1                                    201,134                 27 287                  686 035 977     3 732 108
00034.M2TS      4352 (0x1100)   0x81            AC3             eng (English)           201,134                 640                     16 099 840      94 335
00034.M2TS      4608 (0x1200)   0x90            PGS             eng (English)           201,134                 0                       0               0
00035.M2TS      4113 (0x1011)   0xEA            VC-1                                    429,829                 28 271                  1 518 987 890   8 263 130
00035.M2TS      4352 (0x1100)   0x81            AC3             eng (English)           429,829                 640                     34 393 600      201 525
00035.M2TS      4608 (0x1200)   0x90            PGS             eng (English)           429,829                 9                       510 245         2 974
00036.M2TS      4113 (0x1011)   0xEA            VC-1                                    376,042                 30 948                  1 454 712 413   7 912 809
00036.M2TS      4352 (0x1100)   0x81            AC3             eng (English)           376,042                 640                     30 090 240      176 310
00036.M2TS      4608 (0x1200)   0x90            PGS             eng (English)           376,042                 6                       264 051         1 583
00037.M2TS      4113 (0x1011)   0xEA            VC-1                                    373,106                 30 922                  1 442 162 481   7 844 621
00037.M2TS      4352 (0x1100)   0x81            AC3             eng (English)           373,106                 640                     29 854 720      174 930
00037.M2TS      4608 (0x1200)   0x90            PGS             eng (English)           373,106                 16                      731 323         4 160
00038.M2TS      4113 (0x1011)   0xEA            VC-1                                    574,474                 30 668                  2 202 269 966   11 979 265
00038.M2TS      4352 (0x1100)   0x81            AC3             eng (English)           574,474                 640                     45 967 360      269 340
00038.M2TS      4608 (0x1200)   0x90            PGS             eng (English)           574,474                 12                      864 903         4 915


QUICK SUMMARY:
Disc Title: Disc_2
Disc Size: 46 343 435 312 bytes
Protection: AACS
BD-Java: No
Playlist: 00034.MPLS
Size: 7 819 695 168 bytes
Length: 0:32:34.986
Total Bitrate: 32,00 Mbps
Video: VC-1 Video / 29889 kbps / 1080i / 29,970 fps / 16:9 / Advanced Profile 3
Audio: English / Dolby Digital Audio / 2.0 / 48 kHz / 640 kbps / DN -1dB
Subtitle: English / 9,700 kbps


Скриншоты









                                                                                       
                       
                       
                       
                       
                       
                                磁力下载:(论坛代下载服务)
                                                               
                                       
游客,本主题需向作者支付 7音乐币 才能浏览,金币充值, 免回复、免金币,直接查看内容请开通VIP支付

                                               
  • 43.21 GB
  • 温馨提示

    记得善用社区搜索功能,那里可能会有你想要的资源;论坛站内搜索

    如果你有什么需要的资源可以去资源求档发帖,求助社区的网友,我们会在第一时间给你回复哦;资源求档

    对于本社区网盘链接失效密码错误各种报错请在反馈板块反馈报错发帖,您的支持,是我们发展的最大动力;投诉建议

    回复

    使用道具 举报

    您需要登录后才可以回帖 登录 | 立即注册 微信登录

    本版积分规则

    关注0

    粉丝2

    帖子29564

    发布主题
    阅读排行更多+
    关闭

    站长推荐上一条 /1 下一条

    收藏帖子 返回列表 这是一个自定义按钮
    音乐分享,音乐下载。
    微信公众号
    微信号:hires_
    意见反馈:admin@maomicd.com

    加入我们的官方QQ群和微信群

    Powered by Discuz! X3.4 Archiver|手机版|小黑屋|捌零音乐论坛 ( 苏ICP备20015413号 )|( 苏公网安备 32030502000272号) 繁體

    GMT+8, 2021-5-8 23:55