自购原抓音乐圈:只有自购、合购、原抓级高解析(hires、sacd、dsd)正版音乐资源分享!【点我打开
极速无线网卡:千兆无线网卡、服务器网卡、USB接口台式机笔记本网卡 硬盘代考无损音乐!【点我打开
广告

[摇滚] The Neal Morse Band ‎– The Great Adventour Live In Brno - 2019 [2020, Neo-Prog, BDRip, 720p]

[复制链接]
lz189 发表于 2021-4-13 15:34:02 | 显示全部楼层 |阅读模式 打印 上一主题 下一主题
The Neal Morse Band ‎– The Great Adventour Live In Brno - 2019
Жанр: Neo-Prog
Продолжительность: 02:21:05
Год выпуска: 2020
Tracklist:
Act I
  • Overture
  • The Dream Isn't Over
  • Welcome To The World
  • A Momentary Change
  • Dark Melody
  • I Got To Run
  • To The River
  • The Great Adventure
  • Venture In Black
  • Hey Ho Let's Go
  • Beyond The Borders
    Act II
  • Overture 2
  • Long Ago
  • The Dream Continues
  • Fighting With Destiny
  • Vanity Fair
  • Welcome To The World 2
  • The Element Of Fear
  • Child Of Wonder
  • The Great Despair
  • Freedom Calling
  • A Love That Never Dies
    Encore
  • The Great Medley
    [/ol]
    Источник The Neal Morse Band ‎– The Great Adventour Live In Brno - 2019 [2020, Neo-Prog, 2xBlu-ray, 1080i]
    Качество: BDRip
    Разрешение видео/развертка: 720p
    Контейнер: MKV
    Видео кодек: H.264
    Аудио кодек: PCM
    Видео: AVC, 1280x720 (16:9), 29.970 fps, 4 410 kb/s
    Аудио: PCM, 48.0 kHz, 2 ch, 1 536 kb/s
    MediaInfo / x264Log

    x264Log

    [Information] [04.04.2020 0:37:51] Standard error stream
    -[Information] [04.04.2020 0:38:41] y4m [info]: 1280x720p 1:1 @ 30000/1001 fps (cfr)
    -[Information] [04.04.2020 0:38:41] x264 [info]: using SAR=1/1
    -[Information] [04.04.2020 0:38:41] x264 [info]: using cpu capabilities: MMX2 SSE2Fast SSSE3 SSE4.2 AVX
    -[Information] [04.04.2020 0:38:41] x264 [info]: profile Progressive High, level 4.1, 4:2:0, 8-bit
    -[Information] [04.04.2020 21:12:25] x264 [info]: frame I:2192  Avg QP:15.71  size: 86947
    -[Information] [04.04.2020 21:12:25] x264 [info]: frame P:64783 Avg QP:19.29  size: 34322
    -[Information] [04.04.2020 21:12:25] x264 [info]: frame B:186741 Avg QP:21.62  size: 12063
    -[Information] [04.04.2020 21:12:25] x264 [info]: consecutive B-frames:  3.3%  4.5% 12.8% 34.8% 18.7% 22.0%  2.3%  1.0%  0.7%
    -[Information] [04.04.2020 21:12:25] x264 [info]: mb I  I16..4: 11.8% 64.0% 24.2%
    -[Information] [04.04.2020 21:12:25] x264 [info]: mb P  I16..4:  7.0% 18.0%  2.4%  P16..4: 30.0% 27.7%  7.5%  1.0%  0.1%    skip: 6.2%
    -[Information] [04.04.2020 21:12:25] x264 [info]: mb B  I16..4:  1.8%  3.9%  0.4%  B16..8: 32.0% 16.1%  2.3%  direct: 9.5%  skip:34.0%  L0:44.2% L1:42.1% BI:13.7%
    -[Information] [04.04.2020 21:12:25] x264 [info]: 8x8 transform intra:64.8% inter:72.1%
    -[Information] [04.04.2020 21:12:25] x264 [info]: direct mvs  spatial:98.1% temporal:1.9%
    -[Information] [04.04.2020 21:12:25] x264 [info]: coded y,uvDC,uvAC intra: 42.0% 66.4% 34.3% inter: 20.2% 36.8% 4.5%
    -[Information] [04.04.2020 21:12:25] x264 [info]: i16 v,h,dc,p: 45% 15%  7% 33%
    -[Information] [04.04.2020 21:12:25] x264 [info]: i8 v,h,dc,ddl,ddr,vr,hd,vl,hu: 12%  7% 20%  8% 10% 11% 10% 11% 12%
    -[Information] [04.04.2020 21:12:25] x264 [info]: i4 v,h,dc,ddl,ddr,vr,hd,vl,hu: 19%  9% 17%  7% 10% 10%  9%  8% 10%
    -[Information] [04.04.2020 21:12:25] x264 [info]: i8c dc,h,v,p: 28% 31% 22% 19%
    -[Information] [04.04.2020 21:12:25] x264 [info]: Weighted P-Frames: Y:17.5% UV:12.8%
    -[Information] [04.04.2020 21:12:25] x264 [info]: ref P L0: 48.5%  9.7% 16.2%  6.8%  5.5%  4.3%  3.8%  2.4%  2.4%  0.5%  0.0%
    -[Information] [04.04.2020 21:12:25] x264 [info]: ref B L0: 77.5%  9.7%  4.7%  2.6%  2.1%  1.8%  1.2%  0.4%
    -[Information] [04.04.2020 21:12:25] x264 [info]: ref B L1: 96.2%  3.8%
    -[Information] [04.04.2020 21:12:25] x264 [info]: kb/s:4409.98
    -[Information] [04.04.2020 21:12:25] encoded 253716 frames, 3.43 fps, 4409.98 kb/s

    General
    Unique ID                   : 3069003606553868817167996772505764879 (0x24F118F693CAE2B46F48C8B7242440F)
    Complete name               : T:\BDRip\The Neal Morse Band-The Great Adventour Live In Brno-2019.BDRip720p.mkv
    Format                      : Matroska
    Format version              : Version 2
    File size                   : 5.86 GiB
    Duration                    : 2 h 21 min
    Overall bit rate            : 5 948 kb/s
    Movie name                  : The Neal Morse Band-The Great Adventour Live In Brno-2019.BDRip720p @ rutracker.org
    Encoded date                : UTC 2020-04-04 19:38:45
    Writing application         : mkvmerge v41.0.0 ('Smarra') 64-bit
    Writing library             : libebml v1.3.9 + libmatroska v1.5.2
    Video
    ID                          : 1
    Format                      : AVC
    Format/Info                 : Advanced Video Codec
    Format profile              : High@L4.1
    Format settings             : CABAC / 9 Ref Frames
    Format settings, CABAC      : Yes
    Format settings, Reference  : 9 frames
    Codec ID                    : V_MPEG4/ISO/AVC
    Duration                    : 2 h 21 min
    Bit rate                    : 4 410 kb/s
    Width                       : 1 280 pixels
    Height                      : 720 pixels
    Display aspect ratio        : 16:9
    Frame rate mode             : Constant
    Frame rate                  : 29.970 (30000/1001) FPS
    Color space                 : YUV
    Chroma subsampling          : 4:2:0
    Bit depth                   : 8 bits
    Scan type                   : Progressive
    Bits/(Pixel*Frame)          : 0.160
    Stream size                 : 4.35 GiB (74%)
    Title                       : anbelk27 @ rutracker.org
    Writing library             : x264 core 157 r2969 d4099dd
    Encoding settings           : cabac=1 / ref=9 / deblock=1:-3:-3 / analyse=0x3:0x133 / me=umh / subme=11 / psy=1 / psy_rd=1.15:0.07 / mixed_ref=1 / me_range=32 / chroma_me=1 / trellis=2 / 8x8dct=1 / cqm=0 / deadzone=21,11 / fast_pskip=1 / chroma_qp_offset=-3 / threads=6 / lookahead_threads=1 / sliced_threads=0 / nr=0 / decimate=1 / interlaced=0 / bluray_compat=0 / constrained_intra=0 / bframes=8 / b_pyramid=2 / b_adapt=2 / b_bias=0 / direct=3 / weightb=1 / open_gop=0 / weightp=2 / keyint=300 / keyint_min=29 / scenecut=50 / intra_refresh=0 / rc_lookahead=100 / rc=2pass / mbtree=1 / bitrate=4410 / ratetol=1.0 / qcomp=0.60 / qpmin=0 / qpmax=69 / qpstep=4 / cplxblur=20.0 / qblur=0.5 / vbv_maxrate=50000 / vbv_bufsize=62500 / nal_hrd=none / filler=0 / ip_ratio=1.40 / aq=1:1.00
    Default                     : Yes
    Forced                      : No
    Audio
    ID                          : 2
    Format                      : PCM
    Format settings             : Little / Signed
    Codec ID                    : A_PCM/INT/LIT
    Duration                    : 2 h 21 min
    Bit rate mode               : Constant
    Bit rate                    : 1 536 kb/s
    Channel(s)                  : 2 channels
    Sampling rate               : 48.0 kHz
    Frame rate                  : 32.000 FPS (1500 SPF)
    Bit depth                   : 16 bits
    Stream size                 : 1.51 GiB (26%)
    Title                       : PCM 2.0 @ 16 bit
    Default                     : Yes
    Forced                      : No
    Menu
    00:00:00.000                : en: 01. Overture
    00:12:49.035                : en: 02. The Dream Isn't Over
    00:15:38.871                : en: 03. Welcome To The World
    00:20:47.613                : en: 04. A Momentary Change
    00:24:48.954                : en: 05. Dark Melody
    00:28:10.322                : en: 06. I Got To Run
    00:34:27.332                : en: 07. To The River
    00:41:21.212                : en: 08. The Great Adventure
    00:47:41.559                : en: 09. Venture In Black
    00:53:07.885                : en: 10. Hey Ho Let's Go
    00:57:06.623                : en: 11. Beyond The Borders
    01:00:21.051                : en: 12. Overture
    01:04:06.576                : en: 13. Long Ago
    01:07:43.593                : en: 14. The Dream Continues
    01:09:23.793                : en: 15. Fighting With Destiny
    01:14:36.272                : en: 16. Vanity Fair
    01:20:20.249                : en: 17. Welcome To The World
    01:24:20.856                : en: 18. The Element Of Fear
    01:27:07.589                : en: 19. Child Of Wonder
    01:29:48.450                : en: 20. The Great Despair
    01:36:09.564                : en: 21. Freedom Calling
    01:44:01.869                : en: 22. A Love That Never Dies
    01:53:26.533                : en: 23. The Great Medley

    Скриншоты











                                                                                           
                           
                           
                           
                           
                           
                                    磁力下载:(论坛代下载服务)
                                                                   
                                           
    游客,本主题需向作者支付 7音乐币 才能浏览,金币充值, 免回复、免金币,直接查看内容请开通VIP支付

                                                   
  • 5.86 GB
  • 温馨提示

    记得善用社区搜索功能,那里可能会有你想要的资源;论坛站内搜索

    如果你有什么需要的资源可以去资源求档发帖,求助社区的网友,我们会在第一时间给你回复哦;资源求档

    对于本社区网盘链接失效密码错误各种报错请在反馈板块反馈报错发帖,您的支持,是我们发展的最大动力;投诉建议

    回复

    使用道具 举报

    您需要登录后才可以回帖 登录 | 立即注册 微信登录

    本版积分规则

    关注0

    粉丝0

    帖子30120

    发布主题
    阅读排行更多+
    关闭

    站长推荐上一条 /1 下一条

    收藏帖子 返回列表 这是一个自定义按钮
    音乐分享,音乐下载。
    微信公众号
    微信号:hires_
    意见反馈:admin@maomicd.com

    加入我们的官方QQ群和微信群

    Powered by Discuz! X3.4 Archiver|手机版|小黑屋|捌零音乐论坛 ( 苏ICP备20015413号 )|( 苏公网安备 32030502000272号) 繁體

    GMT+8, 2021-5-10 05:47