自购原抓音乐圈:只有自购、合购、原抓级高解析(hires、sacd、dsd)正版音乐资源分享!【点我打开
极速无线网卡:千兆无线网卡、服务器网卡、USB接口台式机笔记本网卡 硬盘代考无损音乐!【点我打开
广告

[摇滚] Tesla - Five Man London Jam [2020, Classic Rock, Hard Rock, Blu-ray, 1080p]

[复制链接]
全球搬运 发表于 2021-4-13 15:34:02 | 显示全部楼层 |阅读模式 打印 上一主题 下一主题
Five Man London Jam
Жанр: Classic Rock, Hard Rock
Продолжительность: 01:07:47+00:17:45
Год выпуска: 27.3.2020Треклист:
1 Cumin' Atcha Live / Truckin' (Live At Abbey Road Studios, 6/12/19)
2 Tied To The Tracks (Live At Abbey Road Studios, 6/12/19)
3 We Can Work It Out (Live At Abbey Road Studios, 6/12/19)
4 Signs (Live At Abbey Road Studios, 6/12/19)
5 What You Give (Live At Abbey Road Studios, 6/12/19)
6 California Summer Song (Live At Abbey Road Studios, 6/12/19)
7 Forever Loving You (Live At Abbey Road Studios, 6/12/19)
8 Miles Away (Live At Abbey Road Studios, 6/12/19)
9 Paradise (Live At Abbey Road Studios, 6/12/19)
10 Call It What You Want (Live At Abbey Road Studios, 6/12/19)
11 Stir It Up (Live At Abbey Road Studios, 6/12/19)
12 Into The Now (Live At Abbey Road Studios, 6/12/19)
13 Love Song (Live At Abbey Road Studios, 6/12/19)
14 Band InterviewКачество: Blu-ray
Разрешение видео/развертка: 1080p
Контейнер: BDMV
Видео кодек: MPEG-4 AVC
Аудио кодек: DTS / PCM
Видео: MPEG-4 AVC Video / 28186 kbps / 1080p / 23,976 fps / 16:9 / High Profile 4.1
Аудио #1: DTS-HD Master Audio / English / 5.1 / 48 kHz / 5241 kbps / 24-bit (DTS Core: 5.1 / 48 kHz / 1509 kbps / 24-bit)
Аудио #2: LPCM Audio / English / 2.0 / 48 kHz / 2304 kbps / 24-bit
BDInfo

Disc Title:     Tesla - Five Man London Jam
Disc Size:      23 523 156 061 bytes
Protection:     AACS
BD-Java:        Yes
BDInfo:         0.5.8
Notes:
BDINFO HOME:
  Cinema Squid
    http://www.cinemasquid.com/blu-ray/tools/bdinfo
INCLUDES FORUMS REPORT FOR:
  AVS Forum Blu-ray Audio and Video Specifications Thread
    http://www.avsforum.com/avs-vb/showthread.php?t=1155731
********************
PLAYLIST: 00004.MPLS
********************

Код:

                                                                                Total   Video
Title                                                           Codec   Length  Movie Size      Disc Size       Bitrate Bitrate Main Audio Track                          Secondary Audio Track
-----                                                           ------  ------- --------------  --------------  ------- ------- ------------------                        ---------------------
00004.MPLS                                                      AVC     1:07:47 19 140 452 352  23 523 156 061  37,65   28,19   DTS-HD Master 5.1 5241Kbps (48kHz/24-bit) LPCM 2.0 2304Kbps (48kHz/24-bit)

Код:
DISC INFO:
Disc Title:     Tesla - Five Man London Jam
Disc Size:      23 523 156 061 bytes
Protection:     AACS
BD-Java:        Yes
BDInfo:         0.5.8
PLAYLIST REPORT:
Name:                   00004.MPLS
Length:                 1:07:47.021 (h:m:s.ms)
Size:                   19 140 452 352 bytes
Total Bitrate:          37,65 Mbps
VIDEO:
Codec                   Bitrate             Description
-----                   -------             -----------
MPEG-4 AVC Video        28186 kbps          1080p / 23,976 fps / 16:9 / High Profile 4.1
AUDIO:
Codec                           Language        Bitrate         Description
-----                           --------        -------         -----------
DTS-HD Master Audio             English         5241 kbps       5.1 / 48 kHz / 5241 kbps / 24-bit (DTS Core: 5.1 / 48 kHz / 1509 kbps / 24-bit)
LPCM Audio                      English         2304 kbps       2.0 / 48 kHz / 2304 kbps / 24-bit
SUBTITLES:
Codec                           Language        Bitrate         Description
-----                           --------        -------         -----------
Presentation Graphics           English         0,003 kbps
Presentation Graphics           French          0,003 kbps
Presentation Graphics           German          0,003 kbps
Presentation Graphics           Italian         0,003 kbps
Presentation Graphics           Spanish         0,003 kbps
Presentation Graphics           Portuguese      0,003 kbps
FILES:
Name            Time In         Length          Size            Total Bitrate
----            -------         ------          ----            -------------
00007.M2TS      0:00:00.000     1:07:47.021     19 140 452 352  37 650
CHAPTERS:
Number          Time In         Length          Avg Video Rate  Max 1-Sec Rate  Max 1-Sec Time  Max 5-Sec Rate  Max 5-Sec Time  Max 10Sec Rate  Max 10Sec Time  Avg Frame Size  Max Frame Size  Max Frame Time
------          -------         ------          --------------  --------------  --------------  --------------  --------------  --------------  --------------  --------------  --------------  --------------
1               0:00:00.000     0:07:45.214     27 164 kbps     39 107 kbps     00:00:13.555    32 907 kbps     00:00:46.713    30 794 kbps     00:00:42.625    141 610 bytes   521 564 bytes   00:00:17.851
2               0:07:45.214     0:03:47.894     28 459 kbps     39 559 kbps     00:11:25.684    34 621 kbps     00:11:24.266    31 588 kbps     00:11:23.099    148 370 bytes   454 753 bytes   00:11:32.608
3               0:11:33.109     0:02:37.532     28 204 kbps     35 240 kbps     00:13:28.516    30 239 kbps     00:12:55.274    29 792 kbps     00:13:19.757    147 043 bytes   383 606 bytes   00:11:35.569
4               0:14:10.641     0:03:05.852     29 005 kbps     36 333 kbps     00:15:58.874    31 601 kbps     00:15:55.996    30 658 kbps     00:14:30.202    151 220 bytes   437 608 bytes   00:14:45.009
5               0:17:16.493     0:07:18.771     26 568 kbps     35 528 kbps     00:21:39.131    31 402 kbps     00:19:24.413    30 045 kbps     00:19:41.054    138 511 bytes   422 203 bytes   00:19:44.433
6               0:24:35.265     0:03:24.204     29 036 kbps     37 096 kbps     00:27:55.507    31 597 kbps     00:24:36.683    30 710 kbps     00:24:35.599    151 383 bytes   382 494 bytes   00:27:54.214
7               0:27:59.469     0:03:44.933     28 421 kbps     37 214 kbps     00:30:58.523    30 809 kbps     00:28:24.536    29 737 kbps     00:30:06.888    148 173 bytes   443 596 bytes   00:31:10.118
8               0:31:44.402     0:07:30.449     28 872 kbps     37 688 kbps     00:31:56.581    33 153 kbps     00:38:50.369    31 453 kbps     00:38:50.286    150 527 bytes   525 258 bytes   00:39:03.924
9               0:39:14.852     0:05:20.320     28 704 kbps     36 384 kbps     00:43:19.805    31 936 kbps     00:43:19.805    30 463 kbps     00:39:15.019    149 649 bytes   478 340 bytes   00:43:00.869
10              0:44:35.172     0:04:39.487     28 615 kbps     35 954 kbps     00:46:58.815    32 173 kbps     00:47:19.336    30 351 kbps     00:47:19.253    149 187 bytes   403 299 bytes   00:46:23.447
11              0:49:14.660     0:05:52.018     28 419 kbps     39 390 kbps     00:54:55.166    31 726 kbps     00:52:14.840    30 551 kbps     00:54:15.835    148 164 bytes   451 264 bytes   00:55:02.966
12              0:55:06.678     0:04:57.922     28 731 kbps     36 548 kbps     00:57:03.336    31 993 kbps     00:55:14.019    31 246 kbps     00:57:52.969    149 791 bytes   411 771 bytes   00:57:09.926
13              1:00:04.601     0:07:40.835     28 068 kbps     38 192 kbps     01:07:05.354    31 875 kbps     01:07:02.601    30 698 kbps     01:06:59.849    146 331 bytes   532 281 bytes   01:06:49.839
14              1:07:45.436     0:00:01.584     41 kbps         45 kbps         01:07:45.436    0 kbps          00:00:00.000    0 kbps          00:00:00.000    225 bytes       844 bytes       01:07:46.228
STREAM DIAGNOSTICS:
File            PID             Type            Codec           Language                Seconds                 Bitrate                 Bytes           Packets
----            ---             ----            -----           --------                --------------          --------------          -------------   -----
00007.M2TS      4113 (0x1011)   0x1B            AVC                                     4066,938                28 186                  14 328 956 525  77 932 174
00007.M2TS      4352 (0x1100)   0x86            DTS-HD MA       eng (English)           4066,938                5 241                   2 664 490 920   15 114 842
00007.M2TS      4353 (0x1101)   0x80            LPCM            eng (English)           4066,938                2 310                   1 174 544 884   6 507 174
00007.M2TS      4608 (0x1200)   0x90            PGS             eng (English)           4066,938                0                       1 402           15
00007.M2TS      4609 (0x1201)   0x90            PGS             fra (French)            4066,938                0                       1 402           15
00007.M2TS      4610 (0x1202)   0x90            PGS             deu (German)            4066,938                0                       1 402           15
00007.M2TS      4611 (0x1203)   0x90            PGS             ita (Italian)           4066,938                0                       1 402           15
00007.M2TS      4612 (0x1204)   0x90            PGS             spa (Spanish)           4066,938                0                       1 402           15
00007.M2TS      4613 (0x1205)   0x90            PGS             por (Portuguese)        4066,938                0                       1 402           15


QUICK SUMMARY:
Disc Title: Tesla - Five Man London Jam
Disc Size: 23 523 156 061 bytes
Protection: AACS
BD-Java: Yes
Playlist: 00004.MPLS
Size: 19 140 452 352 bytes
Length: 1:07:47.021
Total Bitrate: 37,65 Mbps
Video: MPEG-4 AVC Video / 28186 kbps / 1080p / 23,976 fps / 16:9 / High Profile 4.1
Audio: English / DTS-HD Master Audio / 5.1 / 48 kHz / 5241 kbps / 24-bit (DTS Core: 5.1 / 48 kHz / 1509 kbps / 24-bit)
Audio: English / LPCM Audio / 2.0 / 48 kHz / 2304 kbps / 24-bit
Subtitle: English / 0,003 kbps
Subtitle: French / 0,003 kbps
Subtitle: German / 0,003 kbps
Subtitle: Italian / 0,003 kbps
Subtitle: Spanish / 0,003 kbps
Subtitle: Portuguese / 0,003 kbps
********************
PLAYLIST: 00005.MPLS
********************

Код:

                                                                                Total   Video
Title                                                           Codec   Length  Movie Size      Disc Size       Bitrate Bitrate Main Audio Track                          Secondary Audio Track
-----                                                           ------  ------- --------------  --------------  ------- ------- ------------------                        ---------------------
00005.MPLS                                                      AVC     0:17:45 3 923 257 344   23 523 156 061  29,47   22,58   LPCM 2.0 2304Kbps (48kHz/24-bit)          LPCM 2.0 2304Kbps (48kHz/24-bit)

Код:
DISC INFO:
Disc Title:     Tesla - Five Man London Jam
Disc Size:      23 523 156 061 bytes
Protection:     AACS
BD-Java:        Yes
BDInfo:         0.5.8
PLAYLIST REPORT:
Name:                   00005.MPLS
Length:                 0:17:45.147 (h:m:s.ms)
Size:                   3 923 257 344 bytes
Total Bitrate:          29,47 Mbps
VIDEO:
Codec                   Bitrate             Description
-----                   -------             -----------
MPEG-4 AVC Video        22583 kbps          1080p / 23,976 fps / 16:9 / High Profile 4.1
AUDIO:
Codec                           Language        Bitrate         Description
-----                           --------        -------         -----------
LPCM Audio                      English         2304 kbps       2.0 / 48 kHz / 2304 kbps / 24-bit
LPCM Audio                      English         2304 kbps       2.0 / 48 kHz / 2304 kbps / 24-bit
SUBTITLES:
Codec                           Language        Bitrate         Description
-----                           --------        -------         -----------
Presentation Graphics           English         148,021 kbps
Presentation Graphics           French          156,897 kbps
Presentation Graphics           German          139,570 kbps
Presentation Graphics           Italian         140,873 kbps
Presentation Graphics           Spanish         135,582 kbps
Presentation Graphics           Portuguese      130,550 kbps
FILES:
Name            Time In         Length          Size            Total Bitrate
----            -------         ------          ----            -------------
00009.M2TS      0:00:00.000     0:17:45.147     3 923 257 344   29 466
CHAPTERS:
Number          Time In         Length          Avg Video Rate  Max 1-Sec Rate  Max 1-Sec Time  Max 5-Sec Rate  Max 5-Sec Time  Max 10Sec Rate  Max 10Sec Time  Avg Frame Size  Max Frame Size  Max Frame Time
------          -------         ------          --------------  --------------  --------------  --------------  --------------  --------------  --------------  --------------  --------------  --------------
1               0:00:00.000     0:17:43.562     22 616 kbps     39 098 kbps     00:15:49.990    28 860 kbps     00:15:49.990    27 235 kbps     00:12:30.833    117 906 bytes   512 743 bytes   00:15:27.134
2               0:17:43.562     0:00:01.584     40 kbps         44 kbps         00:17:43.562    0 kbps          00:00:00.000    0 kbps          00:00:00.000    218 bytes       836 bytes       00:17:44.354
STREAM DIAGNOSTICS:
File            PID             Type            Codec           Language                Seconds                 Bitrate                 Bytes           Packets
----            ---             ----            -----           --------                --------------          --------------          -------------   -----
00009.M2TS      4113 (0x1011)   0x1B            AVC                                     1065,064                22 584                  3 006 716 168   16 355 911
00009.M2TS      4352 (0x1100)   0x80            LPCM            eng (English)           1065,064                2 310                   307 602 844     1 704 171
00009.M2TS      4353 (0x1101)   0x80            LPCM            eng (English)           1065,064                2 310                   307 602 844     1 704 171
00009.M2TS      4608 (0x1200)   0x90            PGS             eng (English)           1065,064                148                     19 708 043      110 059
00009.M2TS      4609 (0x1201)   0x90            PGS             fra (French)            1065,064                157                     20 889 856      116 509
00009.M2TS      4610 (0x1202)   0x90            PGS             deu (German)            1065,064                140                     18 582 853      103 937
00009.M2TS      4611 (0x1203)   0x90            PGS             ita (Italian)           1065,064                141                     18 756 325      104 863
00009.M2TS      4612 (0x1204)   0x90            PGS             spa (Spanish)           1065,064                136                     18 051 816      101 072
00009.M2TS      4613 (0x1205)   0x90            PGS             por (Portuguese)        1065,064                131                     17 381 867      97 382


QUICK SUMMARY:
Disc Title: Tesla - Five Man London Jam
Disc Size: 23 523 156 061 bytes
Protection: AACS
BD-Java: Yes
Playlist: 00005.MPLS
Size: 3 923 257 344 bytes
Length: 0:17:45.147
Total Bitrate: 29,47 Mbps
Video: MPEG-4 AVC Video / 22583 kbps / 1080p / 23,976 fps / 16:9 / High Profile 4.1
Audio: English / LPCM Audio / 2.0 / 48 kHz / 2304 kbps / 24-bit
Audio: English / LPCM Audio / 2.0 / 48 kHz / 2304 kbps / 24-bit
Subtitle: English / 148,021 kbps
Subtitle: French / 156,897 kbps
Subtitle: German / 139,570 kbps
Subtitle: Italian / 140,873 kbps
Subtitle: Spanish / 135,582 kbps
Subtitle: Portuguese / 130,550 kbps
********************
PLAYLIST: 00003.MPLS
********************

Код:

                                                                                Total   Video
Title                                                           Codec   Length  Movie Size      Disc Size       Bitrate Bitrate Main Audio Track                          Secondary Audio Track
-----                                                           ------  ------- --------------  --------------  ------- ------- ------------------                        ---------------------
00003.MPLS                                                      AVC     0:01:13 328 747 008     23 523 156 061  35,54   26,15   DTS-HD Master 5.1 5255Kbps (48kHz/24-bit) LPCM 2.0 2304Kbps (48kHz/24-bit)

Код:
DISC INFO:
Disc Title:     Tesla - Five Man London Jam
Disc Size:      23 523 156 061 bytes
Protection:     AACS
BD-Java:        Yes
BDInfo:         0.5.8
PLAYLIST REPORT:
Name:                   00003.MPLS
Length:                 0:01:13.990 (h:m:s.ms)
Size:                   328 747 008 bytes
Total Bitrate:          35,54 Mbps
VIDEO:
Codec                   Bitrate             Description
-----                   -------             -----------
MPEG-4 AVC Video        26153 kbps          1080p / 23,976 fps / 16:9 / High Profile 4.1
AUDIO:
Codec                           Language        Bitrate         Description
-----                           --------        -------         -----------
DTS-HD Master Audio             English         5255 kbps       5.1 / 48 kHz / 5255 kbps / 24-bit (DTS Core: 5.1 / 48 kHz / 1509 kbps / 24-bit)
LPCM Audio                      English         2304 kbps       2.0 / 48 kHz / 2304 kbps / 24-bit
SUBTITLES:
Codec                           Language        Bitrate         Description
-----                           --------        -------         -----------
Presentation Graphics           English         0,152 kbps
Presentation Graphics           French          0,152 kbps
Presentation Graphics           German          0,152 kbps
Presentation Graphics           Italian         0,152 kbps
Presentation Graphics           Spanish         0,152 kbps
Presentation Graphics           Portuguese      0,152 kbps
FILES:
Name            Time In         Length          Size            Total Bitrate
----            -------         ------          ----            -------------
00005.M2TS      0:00:00.000     0:01:13.990     328 747 008     35 545
CHAPTERS:
Number          Time In         Length          Avg Video Rate  Max 1-Sec Rate  Max 1-Sec Time  Max 5-Sec Rate  Max 5-Sec Time  Max 10Sec Rate  Max 10Sec Time  Avg Frame Size  Max Frame Size  Max Frame Time
------          -------         ------          --------------  --------------  --------------  --------------  --------------  --------------  --------------  --------------  --------------  --------------
1               0:00:00.000     0:01:12.113     26 595 kbps     39 004 kbps     00:01:06.900    33 653 kbps     00:01:02.896    32 677 kbps     00:00:26.776    138 574 bytes   758 182 bytes   00:00:00.792
2               0:01:12.113     0:00:01.876     9 152 kbps      16 848 kbps     00:01:12.864    0 kbps          00:00:00.000    0 kbps          00:00:00.000    48 799 bytes    700 279 bytes   00:01:12.906
STREAM DIAGNOSTICS:
File            PID             Type            Codec           Language                Seconds                 Bitrate                 Bytes           Packets
----            ---             ----            -----           --------                --------------          --------------          -------------   -----
00005.M2TS      4113 (0x1011)   0x1B            AVC                                     73,907                  26 182                  241 880 281     1 315 608
00005.M2TS      4352 (0x1100)   0x86            DTS-HD MA       eng (English)           73,907                  5 261                   48 606 040      275 705
00005.M2TS      4353 (0x1101)   0x80            LPCM            eng (English)           73,907                  2 312                   21 356 460      118 319
00005.M2TS      4608 (0x1200)   0x90            PGS             eng (English)           73,907                  0                       1 402           15
00005.M2TS      4609 (0x1201)   0x90            PGS             fra (French)            73,907                  0                       1 402           15
00005.M2TS      4610 (0x1202)   0x90            PGS             deu (German)            73,907                  0                       1 402           15
00005.M2TS      4611 (0x1203)   0x90            PGS             ita (Italian)           73,907                  0                       1 402           15
00005.M2TS      4612 (0x1204)   0x90            PGS             spa (Spanish)           73,907                  0                       1 402           15
00005.M2TS      4613 (0x1205)   0x90            PGS             por (Portuguese)        73,907                  0                       1 402           15


QUICK SUMMARY:
Disc Title: Tesla - Five Man London Jam
Disc Size: 23 523 156 061 bytes
Protection: AACS
BD-Java: Yes
Playlist: 00003.MPLS
Size: 328 747 008 bytes
Length: 0:01:13.990
Total Bitrate: 35,54 Mbps
Video: MPEG-4 AVC Video / 26153 kbps / 1080p / 23,976 fps / 16:9 / High Profile 4.1
Audio: English / DTS-HD Master Audio / 5.1 / 48 kHz / 5255 kbps / 24-bit (DTS Core: 5.1 / 48 kHz / 1509 kbps / 24-bit)
Audio: English / LPCM Audio / 2.0 / 48 kHz / 2304 kbps / 24-bit
Subtitle: English / 0,152 kbps
Subtitle: French / 0,152 kbps
Subtitle: German / 0,152 kbps
Subtitle: Italian / 0,152 kbps
Subtitle: Spanish / 0,152 kbps
Subtitle: Portuguese / 0,152 kbps
********************
PLAYLIST: 00002.MPLS
********************

Код:

                                                                                Total   Video
Title                                                           Codec   Length  Movie Size      Disc Size       Bitrate Bitrate Main Audio Track                          Secondary Audio Track
-----                                                           ------  ------- --------------  --------------  ------- ------- ------------------                        ---------------------
00002.MPLS                                                      AVC     0:00:39 129 398 784     23 523 156 061  26,43   22,65   DTS-HD Master 5.1 2382Kbps (48kHz/24-bit)

Код:
DISC INFO:
Disc Title:     Tesla - Five Man London Jam
Disc Size:      23 523 156 061 bytes
Protection:     AACS
BD-Java:        Yes
BDInfo:         0.5.8
PLAYLIST REPORT:
Name:                   00002.MPLS
Length:                 0:00:39.164 (h:m:s.ms)
Size:                   129 398 784 bytes
Total Bitrate:          26,43 Mbps
VIDEO:
Codec                   Bitrate             Description
-----                   -------             -----------
MPEG-4 AVC Video        22648 kbps          1080p / 23,976 fps / 16:9 / High Profile 4.1
AUDIO:
Codec                           Language        Bitrate         Description
-----                           --------        -------         -----------
DTS-HD Master Audio             English         2382 kbps       5.1 / 48 kHz / 2382 kbps / 24-bit (DTS Core: 5.1 / 48 kHz / 1509 kbps / 24-bit)
FILES:
Name            Time In         Length          Size            Total Bitrate
----            -------         ------          ----            -------------
00003.M2TS      0:00:00.000     0:00:39.164     129 398 784     26 432
CHAPTERS:
Number          Time In         Length          Avg Video Rate  Max 1-Sec Rate  Max 1-Sec Time  Max 5-Sec Rate  Max 5-Sec Time  Max 10Sec Rate  Max 10Sec Time  Avg Frame Size  Max Frame Size  Max Frame Time
------          -------         ------          --------------  --------------  --------------  --------------  --------------  --------------  --------------  --------------  --------------  --------------
1               0:00:00.000     0:00:10.719     19 904 kbps     41 621 kbps     00:00:03.378    32 718 kbps     00:00:03.461    21 311 kbps     00:00:00.709    103 367 bytes   451 175 bytes   00:00:09.300
2               0:00:10.719     0:00:05.255     9 276 kbps      20 018 kbps     00:00:11.094    9 738 kbps      00:00:10.969    0 kbps          00:00:00.000    48 360 bytes    423 277 bytes   00:00:14.597
3               0:00:15.974     0:00:10.510     27 764 kbps     41 219 kbps     00:00:20.562    31 067 kbps     00:00:16.224    29 150 kbps     00:00:15.974    144 748 bytes   341 117 bytes   00:00:20.812
4               0:00:26.484     0:00:11.594     28 715 kbps     38 045 kbps     00:00:27.193    31 801 kbps     00:00:27.193    30 960 kbps     00:00:27.193    149 709 bytes   312 272 bytes   00:00:27.610
5               0:00:38.079     0:00:01.084     121 kbps        131 kbps        00:00:38.079    0 kbps          00:00:00.000    0 kbps          00:00:00.000    685 bytes       11 695 bytes    00:00:38.121
STREAM DIAGNOSTICS:
File            PID             Type            Codec           Language                Seconds                 Bitrate                 Bytes           Packets
----            ---             ----            -----           --------                --------------          --------------          -------------   -----
00003.M2TS      4113 (0x1011)   0x1B            AVC                                     39,081                  22 696                  110 873 899     603 077
00003.M2TS      4352 (0x1100)   0x86            DTS-HD MA       eng (English)           39,081                  2 387                   11 658 764      69 526


QUICK SUMMARY:
Disc Title: Tesla - Five Man London Jam
Disc Size: 23 523 156 061 bytes
Protection: AACS
BD-Java: Yes
Playlist: 00002.MPLS
Size: 129 398 784 bytes
Length: 0:00:39.164
Total Bitrate: 26,43 Mbps
Video: MPEG-4 AVC Video / 22648 kbps / 1080p / 23,976 fps / 16:9 / High Profile 4.1
Audio: English / DTS-HD Master Audio / 5.1 / 48 kHz / 2382 kbps / 24-bit (DTS Core: 5.1 / 48 kHz / 1509 kbps / 24-bit)


Скриншоты

















                                                                                       
                       
                       
                       
                       
                       
                                磁力下载:
                                                               
                                       
游客,本主题需向作者支付 7音乐币 才能浏览,金币充值, 免回复、免金币,直接查看内容请开通VIP支付

                                               
  • 21.91 GB
  • 温馨提示

    记得善用社区搜索功能,那里可能会有你想要的资源;论坛站内搜索

    如果你有什么需要的资源可以去资源求档发帖,求助社区的网友,我们会在第一时间给你回复哦;资源求档

    对于本社区网盘链接失效密码错误各种报错请在反馈板块反馈报错发帖,您的支持,是我们发展的最大动力;投诉建议

    回复

    使用道具 举报

    您需要登录后才可以回帖 登录 | 立即注册 微信登录

    本版积分规则

    关注0

    粉丝12

    帖子69803

    发布主题
    阅读排行更多+
    关闭

    站长推荐上一条 /1 下一条

    收藏帖子 返回列表 这是一个自定义按钮
    音乐分享,音乐下载。
    微信公众号
    微信号:hires_
    意见反馈:admin@maomicd.com

    加入我们的官方QQ群和微信群

    Powered by Discuz! X3.4 Archiver|手机版|小黑屋|捌零音乐论坛 ( 苏ICP备20015413号 )|( 苏公网安备 32030502000272号) 繁體

    GMT+8, 2021-5-6 08:27