自购原抓音乐圈:只有自购、合购、原抓级高解析(hires、sacd、dsd)正版音乐资源分享!【点我打开
极速无线网卡:千兆无线网卡、服务器网卡、USB接口台式机笔记本网卡 硬盘代考无损音乐!【点我打开
广告

[摇滚] X Japan - Live Nippon Kouen 2018 ~Kurenai ni Somatta Yoru~ Makuhari Messe 3Days [2018, Heavy Metal, Visual Kei, HDTV, 1080i]

[复制链接]
韬199435 发表于 2021-4-13 15:34:02 | 显示全部楼层 |阅读模式 打印 上一主题 下一主题
X Japan - Live Nippon Kouen 2018 ~Kurenai ni Somatta Yoru~ Makuhari Messe 3Days
Жанр: Heavy Metal, Visual Kei
Продолжительность: 03:00:20
Год выпуска: 2018
Треклист:
1. Rusty Nail
2. Jade
3. Beneath the Skin
4. Hero
5. Drain
6. Hurry Go Round
7. Forever Love
8. La Venus
9. Kiss The Sky
10. I.V.
11. Kurenai (紅)
12. Week End
13. Endless Rain
14. Art of Life (Piano Solo)
15. Silent Jealousy
16. Born To Be Free
17. X
Качество: HDTV
Разрешение видео/развертка: 1080i
Контейнер: TS
Видео кодек: MPEG2
Аудио кодек: AAC
Видео: MPEG2, 1920x1080, 18.3 Mbps, 29.97 fps
Аудио: AAC LC, 192 kbps, 48 KHz, 2 ch
Отчёт MediaInfo / BDInfo

Общее
Идентификатор                            : 16432 (0x4030)
Полное имя                               : J:\X Japan\1811101800_【WOWOWプライム】【初】X JAPAN Live 日本公演 2018 ~紅に染まった夜~ Makuhari Messe 3Days.ts
Формат                                   : MPEG-TS
Размер файла                             : 24,0 Гбайт
Продолжительность                        : 3 ч. 0 м.
Режим общего битрейта                    : Переменный
Общий поток                              : 19,0 Мбит/сек
Минимальный общий битрейт                : 501 Кбит/сек
Максимальный общий битрейт               : 19,8 Мбит/сек
Видео
Идентификатор                            : 320 (0x140)
Идентификатор меню                       : 191 (0xBF)
Формат                                   : MPEG Video
Версия формата                           : Version 2
Профиль формата                          : Main@High
Настройки формата                        : CustomMatrix / BVOP
Параметр BVOP формата                    : Да
Параметр матрицы формата                 : Выборочная
Параметр GOP формата                     : M=3, N=15
Структура изображения                    : Frame
Идентификатор кодека                     : 2
Продолжительность                        : 3 ч. 0 м.
Вид битрейта                             : Переменный
Битрейт                                  : 18,3 Мбит/сек
Максимальный битрейт                     : 24,0 Мбит/сек
Ширина                                   : 1920 пикселей
Высота                                   : 1080 пикселей
Соотношение сторон                       : 16:9
Частота кадров                           : 29,970 (30000/1001) кадров/сек
Цветовое пространство                    : YUV
Субдискретизация насыщенности            : 4:2:0
Битовая глубина                          : 8 бит
Тип развёртки                            : Чересстрочная
Порядок развёртки                        : Верхнее поле первое
Метод сжатия                             : С потерями
Бит/(Пиксели*Кадры)                      : 0.295
Временной код первого кадра              : 10:41:03:13
Оригинал временного кода                 : Group of pictures header
GOP, открыто/закрыто                     : Открыто
Размер потока                            : 23,1 Гбайт (96%)
Основные цвета                           : BT.709
Характеристики трансфера                 : BT.709
Коэффициенты матрицы                     : BT.709
Аудио
Идентификатор                            : 321 (0x141)
Идентификатор меню                       : 191 (0xBF)
Формат                                   : AAC LC
Формат/Информация                        : Advanced Audio Codec Low Complexity
Версия формата                           : Version 2
Режим смешивания                         : ADTS
Идентификатор кодека                     : 15-2
Продолжительность                        : 3 ч. 0 м.
Вид битрейта                             : Переменный
Битрейт                                  : 192 Кбит/сек
Минимальный битрейт                      : 7500 бит/сек
Максимальный битрейт                     : 358 Кбит/сек
Каналы                                   : 2 канала
ChannelLayout                            : L R
Частота                                  : 48,0 КГц
Частота кадров                           : 46,875 кадров/сек (1024 SPF)
Метод сжатия                             : С потерями
Задержка видео                           : -270 мс.
Размер потока                            : 248 Мбайт (1%)
Текст #1
Идентификатор                            : 325 (0x145)-1
Идентификатор меню                       : 191 (0xBF)
Формат                                   : ARIB STD B24/B37
Профиль формата                          : HD side panel
Режим смешивания                         : CCIS
Идентификатор кодека                     : 6
Вид битрейта                             : Постоянный
Размер потока                            : 0,00 байт (0%)
Язык                                     : Japanese
Encryption                               : Encrypted
Текст #2
Идентификатор                            : 325 (0x145)-2
Идентификатор меню                       : 191 (0xBF)
Формат                                   : ARIB STD B24/B37
Профиль формата                          : HD side panel
Режим смешивания                         : CCIS
Идентификатор кодека                     : 6
Вид битрейта                             : Постоянный
Размер потока                            : 0,00 байт (0%)
Язык                                     : English
Encryption                               : Encrypted


Скриншоты











                                                                                       
                       
                       
                       
                       
                       
                                磁力下载:(论坛代下载服务)
                                                               
                                       
游客,本主题需向作者支付 7音乐币 才能浏览,金币充值, 免回复、免金币,直接查看内容请开通VIP支付

                                               
  • 23.97 GB
  • 温馨提示

    记得善用社区搜索功能,那里可能会有你想要的资源;论坛站内搜索

    如果你有什么需要的资源可以去资源求档发帖,求助社区的网友,我们会在第一时间给你回复哦;资源求档

    对于本社区网盘链接失效密码错误各种报错请在反馈板块反馈报错发帖,您的支持,是我们发展的最大动力;投诉建议

    回复

    使用道具 举报

    您需要登录后才可以回帖 登录 | 立即注册 微信登录

    本版积分规则

    关注0

    粉丝0

    帖子30176

    发布主题
    阅读排行更多+
    关闭

    站长推荐上一条 /1 下一条

    收藏帖子 返回列表 这是一个自定义按钮
    音乐分享,音乐下载。
    微信公众号
    微信号:hires_
    意见反馈:admin@maomicd.com

    加入我们的官方QQ群和微信群

    Powered by Discuz! X3.4 Archiver|手机版|小黑屋|捌零音乐论坛 ( 苏ICP备20015413号 )|( 苏公网安备 32030502000272号) 繁體

    GMT+8, 2021-5-8 23:41