自购原抓音乐圈:只有自购、合购、原抓级高解析(hires、sacd、dsd)正版音乐资源分享!【点我打开
极速无线网卡:千兆无线网卡、服务器网卡、USB接口台式机笔记本网卡 硬盘代考无损音乐!【点我打开
广告

[摇滚] Queen + - Freddie Mercury Tribute Concert (1992) [2013, Rock, Blu-ray]

[复制链接]
全球搬运 发表于 2021-4-13 15:34:02 | 显示全部楼层 |阅读模式 打印 上一主题 下一主题
Queen + - Freddie Mercury Tribute Concert (1992) Blu-Ray (1080i)
Жанр: Rock
Продолжительность: 03:10 / 00:56
Год выпуска: 2013
Описание: The Freddie Mercury Tribute Concert for AIDS Awareness (Концерт памяти Фредди Меркьюри для информирования о СПИДе) - концерт состоялся под открытым небом в пасхальный понедельник, 20 Апреля 1992 года, на стадионе «Уэмбли» в Лондоне, с аудиторией в 72 000 человек. Концерт был спродюсирован для телевидения Рэйем Бардисом и транслировался в прямом эфире по телевидению и радио в 76 странах по всему миру. Концерт был данью жизни покойного фронтмена группы Queen, Фрэдди Меркьюри, с целью отправить все вырученные средства на исследования СПИДа. Также это шоу стало заключительным выступлением басиста Джона Дикона в составе Queen (кроме одного выступления с Брайаном Мэем, Роджером Тейлором и Элтоном Джоном в 1997 году). Прибыль от концерта была использована для запуска Mercury Phoenix Trust - благотворительной организации по борьбе со СПИДом
Track list
Opening Acts
Intro
Brian May, Roger Taylor, John Deacon Introduction
Enter Sandman - Metallica
Sad But True - Metallica
Nothing Else Matters - Metallica
Freddie Mercury montage
Queen Medley: Mustapha / Bohemian Rhapsody / Keep Yourself Alive / I Want to Break Free / Fat Bottomed Girls / Bicycle Race / Another One Bites the Dust / Stone Cold Crazy / Radio Ga-Ga – Extreme
Freddie Mercury montage
Now I’m Here - Def Leppard and Brian May
Video: I’m Going Slightly Mad - Queen
Too Late God - Bob Geldof
Paradise City - Guns N’ Roses
Knocking on Heaven’s Door - Guns N’ Roses
Speech by Elizabeth Taylor
• Main Set by Queen +
Tie Your Mother Down - Joe Elliott, Slash and Queen
I Want It All - Roger Daltrey, Tony Iommi and Queen
Las Palabras de Amor - Zucchero and Queen
Hammer to Fall - Gary Cherone, Tony Iommi and Queen
Stone Cold Crazy - James Hetfield, Tony Iommi and Queen
Crazy Little Thing Called Love - Robert Plant and Queen
Too Much Love Will Kill You - Brian May
Radio Ga Ga - Paul Young and Queen
Who Wants to Live Forever - Seal and Queen
I Want to Break Free - Lisa Stansfield and Queen
Under Pressure - David Bowie, Annie Lennox and Queen
All the Young Dudes - Ian Hunter, David Bowie, Mick Ronson and Queen
Heroes - David Bowie, Mick Ronson and Queen
’39 - George Michael and Queen
These Are the Days Of Our Lives - George Michael, Lisa Stansfield and Queen
Somebody to Love - George Michael, London Gospel Choir and Queen
Bohemian Rhapsody - Elton John, Axl Rose and Queen
The Show Must Go On - Elton John, Tony Iommi and Queen
We Will Rock You - Axl Rose and Queen
We Are the Champions - Liza Minnelli and Ensemble
Бонус:
• Rehearsal Performances
- Under Pressure - David Bowie and Annie Lennox
- These Are the Days of Our Lives - George Michael and Lisa Stansfield
- Somebody to Love - George Michael
• 10th Anniversary Documentary
• Photo Galleries
• Mercury Phoenix Trust Facts
Качество: Blu-ray
Контейнер: M2TS
Видео: MPEG-4 AVC, 20127 Кбит/с, 1920x1080, 29.970 кадр/с
Аудио 1: LPCM / 2.0 / 48 kHz / 1536 kbps / 16-bit
Аудио 2: DTS-HD High-Res Audio / 5.1 / 48 kHz / 2046 kbps / 24-bit (DTS Core: 5.1 / 48 kHz / 1509 kbps / 24-bit)
Отчёт MediaInfo / BDInfo

Disc Title:     FR_MER_TR_CON_BD_BLUEBIRD
Disc Size:      48 508 232 113 bytes
Protection:     AACS
BD-Java:        No
BDInfo:         0.5.8
Notes:
BDINFO HOME:
  Cinema Squid
    http://www.cinemasquid.com/blu-ray/tools/bdinfo
INCLUDES FORUMS REPORT FOR:
  AVS Forum Blu-ray Audio and Video Specifications Thread
    http://www.avsforum.com/avs-vb/showthread.php?t=1155731
********************
PLAYLIST: 00000.MPLS
********************

Код:

                                                                                Total   Video
Title                                                           Codec   Length  Movie Size      Disc Size       Bitrate Bitrate Main Audio Track                          Secondary Audio Track
-----                                                           ------  ------- --------------  --------------  ------- ------- ------------------                        ---------------------
00000.MPLS                                                      AVC     3:10:00 35 948 919 552  48 508 232 113  25,23   20,13   LPCM 2.0 1536Kbps (48kHz/16-bit)          DTS-HD Hi-Res 5.1 2046Kbps (48kHz/24-bit)

Код:
DISC INFO:
Disc Title:     FR_MER_TR_CON_BD_BLUEBIRD
Disc Size:      48 508 232 113 bytes
Protection:     AACS
BD-Java:        No
BDInfo:         0.5.8
PLAYLIST REPORT:
Name:                   00000.MPLS
Length:                 3:10:00.388 (h:m:s.ms)
Size:                   35 948 919 552 bytes
Total Bitrate:          25,23 Mbps
VIDEO:
Codec                   Bitrate             Description
-----                   -------             -----------
MPEG-4 AVC Video        20127 kbps          1080i / 29,970 fps / 16:9 / High Profile 4.1
AUDIO:
Codec                           Language        Bitrate         Description
-----                           --------        -------         -----------
LPCM Audio                      English         1536 kbps       2.0 / 48 kHz / 1536 kbps / 16-bit
DTS-HD High-Res Audio           English         2046 kbps       5.1 / 48 kHz / 2046 kbps / 24-bit (DTS Core: 5.1 / 48 kHz / 1509 kbps / 24-bit)
FILES:
Name            Time In         Length          Size            Total Bitrate
----            -------         ------          ----            -------------
00000.M2TS      0:00:00.000     1:23:49.391     15 966 477 696  25 397
00001.M2TS      1:23:49.391     1:46:09.996     19 982 411 136  25 096
00020.M2TS      3:09:59.387     0:00:01.000     30 720          246
CHAPTERS:
Number          Time In         Length          Avg Video Rate  Max 1-Sec Rate  Max 1-Sec Time  Max 5-Sec Rate  Max 5-Sec Time  Max 10Sec Rate  Max 10Sec Time  Avg Frame Size  Max Frame Size  Max Frame Time
------          -------         ------          --------------  --------------  --------------  --------------  --------------  --------------  --------------  --------------  --------------  --------------
1               0:00:00.000     0:02:12.398     20 445 kbps     28 902 kbps     00:01:14.941    25 274 kbps     00:00:58.858    24 209 kbps     00:00:58.758    85 251 bytes    251 046 bytes   00:02:02.922
2               0:02:12.398     0:01:15.308     17 950 kbps     27 640 kbps     00:02:32.418    25 400 kbps     00:02:23.776    23 898 kbps     00:02:18.471    74 866 bytes    273 728 bytes   00:02:43.296
3               0:03:27.707     0:00:14.314     15 348 kbps     19 088 kbps     00:03:41.020    16 562 kbps     00:03:37.016    15 399 kbps     00:03:32.011    64 012 bytes    257 188 bytes   00:03:41.854
4               0:03:42.021     0:05:29.829     20 018 kbps     35 016 kbps     00:04:43.983    27 992 kbps     00:04:41.147    24 398 kbps     00:04:36.542    83 491 bytes    287 483 bytes   00:04:04.310
5               0:09:11.851     0:05:29.162     19 572 kbps     42 015 kbps     00:12:02.888    28 929 kbps     00:12:00.086    23 804 kbps     00:12:34.386    81 629 bytes    335 736 bytes   00:12:02.922
6               0:14:41.013     0:06:16.743     19 289 kbps     40 888 kbps     00:16:48.240    38 184 kbps     00:16:48.040    33 736 kbps     00:16:48.040    80 451 bytes    362 536 bytes   00:16:50.009
7               0:20:57.756     0:07:19.205     25 497 kbps     37 139 kbps     00:22:40.225    33 467 kbps     00:22:36.288    32 140 kbps     00:27:35.420    106 345 bytes   286 221 bytes   00:20:59.625
8               0:28:16.961     0:00:58.591     14 492 kbps     27 238 kbps     00:28:22.267    20 197 kbps     00:28:18.263    17 914 kbps     00:28:21.299    60 444 bytes    265 692 bytes   00:28:59.404
9               0:29:15.553     0:00:23.123     16 707 kbps     21 470 kbps     00:29:33.304    20 498 kbps     00:29:29.400    18 243 kbps     00:29:26.331    69 682 bytes    291 815 bytes   00:29:34.239
10              0:29:38.676     0:00:47.080     15 956 kbps     22 528 kbps     00:29:57.395    19 212 kbps     00:29:57.362    17 602 kbps     00:29:57.328    66 550 bytes    228 922 bytes   00:30:23.788
11              0:30:25.757     0:01:41.034     18 889 kbps     31 160 kbps     00:32:00.184    25 110 kbps     00:30:38.203    22 836 kbps     00:31:53.511    78 784 bytes    315 027 bytes   00:30:29.527
12              0:32:06.791     0:01:32.525     18 993 kbps     31 185 kbps     00:33:36.314    29 251 kbps     00:33:34.212    22 711 kbps     00:33:29.307    79 218 bytes    345 697 bytes   00:32:59.277
13              0:33:39.317     0:00:24.290     19 492 kbps     29 592 kbps     00:33:53.464    22 644 kbps     00:33:49.627    20 595 kbps     00:33:44.589    81 297 bytes    335 622 bytes   00:33:53.498
14              0:34:03.608     0:00:41.908     16 845 kbps     23 746 kbps     00:34:10.915    19 375 kbps     00:34:10.915    18 603 kbps     00:34:10.915    70 256 bytes    275 296 bytes   00:34:13.451
15              0:34:45.516     0:01:40.834     19 443 kbps     31 286 kbps     00:35:14.378    25 573 kbps     00:35:12.777    24 136 kbps     00:35:14.378    81 092 bytes    263 790 bytes   00:35:08.940
16              0:36:26.350     0:00:28.561     22 493 kbps     29 110 kbps     00:36:31.189    26 916 kbps     00:36:34.959    24 777 kbps     00:36:29.820    93 813 bytes    278 099 bytes   00:36:51.209
17              0:36:54.912     0:00:37.537     18 830 kbps     28 256 kbps     00:36:55.112    22 226 kbps     00:36:54.979    20 851 kbps     00:37:20.338    78 535 bytes    319 530 bytes   00:36:55.146
18              0:37:32.450     0:00:42.942     20 055 kbps     32 659 kbps     00:37:58.409    24 499 kbps     00:37:36.854    22 112 kbps     00:37:32.483    83 648 bytes    283 058 bytes   00:37:59.343
19              0:38:15.393     0:02:53.840     20 590 kbps     34 106 kbps     00:39:21.959    29 531 kbps     00:40:05.102    27 748 kbps     00:40:00.264    85 876 bytes    314 666 bytes   00:39:22.393
20              0:41:09.233     0:01:36.930     19 797 kbps     35 735 kbps     00:42:44.995    26 280 kbps     00:42:22.106    24 001 kbps     00:42:36.086    82 572 bytes    327 652 bytes   00:41:51.709
21              0:42:46.163     0:07:43.429     23 048 kbps     34 788 kbps     00:42:51.101    29 874 kbps     00:42:59.743    28 634 kbps     00:43:09.420    96 129 bytes    270 762 bytes   00:42:46.997
22              0:50:29.593     0:01:12.338     16 418 kbps     25 171 kbps     00:50:37.801    19 224 kbps     00:50:34.064    18 642 kbps     00:51:31.855    68 478 bytes    218 150 bytes   00:50:38.769
23              0:51:41.932     0:05:07.974     19 599 kbps     33 733 kbps     00:51:58.648    27 407 kbps     00:51:54.978    23 898 kbps     00:51:51.641    81 744 bytes    287 539 bytes   00:52:24.841
24              0:56:49.906     0:02:21.040     23 230 kbps     28 032 kbps     00:57:31.948    27 120 kbps     00:57:43.860    26 139 kbps     00:57:08.825    96 889 bytes    234 340 bytes   00:56:51.574
25              0:59:10.947     0:01:05.799     15 734 kbps     25 761 kbps     00:59:31.100    18 894 kbps     00:59:31.100    17 425 kbps     00:59:30.366    65 623 bytes    230 799 bytes   00:59:11.915
26              1:00:16.746     0:02:39.526     17 803 kbps     27 162 kbps     01:02:50.299    24 672 kbps     01:02:49.766    22 475 kbps     01:02:24.574    74 253 bytes    297 232 bytes   01:02:55.404
27              1:02:56.272     0:00:33.333     22 731 kbps     29 098 kbps     01:03:12.588    27 231 kbps     01:03:07.216    26 097 kbps     01:03:06.983    94 805 bytes    290 297 bytes   01:03:00.376
28              1:03:29.605     0:06:14.340     20 503 kbps     35 004 kbps     01:09:23.159    28 544 kbps     01:09:23.125    26 767 kbps     01:09:20.656    85 514 bytes    289 214 bytes   01:08:38.781
29              1:09:43.946     0:01:28.121     19 127 kbps     26 948 kbps     01:10:00.863    25 426 kbps     01:09:58.961    22 964 kbps     01:09:58.894    79 774 bytes    290 838 bytes   01:10:47.977
30              1:11:12.067     0:07:23.409     20 446 kbps     30 561 kbps     01:18:15.624    25 344 kbps     01:14:27.129    24 471 kbps     01:13:27.102    85 277 bytes    303 187 bytes   01:17:51.566
31              1:18:35.477     0:05:13.913     17 555 kbps     31 784 kbps     01:22:40.622    29 052 kbps     01:22:37.185    25 330 kbps     01:22:34.582    73 227 bytes    294 893 bytes   01:22:38.286
32              1:23:49.391     0:01:31.091     21 758 kbps     34 090 kbps     01:24:04.973    31 117 kbps     01:24:05.006    28 757 kbps     01:24:03.972    90 750 bytes    242 486 bytes   01:24:06.040
33              1:25:20.482     0:04:38.378     19 590 kbps     27 203 kbps     01:29:08.810    26 035 kbps     01:28:59.767    24 382 kbps     01:28:54.762    81 705 bytes    234 171 bytes   01:28:59.300
34              1:29:58.860     0:00:43.510     18 028 kbps     22 963 kbps     01:30:37.131    21 560 kbps     01:30:33.127    20 141 kbps     01:30:31.526    75 193 bytes    216 166 bytes   01:30:06.534
35              1:30:42.370     0:00:26.860     21 579 kbps     27 220 kbps     01:30:48.176    24 831 kbps     01:30:47.975    23 044 kbps     01:30:45.373    90 001 bytes    212 725 bytes   01:30:43.871
36              1:31:09.230     0:05:35.601     21 806 kbps     36 938 kbps     01:34:51.252    30 324 kbps     01:34:47.681    28 597 kbps     01:31:37.124    90 949 bytes    301 237 bytes   01:34:52.219
37              1:36:44.832     0:05:01.434     19 196 kbps     29 392 kbps     01:37:09.490    25 460 kbps     01:41:04.358    25 229 kbps     01:41:04.658    80 063 bytes    251 207 bytes   01:40:07.668
38              1:41:46.266     0:04:50.056     23 068 kbps     30 859 kbps     01:41:53.140    28 912 kbps     01:44:02.202    27 449 kbps     01:44:00.300    96 214 bytes    266 413 bytes   01:42:29.776
39              1:46:36.323     0:02:53.439     20 169 kbps     26 700 kbps     01:48:39.412    23 520 kbps     01:48:35.575    23 046 kbps     01:48:30.237    84 123 bytes    258 578 bytes   01:46:44.798
40              1:49:29.763     0:01:41.034     19 008 kbps     24 207 kbps     01:50:19.879    22 157 kbps     01:50:56.049    21 569 kbps     01:50:51.678    79 281 bytes    223 313 bytes   01:50:09.369
41              1:51:10.797     0:04:46.119     22 600 kbps     33 801 kbps     01:53:18.091    29 623 kbps     01:53:15.021    28 037 kbps     01:54:47.814    94 262 bytes    306 150 bytes   01:54:54.821
42              1:55:56.916     0:04:22.929     14 212 kbps     23 317 kbps     02:00:18.177    19 393 kbps     02:00:14.740    18 061 kbps     01:59:57.924    59 275 bytes    257 827 bytes   02:00:17.343
43              2:00:19.845     0:06:49.675     22 241 kbps     36 144 kbps     02:03:50.523    31 100 kbps     02:05:49.174    27 500 kbps     02:02:19.765    92 763 bytes    356 604 bytes   02:03:57.730
44              2:07:09.521     0:04:24.998     15 878 kbps     29 754 kbps     02:11:19.404    28 191 kbps     02:11:16.034    25 830 kbps     02:11:13.165    66 223 bytes    257 492 bytes   02:11:19.972
45              2:11:34.519     0:04:45.551     21 473 kbps     33 356 kbps     02:15:15.974    29 501 kbps     02:15:12.871    26 606 kbps     02:15:07.833    89 561 bytes    277 866 bytes   02:16:14.032
46              2:16:20.071     0:05:49.248     19 890 kbps     31 246 kbps     02:20:12.570    25 901 kbps     02:16:23.141    23 991 kbps     02:16:26.378    82 959 bytes    319 697 bytes   02:20:38.396
47              2:22:09.320     0:04:03.509     19 894 kbps     29 266 kbps     02:25:51.275    26 681 kbps     02:25:48.106    24 898 kbps     02:25:43.868    82 975 bytes    284 982 bytes   02:26:00.251
48              2:26:12.830     0:06:19.245     18 225 kbps     31 931 kbps     02:31:46.464    25 328 kbps     02:31:42.526    24 315 kbps     02:31:41.959    76 012 bytes    313 402 bytes   02:31:04.388
49              2:32:32.076     0:02:34.687     20 084 kbps     27 747 kbps     02:33:26.697    25 996 kbps     02:34:17.247    24 619 kbps     02:34:15.546    83 766 bytes    242 843 bytes   02:34:28.726
50              2:35:06.764     0:06:14.340     20 099 kbps     29 648 kbps     02:35:12.970    25 676 kbps     02:35:10.300    24 841 kbps     02:35:25.816    83 828 bytes    300 289 bytes   02:40:57.481
51              2:41:21.104     0:05:19.585     21 889 kbps     33 550 kbps     02:44:39.569    30 336 kbps     02:44:42.339    29 186 kbps     02:44:38.301    91 295 bytes    297 259 bytes   02:41:22.939
52              2:46:40.690     0:06:05.531     19 612 kbps     30 674 kbps     02:50:15.972    27 685 kbps     02:50:29.285    26 754 kbps     02:50:14.737    81 800 bytes    269 903 bytes   02:47:12.822
53              2:52:46.222     0:04:31.404     20 151 kbps     29 140 kbps     02:54:05.535    27 459 kbps     02:54:03.733    24 552 kbps     02:54:02.698    84 046 bytes    291 573 bytes   02:54:57.119
54              2:57:17.626     0:03:20.200     21 815 kbps     34 452 kbps     02:58:02.471    28 215 kbps     02:58:02.405    27 246 kbps     02:57:22.365    90 987 bytes    303 382 bytes   02:58:02.638
55              3:00:37.826     0:06:45.805     21 577 kbps     32 520 kbps     03:03:14.216    31 067 kbps     03:03:13.482    29 343 kbps     03:03:08.577    89 995 bytes    321 385 bytes   03:03:07.843
56              3:07:23.632     0:02:35.755     10 635 kbps     34 539 kbps     03:07:39.848    32 882 kbps     03:07:56.898    31 432 kbps     03:07:53.328    44 376 bytes    235 417 bytes   03:07:39.948
57              3:09:59.387     0:00:01.001     111 kbps        0 kbps          00:00:00.000    0 kbps          00:00:00.000    0 kbps          00:00:00.000    478 bytes       2 439 bytes     03:09:59.988
STREAM DIAGNOSTICS:
File            PID             Type            Codec           Language                Seconds                 Bitrate                 Bytes           Packets
----            ---             ----            -----           --------                --------------          --------------          -------------   -----
00000.M2TS      4113 (0x1011)   0x1B            AVC                                     5029,291                20 289                  12 755 120 619  69 410 804
00000.M2TS      4352 (0x1100)   0x80            LPCM            eng (English)           5029,291                1 542                   969 666 392     6 035 268
00000.M2TS      4353 (0x1101)   0x85            DTS-HD HR       eng (English)           5029,291                2 046                   1 286 265 640   7 544 080
00001.M2TS      4113 (0x1011)   0x1B            AVC                                     6369,930                20 002                  15 926 728 393  86 671 666
00001.M2TS      4352 (0x1100)   0x80            LPCM            eng (English)           6369,930                1 542                   1 228 136 964   7 644 006
00001.M2TS      4353 (0x1101)   0x85            DTS-HD HR       eng (English)           6369,930                2 044                   1 627 593 000   9 546 000
00020.M2TS      4113 (0x1011)   0x1B            AVC                                     0,901                   145                     16 302          112


QUICK SUMMARY:
Disc Title: FR_MER_TR_CON_BD_BLUEBIRD
Disc Size: 48 508 232 113 bytes
Protection: AACS
BD-Java: No
Playlist: 00000.MPLS
Size: 35 948 919 552 bytes
Length: 3:10:00.388
Total Bitrate: 25,23 Mbps
Video: MPEG-4 AVC Video / 20127 kbps / 1080i / 29,970 fps / 16:9 / High Profile 4.1
Audio: English / LPCM Audio / 2.0 / 48 kHz / 1536 kbps / 16-bit
Audio: English / DTS-HD High-Res Audio / 5.1 / 48 kHz / 2046 kbps / 24-bit (DTS Core: 5.1 / 48 kHz / 1509 kbps / 24-bit)
Disc Title:     FR_MER_TR_CON_BD_BLUEBIRD
Disc Size:      48 508 232 113 bytes
Protection:     AACS
BD-Java:        No
BDInfo:         0.5.8
Notes:
BDINFO HOME:
  Cinema Squid
    http://www.cinemasquid.com/blu-ray/tools/bdinfo
INCLUDES FORUMS REPORT FOR:
  AVS Forum Blu-ray Audio and Video Specifications Thread
    http://www.avsforum.com/avs-vb/showthread.php?t=1155731
********************
PLAYLIST: 00003.MPLS
********************

Код:

                                                                                Total   Video
Title                                                           Codec   Length  Movie Size      Disc Size       Bitrate Bitrate Main Audio Track                          Secondary Audio Track
-----                                                           ------  ------- --------------  --------------  ------- ------- ------------------                        ---------------------
00003.MPLS                                                      AVC     0:56:44 8 831 066 112   48 508 232 113  20,75   17,93   LPCM 2.0 1536Kbps (48kHz/16-bit)

Код:
DISC INFO:
Disc Title:     FR_MER_TR_CON_BD_BLUEBIRD
Disc Size:      48 508 232 113 bytes
Protection:     AACS
BD-Java:        No
BDInfo:         0.5.8
PLAYLIST REPORT:
Name:                   00003.MPLS
Length:                 0:56:44.667 (h:m:s.ms)
Size:                   8 831 066 112 bytes
Total Bitrate:          20,75 Mbps
VIDEO:
Codec                   Bitrate             Description
-----                   -------             -----------
MPEG-4 AVC Video        17931 kbps          1080i / 29,970 fps / 16:9 / High Profile 4.1
AUDIO:
Codec                           Language        Bitrate         Description
-----                           --------        -------         -----------
LPCM Audio                      English         1536 kbps       2.0 / 48 kHz / 1536 kbps / 16-bit
SUBTITLES:
Codec                           Language        Bitrate         Description
-----                           --------        -------         -----------
Presentation Graphics           English         23,492 kbps
Presentation Graphics           German          24,077 kbps
Presentation Graphics           Spanish         22,618 kbps
Presentation Graphics           French          23,157 kbps
Presentation Graphics           Italian         21,710 kbps
FILES:
Name            Time In         Length          Size            Total Bitrate
----            -------         ------          ----            -------------
00013.M2TS      0:00:00.000     0:00:16.649     15 544 320      7 469
00002.M2TS      0:00:16.649     0:56:28.017     8 815 521 792   20 816
CHAPTERS:
Number          Time In         Length          Avg Video Rate  Max 1-Sec Rate  Max 1-Sec Time  Max 5-Sec Rate  Max 5-Sec Time  Max 10Sec Rate  Max 10Sec Time  Avg Frame Size  Max Frame Size  Max Frame Time
------          -------         ------          --------------  --------------  --------------  --------------  --------------  --------------  --------------  --------------  --------------  --------------
1               0:00:00.000     0:00:16.649     7 075 kbps      27 913 kbps     00:00:00.967    9 667 kbps      00:00:00.900    7 199 kbps      00:00:00.900    29 448 bytes    380 615 bytes   00:00:08.008
2               0:00:16.649     0:00:35.869     14 035 kbps     18 932 kbps     00:00:50.984    16 651 kbps     00:00:27.660    16 308 kbps     00:00:27.460    58 536 bytes    250 351 bytes   00:00:51.885
3               0:00:52.519     0:07:19.338     18 348 kbps     34 207 kbps     00:02:47.100    30 671 kbps     00:02:45.665    27 460 kbps     00:02:40.760    76 528 bytes    320 276 bytes   00:03:08.521
4               0:08:11.858     0:10:19.352     18 700 kbps     32 876 kbps     00:17:11.263    28 482 kbps     00:11:49.275    27 438 kbps     00:11:45.905    77 995 bytes    329 196 bytes   00:12:41.460
5               0:18:31.210     0:05:27.327     16 497 kbps     33 093 kbps     00:21:55.380    25 682 kbps     00:20:28.994    25 449 kbps     00:20:23.855    68 807 bytes    311 241 bytes   00:23:57.702
6               0:23:58.537     0:10:14.180     16 302 kbps     33 607 kbps     00:30:55.920    27 615 kbps     00:30:52.483    24 814 kbps     00:30:53.384    67 994 bytes    364 201 bytes   00:30:44.075
7               0:34:12.717     0:06:18.811     19 009 kbps     33 027 kbps     00:39:04.775    26 579 kbps     00:37:25.176    24 345 kbps     00:37:21.172    79 285 bytes    301 916 bytes   00:34:47.118
8               0:40:31.529     0:07:49.869     17 408 kbps     36 049 kbps     00:41:50.541    27 042 kbps     00:46:40.197    26 321 kbps     00:41:15.840    72 606 bytes    310 581 bytes   00:45:48.512
9               0:48:21.398     0:08:23.269     19 857 kbps     38 094 kbps     00:51:03.693    29 514 kbps     00:51:03.593    28 207 kbps     00:51:03.693    82 826 bytes    371 289 bytes   00:54:30.333
STREAM DIAGNOSTICS:
File            PID             Type            Codec           Language                Seconds                 Bitrate                 Bytes           Packets
----            ---             ----            -----           --------                --------------          --------------          -------------   -----
00013.M2TS      4113 (0x1011)   0x1B            AVC                                     16,517                  7 131                   14 721 630      80 307
00013.M2TS      4608 (0x1200)   0x90            PGS             eng (English)           16,517                  1                       1 490           15
00013.M2TS      4609 (0x1201)   0x90            PGS             deu (German)            16,517                  1                       1 490           15
00013.M2TS      4610 (0x1202)   0x90            PGS             spa (Spanish)           16,517                  1                       1 490           15
00013.M2TS      4611 (0x1203)   0x90            PGS             fra (French)            16,517                  1                       1 490           15
00013.M2TS      4612 (0x1204)   0x90            PGS             ita (Italian)           16,517                  1                       1 490           15
00002.M2TS      4113 (0x1011)   0x1B            AVC                                     3387,918                17 985                  7 616 600 339   41 453 988
00002.M2TS      4352 (0x1100)   0x80            LPCM            eng (English)           3387,918                1 542                   653 211 220     4 065 630
00002.M2TS      4608 (0x1200)   0x90            PGS             eng (English)           3387,918                24                      9 996 374       57 211
00002.M2TS      4609 (0x1201)   0x90            PGS             deu (German)            3387,918                24                      10 245 414      58 684
00002.M2TS      4610 (0x1202)   0x90            PGS             spa (Spanish)           3387,918                23                      9 624 439       55 374
00002.M2TS      4611 (0x1203)   0x90            PGS             fra (French)            3387,918                23                      9 853 608       56 570
00002.M2TS      4612 (0x1204)   0x90            PGS             ita (Italian)           3387,918                22                      9 237 779       53 192


QUICK SUMMARY:
Disc Title: FR_MER_TR_CON_BD_BLUEBIRD
Disc Size: 48 508 232 113 bytes
Protection: AACS
BD-Java: No
Playlist: 00003.MPLS
Size: 8 831 066 112 bytes
Length: 0:56:44.667
Total Bitrate: 20,75 Mbps
Video: MPEG-4 AVC Video / 17931 kbps / 1080i / 29,970 fps / 16:9 / High Profile 4.1
Audio: English / LPCM Audio / 2.0 / 48 kHz / 1536 kbps / 16-bit
Subtitle: English / 23,492 kbps
Subtitle: German / 24,077 kbps
Subtitle: Spanish / 22,618 kbps
Subtitle: French / 23,157 kbps
Subtitle: Italian / 21,710 kbps


Скриншоты












                                                                                       
                       
                       
                       
                       
                       
                                磁力下载:(论坛代下载服务)
                                                               
                                       
游客,本主题需向作者支付 7音乐币 才能浏览,金币充值, 免回复、免金币,直接查看内容请开通VIP支付

                                               
  • 45.18 GB
  • 温馨提示

    记得善用社区搜索功能,那里可能会有你想要的资源;论坛站内搜索

    如果你有什么需要的资源可以去资源求档发帖,求助社区的网友,我们会在第一时间给你回复哦;资源求档

    对于本社区网盘链接失效密码错误各种报错请在反馈板块反馈报错发帖,您的支持,是我们发展的最大动力;投诉建议

    回复

    使用道具 举报

    您需要登录后才可以回帖 登录 | 立即注册 微信登录

    本版积分规则

    关注0

    粉丝12

    帖子69803

    发布主题
    阅读排行更多+
    关闭

    站长推荐上一条 /1 下一条

    收藏帖子 返回列表 这是一个自定义按钮
    音乐分享,音乐下载。
    微信公众号
    微信号:hires_
    意见反馈:admin@maomicd.com

    加入我们的官方QQ群和微信群

    Powered by Discuz! X3.4 Archiver|手机版|小黑屋|捌零音乐论坛 ( 苏ICP备20015413号 )|( 苏公网安备 32030502000272号) 繁體

    GMT+8, 2021-5-8 23:26