自购原抓音乐圈:只有自购、合购、原抓级高解析(hires、sacd、dsd)正版音乐资源分享!【点我打开
极速无线网卡:千兆无线网卡、服务器网卡、USB接口台式机笔记本网卡 硬盘代考无损音乐!【点我打开
广告

[摇滚] Def Leppard ★ Hysteria At The O2 2018 [2020, Rock, Blu-ray, 1080p]

[复制链接]
kayda 发表于 2021-4-13 15:34:02 | 显示全部楼层 |阅读模式 打印 上一主题 下一主题
7 дней на раздаче!


Def Leppard
Hysteria At The O2 2018
Жанр: Rock
Продолжительность: 01:39:35+ 00:11:26
Год выпуска: 29 May 2020
Лейбл: Eaglevision Europe
ASIN: B0851MYZH301. INTRO
02. WOMEN
03. ROCKET
04. ANIMAL
05. LOVE BITES
06. POUR SOME SUGAR ON ME
07. ARMAGEDDON IT
08. STEPHEN CLARK TRIBUTE
09. GODS OF WAR
10. DON'T SHOOT SHOTGUN
11. RUN RIOT
12. HYSTERIA
13. EXCITABLE
14. LOVE AND AFFECTION
15. WASTED
16. WHEN LOVE AND HATE COLLIDE
17. LET'S GET ROCKED
18. ROCK OF AGES
19. PHOTOGRAPH
Hysteria: Then & NowКачество: Blu-ray
Разрешение видео/развертка: 1080p
Контейнер: BDMV
Видео кодек: MPEG-4 AVC Video
Аудио кодек: DTS-HD, PCM
Видео: MPEG-4 AVC Video / 34985 kbps / 1080p / 23.976 fps / 16:9 / High Profile 4.1
Аудио 1: English / LPCM Audio / 2.0 / 48 kHz / 2304 kbps / 24-bit
Аудио 2: English / DTS-HD Master Audio / 5.1 / 48 kHz / 5276 kbps / 24-bit (DTS Core: 5.1 / 48 kHz / 1509 kbps / 24-bit)
Отчёт MediaInfo / BDInfo

Disc Title:     Def Leppard - Hysteria At The O2
Disc Label:     Def Leppard - Hysteria At The O2 2018 (Blu-ray)
Disc Size:      37,348,509,346 bytes
Protection:     AACS
BDInfo:         0.7.5.5
Notes:
BDINFO HOME:
  Cinema Squid (old)
    http://www.cinemasquid.com/blu-ray/tools/bdinfo
  UniqProject GitHub (new)
   https://github.com/UniqProject/BDInfo
INCLUDES FORUMS REPORT FOR:
  AVS Forum Blu-ray Audio and Video Specifications Thread
    http://www.avsforum.com/avs-vb/showthread.php?t=1155731
********************
PLAYLIST: 00000.MPLS
********************

Код:

                                                                                Total   Video
Title                                                           Codec   Length  Movie Size      Disc Size       Bitrate Bitrate Main Audio Track                          Secondary Audio Track
-----                                                           ------  ------- --------------  --------------  ------- ------- ------------------                        ---------------------
00000.MPLS                                                      AVC     1:39:35 33,444,839,424  37,348,509,346  44.78   34.98   LPCM 2.0 2304Kbps (48kHz/24-bit)          DTS-HD Master 5.1 5276Kbps (48kHz/24-bit)

Код:
DISC INFO:
Disc Title:     Def Leppard - Hysteria At The O2
Disc Label:     Def Leppard - Hysteria At The O2 2018 (Blu-ray)
Disc Size:      37,348,509,346 bytes
Protection:     AACS
BDInfo:         0.7.5.5
PLAYLIST REPORT:
Name:                   00000.MPLS
Length:                 1:39:35.010 (h:m:s.ms)
Size:                   33,444,839,424 bytes
Total Bitrate:          44.78 Mbps
VIDEO:
Codec                   Bitrate             Description
-----                   -------             -----------
MPEG-4 AVC Video        34985 kbps          1080p / 23.976 fps / 16:9 / High Profile 4.1
AUDIO:
Codec                           Language        Bitrate         Description
-----                           --------        -------         -----------
LPCM Audio                      English         2304 kbps       2.0 / 48 kHz /  2304 kbps / 24-bit
DTS-HD Master Audio             English         5276 kbps       5.1 / 48 kHz /  5276 kbps / 24-bit (DTS Core: 5.1 / 48 kHz /  1509 kbps / 24-bit)
FILES:
Name            Time In         Length          Size            Total Bitrate
----            -------         ------          ----            -------------
00001.M2TS      0:00:00.000     1:08:05.080     23,299,596,288  45,629
00003.M2TS      1:08:05.080     0:31:28.928     10,144,364,544  42,963
00300.M2TS      1:39:34.009     0:00:01.000     878,592         7,022
CHAPTERS:
Number          Time In         Length          Avg Video Rate  Max 1-Sec Rate  Max 1-Sec Time  Max 5-Sec Rate  Max 5-Sec Time  Max 10Sec Rate  Max 10Sec Time  Avg Frame Size  Max Frame Size  Max Frame Time
------          -------         ------          --------------  --------------  --------------  --------------  --------------  --------------  --------------  --------------  --------------  --------------
1               0:00:00.000     0:01:24.084     18,570 kbps     53,516 kbps     00:00:50.383    40,768 kbps     00:00:46.379    39,312 kbps     00:00:41.374    96,768 bytes    635,425 bytes   00:01:05.607
2               0:01:24.084     0:05:36.335     36,123 kbps     50,445 kbps     00:04:23.888    40,158 kbps     00:04:19.884    38,757 kbps     00:04:14.879    188,330 bytes   429,649 bytes   00:04:24.597
3               0:07:00.419     0:06:13.623     36,633 kbps     54,064 kbps     00:07:07.468    39,884 kbps     00:11:17.927    38,145 kbps     00:08:50.696    190,989 bytes   638,218 bytes   00:07:08.386
4               0:13:14.043     0:04:07.997     36,406 kbps     47,862 kbps     00:15:43.192    39,579 kbps     00:15:39.271    38,521 kbps     00:16:04.588    189,803 bytes   621,488 bytes   00:16:14.431
5               0:17:22.040     0:05:48.348     35,100 kbps     44,679 kbps     00:22:25.594    39,206 kbps     00:22:21.590    38,409 kbps     00:22:16.585    182,998 bytes   387,887 bytes   00:22:03.697
6               0:23:10.389     0:06:10.369     36,825 kbps     48,415 kbps     00:27:33.026    39,542 kbps     00:27:29.022    38,712 kbps     00:27:24.017    191,990 bytes   615,259 bytes   00:25:13.887
7               0:29:20.758     0:05:21.321     36,955 kbps     51,678 kbps     00:34:32.820    40,302 kbps     00:34:28.733    38,782 kbps     00:34:23.811    192,668 bytes   604,545 bytes   00:30:54.936
8               0:34:42.080     0:01:17.076     29,021 kbps     40,657 kbps     00:35:30.711    38,246 kbps     00:35:26.707    37,299 kbps     00:35:23.746    151,305 bytes   292,000 bytes   00:35:33.172
9               0:35:59.156     0:06:12.246     36,855 kbps     50,167 kbps     00:41:32.281    39,785 kbps     00:36:05.830    38,368 kbps     00:38:30.391    192,143 bytes   584,604 bytes   00:36:10.501
10              0:42:11.403     0:04:30.395     36,554 kbps     49,981 kbps     00:44:33.670    39,214 kbps     00:44:29.666    38,292 kbps     00:43:43.120    190,577 bytes   635,764 bytes   00:46:38.837
11              0:46:41.798     0:04:50.456     36,309 kbps     49,828 kbps     00:49:31.677    39,896 kbps     00:48:32.576    38,325 kbps     00:51:01.600    189,297 bytes   632,523 bytes   00:51:21.078
12              0:51:32.255     0:06:07.200     36,180 kbps     43,695 kbps     00:52:41.032    38,933 kbps     00:52:37.028    38,371 kbps     00:52:32.023    188,626 bytes   636,340 bytes   00:54:36.106
13              0:57:39.455     0:04:54.085     35,621 kbps     46,587 kbps     00:58:43.144    39,781 kbps     00:58:39.140    38,095 kbps     00:58:56.366    185,712 bytes   638,492 bytes   00:57:47.422
14              1:02:33.541     0:05:31.539     35,535 kbps     43,192 kbps     01:02:56.355    38,741 kbps     01:02:52.351    38,151 kbps     01:02:47.346    185,262 bytes   416,632 bytes   01:03:55.832
15              1:08:05.080     0:01:39.641     33,336 kbps     42,551 kbps     01:09:03.806    38,422 kbps     01:08:32.900    38,049 kbps     01:08:27.895    173,796 bytes   367,968 bytes   01:09:04.223
16              1:09:44.722     0:04:22.470     35,525 kbps     43,408 kbps     01:11:33.831    38,539 kbps     01:11:29.785    38,100 kbps     01:11:24.780    185,210 bytes   515,908 bytes   01:10:40.778
17              1:14:07.192     0:04:16.005     34,953 kbps     43,420 kbps     01:15:28.315    38,426 kbps     01:15:28.190    37,870 kbps     01:17:13.837    182,229 bytes   439,838 bytes   01:15:29.107
18              1:18:23.198     0:05:42.633     36,696 kbps     43,373 kbps     01:20:33.245    38,958 kbps     01:20:29.241    38,215 kbps     01:18:38.672    191,315 bytes   611,163 bytes   01:18:31.123
19              1:24:05.832     0:04:59.132     36,671 kbps     46,909 kbps     01:25:19.155    39,558 kbps     01:25:15.151    38,068 kbps     01:25:10.146    191,185 bytes   476,117 bytes   01:24:16.301
20              1:29:04.964     0:07:19.272     36,826 kbps     45,258 kbps     01:31:39.494    38,997 kbps     01:31:35.490    38,223 kbps     01:31:30.485    191,993 bytes   620,000 bytes   01:31:10.131
21              1:36:24.236     0:03:09.772     8,571 kbps      28,975 kbps     01:39:05.064    21,548 kbps     01:39:02.937    14,801 kbps     01:38:57.765    44,687 bytes    220,543 bytes   01:39:05.898
22              1:39:34.009     0:00:01.001     75 kbps         0 kbps          00:00:00.000    0 kbps          00:00:00.000    0 kbps          00:00:00.000    410 bytes       2,430 bytes     01:39:34.760
STREAM DIAGNOSTICS:
File            PID             Type            Codec           Language                Seconds                 Bitrate                 Bytes           Packets
----            ---             ----            -----           --------                --------------          --------------          -------------   -----
00001.M2TS      4113 (0x1011)   0x1B            AVC                                     4084.914                35,765                  18,261,935,062  99,305,958
00001.M2TS      4352 (0x1100)   0x80            LPCM            eng (English)           4084.914                2,310                   1,179,482,304   6,534,528
00001.M2TS      4353 (0x1101)   0x86            DTS-HD MA       eng (English)           4084.914                5,311                   2,711,998,328   15,374,684
00003.M2TS      4113 (0x1011)   0x1B            AVC                                     1888.762                33,323                  7,867,473,291   42,783,773
00003.M2TS      4352 (0x1100)   0x80            LPCM            eng (English)           1888.762                2,311                   545,522,984     3,022,288
00003.M2TS      4353 (0x1101)   0x86            DTS-HD MA       eng (English)           1888.762                5,202                   1,228,256,816   6,965,867
00300.M2TS      4113 (0x1011)   0x1B            AVC                                     0.876                   108                     11,843          72
00300.M2TS      4352 (0x1100)   0x80            LPCM            eng (English)           0.876                   5,268                   576,800         3,200
00300.M2TS      4353 (0x1101)   0x86            DTS-HD MA       eng (English)           0.876                   1,805                   197,600         1,235


QUICK SUMMARY:
Disc Title: Def Leppard - Hysteria At The O2
Disc Label: Def Leppard - Hysteria At The O2 2018 (Blu-ray)
Disc Size: 37,348,509,346 bytes
Protection: AACS
Playlist: 00000.MPLS
Size: 33,444,839,424 bytes
Length: 1:39:35.010
Total Bitrate: 44.78 Mbps
Video: MPEG-4 AVC Video / 34985 kbps / 1080p / 23.976 fps / 16:9 / High Profile 4.1
Audio: English / LPCM Audio / 2.0 / 48 kHz /  2304 kbps / 24-bit
Audio: English / DTS-HD Master Audio / 5.1 / 48 kHz /  5276 kbps / 24-bit (DTS Core: 5.1 / 48 kHz /  1509 kbps / 24-bit)
********************
PLAYLIST: 00002.MPLS
********************

Код:

                                                                                Total   Video
Title                                                           Codec   Length  Movie Size      Disc Size       Bitrate Bitrate Main Audio Track                          Secondary Audio Track
-----                                                           ------  ------- --------------  --------------  ------- ------- ------------------                        ---------------------
00002.MPLS                                                      AVC     1:08:06 23,300,474,880  37,348,509,346  45.62   35.75   LPCM 2.0 2304Kbps (48kHz/24-bit)          DTS-HD Master 5.1 5310Kbps (48kHz/24-bit)

Код:
DISC INFO:
Disc Title:     Def Leppard - Hysteria At The O2
Disc Label:     Def Leppard - Hysteria At The O2 2018 (Blu-ray)
Disc Size:      37,348,509,346 bytes
Protection:     AACS
BDInfo:         0.7.5.5
PLAYLIST REPORT:
Name:                   00002.MPLS
Length:                 1:08:06.081 (h:m:s.ms)
Size:                   23,300,474,880 bytes
Total Bitrate:          45.62 Mbps
VIDEO:
Codec                   Bitrate             Description
-----                   -------             -----------
MPEG-4 AVC Video        35754 kbps          1080p / 23.976 fps / 16:9 / High Profile 4.1
AUDIO:
Codec                           Language        Bitrate         Description
-----                           --------        -------         -----------
LPCM Audio                      English         2304 kbps       2.0 / 48 kHz /  2304 kbps / 24-bit
DTS-HD Master Audio             English         5310 kbps       5.1 / 48 kHz /  5310 kbps / 24-bit (DTS Core: 5.1 / 48 kHz /  1509 kbps / 24-bit)
FILES:
Name            Time In         Length          Size            Total Bitrate
----            -------         ------          ----            -------------
00001.M2TS      0:00:00.000     1:08:05.080     23,299,596,288  45,629
00300.M2TS      1:08:05.080     0:00:01.000     878,592         7,022
CHAPTERS:
Number          Time In         Length          Avg Video Rate  Max 1-Sec Rate  Max 1-Sec Time  Max 5-Sec Rate  Max 5-Sec Time  Max 10Sec Rate  Max 10Sec Time  Avg Frame Size  Max Frame Size  Max Frame Time
------          -------         ------          --------------  --------------  --------------  --------------  --------------  --------------  --------------  --------------  --------------  --------------
1               0:00:00.000     0:01:24.084     18,570 kbps     53,516 kbps     00:00:50.383    40,768 kbps     00:00:46.379    39,312 kbps     00:00:41.374    96,768 bytes    635,425 bytes   00:01:05.607
2               0:01:24.084     0:05:36.335     36,123 kbps     50,445 kbps     00:04:23.888    40,158 kbps     00:04:19.884    38,757 kbps     00:04:14.879    188,330 bytes   429,649 bytes   00:04:24.597
3               0:07:00.419     0:06:13.623     36,633 kbps     54,064 kbps     00:07:07.468    39,884 kbps     00:11:17.927    38,145 kbps     00:08:50.696    190,989 bytes   638,218 bytes   00:07:08.386
4               0:13:14.043     0:04:07.997     36,406 kbps     47,862 kbps     00:15:43.192    39,579 kbps     00:15:39.271    38,521 kbps     00:16:04.588    189,803 bytes   621,488 bytes   00:16:14.431
5               0:17:22.040     0:05:48.348     35,100 kbps     44,679 kbps     00:22:25.594    39,206 kbps     00:22:21.590    38,409 kbps     00:22:16.585    182,998 bytes   387,887 bytes   00:22:03.697
6               0:23:10.389     0:06:10.369     36,825 kbps     48,415 kbps     00:27:33.026    39,542 kbps     00:27:29.022    38,712 kbps     00:27:24.017    191,990 bytes   615,259 bytes   00:25:13.887
7               0:29:20.758     0:05:21.321     36,955 kbps     51,678 kbps     00:34:32.820    40,302 kbps     00:34:28.733    38,782 kbps     00:34:23.811    192,668 bytes   604,545 bytes   00:30:54.936
8               0:34:42.080     0:01:17.076     29,021 kbps     40,657 kbps     00:35:30.711    38,246 kbps     00:35:26.707    37,299 kbps     00:35:23.746    151,305 bytes   292,000 bytes   00:35:33.172
9               0:35:59.156     0:06:12.246     36,855 kbps     50,167 kbps     00:41:32.281    39,785 kbps     00:36:05.830    38,368 kbps     00:38:30.391    192,143 bytes   584,604 bytes   00:36:10.501
10              0:42:11.403     0:04:30.395     36,554 kbps     49,981 kbps     00:44:33.670    39,214 kbps     00:44:29.666    38,292 kbps     00:43:43.120    190,577 bytes   635,764 bytes   00:46:38.837
11              0:46:41.798     0:04:50.456     36,309 kbps     49,828 kbps     00:49:31.677    39,896 kbps     00:48:32.576    38,325 kbps     00:51:01.600    189,297 bytes   632,523 bytes   00:51:21.078
12              0:51:32.255     0:06:07.200     36,180 kbps     43,695 kbps     00:52:41.032    38,933 kbps     00:52:37.028    38,371 kbps     00:52:32.023    188,626 bytes   636,340 bytes   00:54:36.106
13              0:57:39.455     0:04:54.085     35,621 kbps     46,587 kbps     00:58:43.144    39,781 kbps     00:58:39.140    38,095 kbps     00:58:56.366    185,712 bytes   638,492 bytes   00:57:47.422
14              1:02:33.541     0:05:31.539     35,535 kbps     43,192 kbps     01:02:56.355    38,741 kbps     01:02:52.351    38,151 kbps     01:02:47.346    185,263 bytes   416,632 bytes   01:03:55.832
15              1:08:05.080     0:00:01.001     75 kbps         0 kbps          00:00:00.000    0 kbps          00:00:00.000    0 kbps          00:00:00.000    410 bytes       2,430 bytes     01:08:05.831
STREAM DIAGNOSTICS:
File            PID             Type            Codec           Language                Seconds                 Bitrate                 Bytes           Packets
----            ---             ----            -----           --------                --------------          --------------          -------------   -----
00001.M2TS      4113 (0x1011)   0x1B            AVC                                     4084.914                35,765                  18,261,935,062  99,305,958
00001.M2TS      4352 (0x1100)   0x80            LPCM            eng (English)           4084.914                2,310                   1,179,482,304   6,534,528
00001.M2TS      4353 (0x1101)   0x86            DTS-HD MA       eng (English)           4084.914                5,311                   2,711,998,328   15,374,684
00300.M2TS      4113 (0x1011)   0x1B            AVC                                     0.876                   108                     11,843          72
00300.M2TS      4352 (0x1100)   0x80            LPCM            eng (English)           0.876                   5,268                   576,800         3,200
00300.M2TS      4353 (0x1101)   0x86            DTS-HD MA       eng (English)           0.876                   1,805                   197,600         1,235


QUICK SUMMARY:
Disc Title: Def Leppard - Hysteria At The O2
Disc Label: Def Leppard - Hysteria At The O2 2018 (Blu-ray)
Disc Size: 37,348,509,346 bytes
Protection: AACS
Playlist: 00002.MPLS
Size: 23,300,474,880 bytes
Length: 1:08:06.081
Total Bitrate: 45.62 Mbps
Video: MPEG-4 AVC Video / 35754 kbps / 1080p / 23.976 fps / 16:9 / High Profile 4.1
Audio: English / LPCM Audio / 2.0 / 48 kHz /  2304 kbps / 24-bit
Audio: English / DTS-HD Master Audio / 5.1 / 48 kHz /  5310 kbps / 24-bit (DTS Core: 5.1 / 48 kHz /  1509 kbps / 24-bit)
********************
PLAYLIST: 00003.MPLS
********************

Код:

                                                                                Total   Video
Title                                                           Codec   Length  Movie Size      Disc Size       Bitrate Bitrate Main Audio Track                          Secondary Audio Track
-----                                                           ------  ------- --------------  --------------  ------- ------- ------------------                        ---------------------
00003.MPLS                                                      AVC     0:31:29 10,145,243,136  37,348,509,346  42.94   33.30   LPCM 2.0 2304Kbps (48kHz/24-bit)          DTS-HD Master 5.1 5200Kbps (48kHz/24-bit)

Код:
DISC INFO:
Disc Title:     Def Leppard - Hysteria At The O2
Disc Label:     Def Leppard - Hysteria At The O2 2018 (Blu-ray)
Disc Size:      37,348,509,346 bytes
Protection:     AACS
BDInfo:         0.7.5.5
PLAYLIST REPORT:
Name:                   00003.MPLS
Length:                 0:31:29.929 (h:m:s.ms)
Size:                   10,145,243,136 bytes
Total Bitrate:          42.94 Mbps
VIDEO:
Codec                   Bitrate             Description
-----                   -------             -----------
MPEG-4 AVC Video        33303 kbps          1080p / 23.976 fps / 16:9 / High Profile 4.1
AUDIO:
Codec                           Language        Bitrate         Description
-----                           --------        -------         -----------
LPCM Audio                      English         2304 kbps       2.0 / 48 kHz /  2304 kbps / 24-bit
DTS-HD Master Audio             English         5200 kbps       5.1 / 48 kHz /  5200 kbps / 24-bit (DTS Core: 5.1 / 48 kHz /  1509 kbps / 24-bit)
FILES:
Name            Time In         Length          Size            Total Bitrate
----            -------         ------          ----            -------------
00003.M2TS      0:00:00.000     0:31:28.928     10,144,364,544  42,963
00300.M2TS      0:31:28.928     0:00:01.000     878,592         7,022
CHAPTERS:
Number          Time In         Length          Avg Video Rate  Max 1-Sec Rate  Max 1-Sec Time  Max 5-Sec Rate  Max 5-Sec Time  Max 10Sec Rate  Max 10Sec Time  Avg Frame Size  Max Frame Size  Max Frame Time
------          -------         ------          --------------  --------------  --------------  --------------  --------------  --------------  --------------  --------------  --------------  --------------
1               0:00:00.000     0:01:39.641     33,336 kbps     42,551 kbps     00:00:58.725    38,422 kbps     00:00:27.819    38,049 kbps     00:00:22.814    173,724 bytes   367,968 bytes   00:00:59.142
2               0:01:39.641     0:04:22.470     35,525 kbps     43,408 kbps     00:03:28.750    38,539 kbps     00:03:24.704    38,100 kbps     00:03:19.699    185,210 bytes   515,908 bytes   00:02:35.697
3               0:06:02.111     0:04:16.005     34,953 kbps     43,420 kbps     00:07:23.234    38,426 kbps     00:07:23.109    37,870 kbps     00:09:08.756    182,229 bytes   439,838 bytes   00:07:24.026
4               0:10:18.117     0:05:42.633     36,696 kbps     43,373 kbps     00:12:28.164    38,958 kbps     00:12:24.160    38,215 kbps     00:10:33.591    191,315 bytes   611,163 bytes   00:10:26.042
5               0:16:00.751     0:04:59.132     36,671 kbps     46,909 kbps     00:17:14.074    39,558 kbps     00:17:10.070    38,068 kbps     00:17:05.065    191,185 bytes   476,117 bytes   00:16:11.220
6               0:20:59.883     0:07:19.272     36,826 kbps     45,258 kbps     00:23:34.413    38,997 kbps     00:23:30.409    38,223 kbps     00:23:25.404    191,993 bytes   620,000 bytes   00:23:05.050
7               0:28:19.155     0:03:09.772     8,571 kbps      28,975 kbps     00:30:59.983    21,548 kbps     00:30:57.856    14,801 kbps     00:30:52.684    44,687 bytes    220,543 bytes   00:31:00.817
8               0:31:28.928     0:00:01.000     75 kbps         0 kbps          00:00:00.000    0 kbps          00:00:00.000    0 kbps          00:00:00.000    410 bytes       2,430 bytes     00:31:29.679
STREAM DIAGNOSTICS:
File            PID             Type            Codec           Language                Seconds                 Bitrate                 Bytes           Packets
----            ---             ----            -----           --------                --------------          --------------          -------------   -----
00003.M2TS      4113 (0x1011)   0x1B            AVC                                     1888.762                33,323                  7,867,473,291   42,783,773
00003.M2TS      4352 (0x1100)   0x80            LPCM            eng (English)           1888.762                2,311                   545,522,984     3,022,288
00003.M2TS      4353 (0x1101)   0x86            DTS-HD MA       eng (English)           1888.762                5,202                   1,228,256,816   6,965,867
00300.M2TS      4113 (0x1011)   0x1B            AVC                                     0.876                   108                     11,843          72
00300.M2TS      4352 (0x1100)   0x80            LPCM            eng (English)           0.876                   5,268                   576,800         3,200
00300.M2TS      4353 (0x1101)   0x86            DTS-HD MA       eng (English)           0.876                   1,805                   197,600         1,235


QUICK SUMMARY:
Disc Title: Def Leppard - Hysteria At The O2
Disc Label: Def Leppard - Hysteria At The O2 2018 (Blu-ray)
Disc Size: 37,348,509,346 bytes
Protection: AACS
Playlist: 00003.MPLS
Size: 10,145,243,136 bytes
Length: 0:31:29.929
Total Bitrate: 42.94 Mbps
Video: MPEG-4 AVC Video / 33303 kbps / 1080p / 23.976 fps / 16:9 / High Profile 4.1
Audio: English / LPCM Audio / 2.0 / 48 kHz /  2304 kbps / 24-bit
Audio: English / DTS-HD Master Audio / 5.1 / 48 kHz /  5200 kbps / 24-bit (DTS Core: 5.1 / 48 kHz /  1509 kbps / 24-bit)
********************
PLAYLIST: 00001.MPLS
********************

Код:

                                                                                Total   Video
Title                                                           Codec   Length  Movie Size      Disc Size       Bitrate Bitrate Main Audio Track                          Secondary Audio Track
-----                                                           ------  ------- --------------  --------------  ------- ------- ------------------                        ---------------------
00001.MPLS                                                      AVC     0:11:27 3,353,143,296   37,348,509,346  38.99   34.94   LPCM 2.0 2304Kbps (48kHz/24-bit)

Код:
DISC INFO:
Disc Title:     Def Leppard - Hysteria At The O2
Disc Label:     Def Leppard - Hysteria At The O2 2018 (Blu-ray)
Disc Size:      37,348,509,346 bytes
Protection:     AACS
BDInfo:         0.7.5.5
PLAYLIST REPORT:
Name:                   00001.MPLS
Length:                 0:11:27.987 (h:m:s.ms)
Size:                   3,353,143,296 bytes
Total Bitrate:          38.99 Mbps
VIDEO:
Codec                   Bitrate             Description
-----                   -------             -----------
MPEG-4 AVC Video        34936 kbps          1080i / 29.970 fps / 16:9 / High Profile 4.1
AUDIO:
Codec                           Language        Bitrate         Description
-----                           --------        -------         -----------
LPCM Audio                      English         2304 kbps       2.0 / 48 kHz /  2304 kbps / 24-bit
FILES:
Name            Time In         Length          Size            Total Bitrate
----            -------         ------          ----            -------------
00002.M2TS      0:00:00.000     0:11:26.986     3,352,498,176   39,040
00011.M2TS      0:11:26.986     0:00:01.000     645,120         5,156
CHAPTERS:
Number          Time In         Length          Avg Video Rate  Max 1-Sec Rate  Max 1-Sec Time  Max 5-Sec Rate  Max 5-Sec Time  Max 10Sec Rate  Max 10Sec Time  Avg Frame Size  Max Frame Size  Max Frame Time
------          -------         ------          --------------  --------------  --------------  --------------  --------------  --------------  --------------  --------------  --------------  --------------
1               0:00:00.000     0:11:26.986     34,987 kbps     43,769 kbps     00:10:06.005    38,879 kbps     00:06:04.297    38,234 kbps     00:05:59.292    145,916 bytes   508,789 bytes   00:03:22.168
2               0:11:26.986     0:00:01.000     111 kbps        0 kbps          00:00:00.000    0 kbps          00:00:00.000    0 kbps          00:00:00.000    478 bytes       2,441 bytes     00:11:27.586
STREAM DIAGNOSTICS:
File            PID             Type            Codec           Language                Seconds                 Bitrate                 Bytes           Packets
----            ---             ----            -----           --------                --------------          --------------          -------------   -----
00002.M2TS      4113 (0x1011)   0x1B            AVC                                     686.853                 34,993                  3,004,406,231   16,340,313
00002.M2TS      4352 (0x1100)   0x80            LPCM            eng (English)           686.853                 2,307                   198,112,468     1,097,576
00011.M2TS      4113 (0x1011)   0x1B            AVC                                     0.901                   145                     16,308          112
00011.M2TS      4352 (0x1100)   0x80            LPCM            eng (English)           0.901                   5,122                   576,800         3,200


QUICK SUMMARY:
Disc Title: Def Leppard - Hysteria At The O2
Disc Label: Def Leppard - Hysteria At The O2 2018 (Blu-ray)
Disc Size: 37,348,509,346 bytes
Protection: AACS
Playlist: 00001.MPLS
Size: 3,353,143,296 bytes
Length: 0:11:27.987
Total Bitrate: 38.99 Mbps
Video: MPEG-4 AVC Video / 34936 kbps / 1080i / 29.970 fps / 16:9 / High Profile 4.1
Audio: English / LPCM Audio / 2.0 / 48 kHz /  2304 kbps / 24-bit
********************
PLAYLIST: 00200.MPLS
********************

Код:

                                                                                Total   Video
Title                                                           Codec   Length  Movie Size      Disc Size       Bitrate Bitrate Main Audio Track                          Secondary Audio Track
-----                                                           ------  ------- --------------  --------------  ------- ------- ------------------                        ---------------------
00200.MPLS                                                      AVC     0:00:20 45,637,632      37,348,509,346  18.21   15.01   LPCM 2.0 2304Kbps (48kHz/24-bit)

Код:
DISC INFO:
Disc Title:     Def Leppard - Hysteria At The O2
Disc Label:     Def Leppard - Hysteria At The O2 2018 (Blu-ray)
Disc Size:      37,348,509,346 bytes
Protection:     AACS
BDInfo:         0.7.5.5
PLAYLIST REPORT:
Name:                   00200.MPLS
Length:                 0:00:20.053 (h:m:s.ms)
Size:                   45,637,632 bytes
Total Bitrate:          18.21 Mbps
VIDEO:
Codec                   Bitrate             Description
-----                   -------             -----------
MPEG-4 AVC Video        15013 kbps          1080i / 29.970 fps / 16:9 / High Profile 4.1
AUDIO:
Codec                           Language        Bitrate         Description
-----                           --------        -------         -----------
LPCM Audio                      English         2304 kbps       2.0 / 48 kHz /  2304 kbps / 24-bit
FILES:
Name            Time In         Length          Size            Total Bitrate
----            -------         ------          ----            -------------
00005.M2TS      0:00:00.000     0:00:20.053     45,637,632      18,206
CHAPTERS:
Number          Time In         Length          Avg Video Rate  Max 1-Sec Rate  Max 1-Sec Time  Max 5-Sec Rate  Max 5-Sec Time  Max 10Sec Rate  Max 10Sec Time  Avg Frame Size  Max Frame Size  Max Frame Time
------          -------         ------          --------------  --------------  --------------  --------------  --------------  --------------  --------------  --------------  --------------  --------------
1               0:00:00.000     0:00:20.053     15,013 kbps     47,376 kbps     00:00:06.106    31,296 kbps     00:00:04.771    25,846 kbps     00:00:04.704    62,619 bytes    360,393 bytes   00:00:11.010
STREAM DIAGNOSTICS:
File            PID             Type            Codec           Language                Seconds                 Bitrate                 Bytes           Packets
----            ---             ----            -----           --------                --------------          --------------          -------------   -----
00005.M2TS      4113 (0x1011)   0x1B            AVC                                     19.953                  15,089                  37,633,838      204,915
00005.M2TS      4352 (0x1100)   0x80            LPCM            eng (English)           19.953                  2,322                   5,791,884       32,088


QUICK SUMMARY:
Disc Title: Def Leppard - Hysteria At The O2
Disc Label: Def Leppard - Hysteria At The O2 2018 (Blu-ray)
Disc Size: 37,348,509,346 bytes
Protection: AACS
Playlist: 00200.MPLS
Size: 45,637,632 bytes
Length: 0:00:20.053
Total Bitrate: 18.21 Mbps
Video: MPEG-4 AVC Video / 15013 kbps / 1080i / 29.970 fps / 16:9 / High Profile 4.1
Audio: English / LPCM Audio / 2.0 / 48 kHz /  2304 kbps / 24-bit


Скриншоты

















Мои раздачи ®
https://rutracker.org/forum/https://rutracker.net/forum/tracker.php?rid=9539252


                                                                                       
                       
                       
                       
                       
                       
                                磁力下载:(论坛代下载服务)
                                                               
                                       
游客,本主题需向作者支付 7音乐币 才能浏览,金币充值, 免回复、免金币,直接查看内容请开通VIP支付

                                               
  • 34.78 GB
  • 温馨提示

    记得善用社区搜索功能,那里可能会有你想要的资源;论坛站内搜索

    如果你有什么需要的资源可以去资源求档发帖,求助社区的网友,我们会在第一时间给你回复哦;资源求档

    对于本社区网盘链接失效密码错误各种报错请在反馈板块反馈报错发帖,您的支持,是我们发展的最大动力;投诉建议

    回复

    使用道具 举报

    您需要登录后才可以回帖 登录 | 立即注册 微信登录

    本版积分规则

    关注0

    粉丝0

    帖子30073

    发布主题
    阅读排行更多+
    关闭

    站长推荐上一条 /1 下一条

    收藏帖子 返回列表 这是一个自定义按钮
    音乐分享,音乐下载。
    微信公众号
    微信号:hires_
    意见反馈:admin@maomicd.com

    加入我们的官方QQ群和微信群

    Powered by Discuz! X3.4 Archiver|手机版|小黑屋|捌零音乐论坛 ( 苏ICP备20015413号 )|( 苏公网安备 32030502000272号) 繁體

    GMT+8, 2021-5-10 07:43