自购原抓音乐圈:只有自购、合购、原抓级高解析(hires、sacd、dsd)正版音乐资源分享!【点我打开
极速无线网卡:千兆无线网卡、服务器网卡、USB接口台式机笔记本网卡 硬盘代考无损音乐!【点我打开
广告

[摇滚] The Jimi Hendrix Experience: Live at Monterey [2008, Rock, Blu-ray]

[复制链接]
韬199435 发表于 2021-4-13 15:34:01 | 显示全部楼层 |阅读模式 打印 上一主题 下一主题
The Jimi Hendrix Experience: Live at Monterey
Год выпуска: 2008
Жанр: Rock
Продолжительность: 01:02:40
Tracklist:
01. Killing Floor
02. Foxey Lady
03. Like A Rolling Stone
04. Rock Me Baby
05. Hey Joe
06. The Wind Cries Mary
07. Purple Haze
08. Wild Thing
09. Stone Free
10. Like A Rolling Stone
Качество: Blu-ray
Формат: BDMV
Видео кодек: MPEG2
Аудио кодек: DTS
Видео: 1920x1080i, MPEG2, 29.97 fps, ~ 20 Mbps
Аудио:
DTS-HD MA 5.1, 16 bits, 48 kHz, ~2.5 Mbps
LPCM 2.0, 16 bits, 48 kHz, ~1.5 Mbps
Другие Blu-ray
Dispatch: Zimbabwe - Live at Madison Square Garden
Blackalicious: 4/20 Live In Seattle
Incubus: Alive at Red Rocks
Ricky Martin Live: Black & White Tour
John Mayer: Where the Light Is - Live In Los Angeles
Between The Lines: Sara Bareilles Live At The Filmore
Amy Winehouse: I Told You I Was Trouble
Beyonce: The Beyonce Experience Live
Toto: 25th Anniversary, Live in Amsterdam
Nine Inch Nails: Ghosts I-IV
Sheryl Crow - Live
Girls Aloud: Tangled Up Tour - Live from the O2
Mika Nakashima concert tour 2007: Yes My Joy
Jewel: The Essential Live Songbook
O.A.R. - Live From Madison Square Garden
Die Toten Hosen - Hals & Beinbruch - Live bei Rock am Ring
Chris Botti: Live with Orchestra and Special Guests
AC/DC - No Bull (Director's Cut)
Tony Bennett: An American Classic

BDInfo

Disc Title:     Jimi Hendrix Live at Monterey Blu-ray 1080i MPEG2 DTS-HD MA 5.1
Disc Size:      22 573 985 348 bytes
Protection:     AACS
BD-Java:        Yes
BDInfo:         0.5.8
Notes:
BDINFO HOME:
  Cinema Squid
    http://www.cinemasquid.com/blu-ray/tools/bdinfo
INCLUDES FORUMS REPORT FOR:
  AVS Forum Blu-ray Audio and Video Specifications Thread
    http://www.avsforum.com/avs-vb/showthread.php?t=1155731
********************
PLAYLIST: 00002.MPLS
********************

Код:

                                                                                Total   Video
Title                                                           Codec   Length  Movie Size      Disc Size       Bitrate Bitrate Main Audio Track                          Secondary Audio Track
-----                                                           ------  ------- --------------  --------------  ------- ------- ------------------                        ---------------------
00002.MPLS                                                      MPEG-2  1:02:40 12 098 899 968  22 573 985 348  25,74   19,90   DTS-HD Master 5.1 2424Kbps (48kHz/16-bit) LPCM 2.0 1536Kbps (48kHz/16-bit)

Код:
DISC INFO:
Disc Title:     Jimi Hendrix Live at Monterey Blu-ray 1080i MPEG2 DTS-HD MA 5.1
Disc Size:      22 573 985 348 bytes
Protection:     AACS
BD-Java:        Yes
BDInfo:         0.5.8
PLAYLIST REPORT:
Name:                   00002.MPLS
Length:                 1:02:40.323 (h:m:s.ms)
Size:                   12 098 899 968 bytes
Total Bitrate:          25,74 Mbps
VIDEO:
Codec                   Bitrate             Description
-----                   -------             -----------
MPEG-2 Video            19896 kbps          1080i / 29,970 fps / 16:9
AUDIO:
Codec                           Language        Bitrate         Description
-----                           --------        -------         -----------
DTS-HD Master Audio             Undetermined    2424 kbps       5.1 / 48 kHz / 2424 kbps / 16-bit (DTS Core: 5.1 / 48 kHz / 1509 kbps / 16-bit)
LPCM Audio                      Undetermined    1536 kbps       2.0 / 48 kHz / 1536 kbps / 16-bit
SUBTITLES:
Codec                           Language        Bitrate         Description
-----                           --------        -------         -----------
Presentation Graphics           Undetermined    48,611 kbps
Presentation Graphics           Undetermined    52,751 kbps
Presentation Graphics           Undetermined    54,448 kbps
Presentation Graphics           Undetermined    48,050 kbps
Presentation Graphics           Undetermined    45,175 kbps
FILES:
Name            Time In         Length          Size            Total Bitrate
----            -------         ------          ----            -------------
00002.M2TS      0:00:00.000     1:02:40.323     12 098 899 968  25 740
CHAPTERS:
Number          Time In         Length          Avg Video Rate  Max 1-Sec Rate  Max 1-Sec Time  Max 5-Sec Rate  Max 5-Sec Time  Max 10Sec Rate  Max 10Sec Time  Avg Frame Size  Max Frame Size  Max Frame Time
------          -------         ------          --------------  --------------  --------------  --------------  --------------  --------------  --------------  --------------  --------------  --------------
1               0:00:00.000     0:23:09.388     20 124 kbps     31 847 kbps     00:08:12.992    25 263 kbps     00:09:34.240    25 016 kbps     00:09:28.501    83 933 bytes    512 443 bytes   00:03:56.603
2               0:23:09.388     0:00:20.019     18 847 kbps     21 347 kbps     00:23:12.557    20 607 kbps     00:23:09.621    19 057 kbps     00:23:17.596    78 607 bytes    170 721 bytes   00:23:12.190
3               0:23:29.407     0:03:09.189     20 251 kbps     29 386 kbps     00:24:50.889    25 545 kbps     00:23:58.503    23 834 kbps     00:23:58.503    84 463 bytes    387 754 bytes   00:23:58.537
4               0:26:38.597     0:03:20.200     20 321 kbps     29 759 kbps     00:29:57.762    25 390 kbps     00:28:54.532    24 667 kbps     00:28:49.728    84 756 bytes    417 094 bytes   00:28:46.157
5               0:29:58.797     0:06:56.015     20 585 kbps     30 295 kbps     00:32:38.756    25 663 kbps     00:34:17.155    24 586 kbps     00:34:18.189    85 857 bytes    293 004 bytes   00:32:38.790
6               0:36:54.812     0:03:25.605     19 517 kbps     28 805 kbps     00:37:05.523    24 745 kbps     00:36:56.981    24 561 kbps     00:36:56.714    81 401 bytes    254 345 bytes   00:40:20.418
7               0:40:20.418     0:03:51.731     20 419 kbps     30 689 kbps     00:41:01.325    24 691 kbps     00:42:04.655    23 544 kbps     00:43:23.000    85 166 bytes    323 956 bytes   00:41:01.358
8               0:44:12.149     0:03:21.467     19 455 kbps     29 937 kbps     00:45:31.395    25 263 kbps     00:46:35.225    24 823 kbps     00:46:28.819    81 143 bytes    255 126 bytes   00:46:28.886
9               0:47:33.617     0:03:09.856     17 738 kbps     28 776 kbps     00:49:24.962    25 253 kbps     00:49:46.516    24 530 kbps     00:49:44.114    73 982 bytes    346 333 bytes   00:50:42.439
10              0:50:43.473     0:09:13.152     20 603 kbps     29 075 kbps     00:55:39.369    25 124 kbps     00:55:39.369    23 507 kbps     00:50:56.319    85 930 bytes    318 419 bytes   00:51:11.368
11              0:59:56.626     0:02:43.696     15 804 kbps     28 561 kbps     01:00:03.700    23 556 kbps     01:02:17.100    23 166 kbps     01:00:03.700    65 929 bytes    300 404 bytes   01:00:03.733
STREAM DIAGNOSTICS:
File            PID             Type            Codec           Language                Seconds                 Bitrate                 Bytes           Packets
----            ---             ----            -----           --------                --------------          --------------          -------------   -----
00002.M2TS      4113 (0x1011)   0x02            MPEG-2                                  3760,223                19 897                  9 352 018 509   50 892 080
00002.M2TS      4352 (0x1100)   0x86            DTS-HD MA       und (Undetermined)      3760,223                2 424                   1 139 306 068   6 786 905
00002.M2TS      4353 (0x1101)   0x80            LPCM            und (Undetermined)      3760,223                1 542                   724 990 312     4 512 388
00002.M2TS      4608 (0x1200)   0x90            PGS             und (Undetermined)      3760,223                49                      22 849 033      128 101
00002.M2TS      4609 (0x1201)   0x90            PGS             und (Undetermined)      3760,223                53                      24 794 947      138 932
00002.M2TS      4610 (0x1202)   0x90            PGS             und (Undetermined)      3760,223                54                      25 592 891      143 186
00002.M2TS      4611 (0x1203)   0x90            PGS             und (Undetermined)      3760,223                48                      22 585 648      126 863
00002.M2TS      4612 (0x1204)   0x90            PGS             und (Undetermined)      3760,223                45                      21 234 091      119 311


QUICK SUMMARY:
Disc Title: Jimi Hendrix Live at Monterey Blu-ray 1080i MPEG2 DTS-HD MA 5.1
Disc Size: 22 573 985 348 bytes
Protection: AACS
BD-Java: Yes
Playlist: 00002.MPLS
Size: 12 098 899 968 bytes
Length: 1:02:40.323
Total Bitrate: 25,74 Mbps
Video: MPEG-2 Video / 19896 kbps / 1080i / 29,970 fps / 16:9
Audio: Undetermined / DTS-HD Master Audio / 5.1 / 48 kHz / 2424 kbps / 16-bit (DTS Core: 5.1 / 48 kHz / 1509 kbps / 16-bit)
Audio: Undetermined / LPCM Audio / 2.0 / 48 kHz / 1536 kbps / 16-bit
Subtitle: Undetermined / 48,611 kbps
Subtitle: Undetermined / 52,751 kbps
Subtitle: Undetermined / 54,448 kbps
Subtitle: Undetermined / 48,050 kbps
Subtitle: Undetermined / 45,175 kbps
********************
PLAYLIST: 00011.MPLS
********************

Код:

                                                                                Total   Video
Title                                                           Codec   Length  Movie Size      Disc Size       Bitrate Bitrate Main Audio Track                          Secondary Audio Track
-----                                                           ------  ------- --------------  --------------  ------- ------- ------------------                        ---------------------
00011.MPLS                                                      MPEG-2  0:09:30 1 476 200 448   22 573 985 348  20,69   17,97   LPCM 2.0 1536Kbps (48kHz/16-bit)

Код:
DISC INFO:
Disc Title:     Jimi Hendrix Live at Monterey Blu-ray 1080i MPEG2 DTS-HD MA 5.1
Disc Size:      22 573 985 348 bytes
Protection:     AACS
BD-Java:        Yes
BDInfo:         0.5.8
PLAYLIST REPORT:
Name:                   00011.MPLS
Length:                 0:09:30.803 (h:m:s.ms)
Size:                   1 476 200 448 bytes
Total Bitrate:          20,69 Mbps
VIDEO:
Codec                   Bitrate             Description
-----                   -------             -----------
MPEG-2 Video            17970 kbps          1080i / 29,970 fps / 16:9
AUDIO:
Codec                           Language        Bitrate         Description
-----                           --------        -------         -----------
LPCM Audio                      Undetermined    1536 kbps       2.0 / 48 kHz / 1536 kbps / 16-bit
FILES:
Name            Time In         Length          Size            Total Bitrate
----            -------         ------          ----            -------------
00011.M2TS      0:00:00.000     0:09:30.803     1 476 200 448   20 689
CHAPTERS:
Number          Time In         Length          Avg Video Rate  Max 1-Sec Rate  Max 1-Sec Time  Max 5-Sec Rate  Max 5-Sec Time  Max 10Sec Rate  Max 10Sec Time  Avg Frame Size  Max Frame Size  Max Frame Time
------          -------         ------          --------------  --------------  --------------  --------------  --------------  --------------  --------------  --------------  --------------  --------------
1               0:00:00.000     0:01:56.449     17 455 kbps     25 066 kbps     00:00:01.001    19 838 kbps     00:00:01.001    18 840 kbps     00:00:01.001    72 781 bytes    202 118 bytes   00:01:27.287
2               0:01:56.449     0:03:50.230     17 915 kbps     22 953 kbps     00:03:13.593    20 053 kbps     00:02:15.201    19 610 kbps     00:02:17.303    74 722 bytes    223 270 bytes   00:01:57.283
3               0:05:46.679     0:03:44.123     18 293 kbps     22 429 kbps     00:08:30.209    20 152 kbps     00:06:32.091    19 399 kbps     00:06:30.723    76 308 bytes    209 291 bytes   00:08:29.408
STREAM DIAGNOSTICS:
File            PID             Type            Codec           Language                Seconds                 Bitrate                 Bytes           Packets
----            ---             ----            -----           --------                --------------          --------------          -------------   -----
00011.M2TS      4113 (0x1011)   0x02            MPEG-2                                  570,703                 17 973                  1 282 145 461   6 978 203
00011.M2TS      4352 (0x1100)   0x80            LPCM            und (Undetermined)      570,703                 1 543                   110 050 928     684 964


QUICK SUMMARY:
Disc Title: Jimi Hendrix Live at Monterey Blu-ray 1080i MPEG2 DTS-HD MA 5.1
Disc Size: 22 573 985 348 bytes
Protection: AACS
BD-Java: Yes
Playlist: 00011.MPLS
Size: 1 476 200 448 bytes
Length: 0:09:30.803
Total Bitrate: 20,69 Mbps
Video: MPEG-2 Video / 17970 kbps / 1080i / 29,970 fps / 16:9
Audio: Undetermined / LPCM Audio / 2.0 / 48 kHz / 1536 kbps / 16-bit
********************
PLAYLIST: 00009.MPLS
********************

Код:

                                                                                Total   Video
Title                                                           Codec   Length  Movie Size      Disc Size       Bitrate Bitrate Main Audio Track                          Secondary Audio Track
-----                                                           ------  ------- --------------  --------------  ------- ------- ------------------                        ---------------------
00009.MPLS                                                      MPEG-2  0:07:58 1 028 407 296   22 573 985 348  17,19   14,62   LPCM 2.0 1536Kbps (48kHz/16-bit)

Код:
DISC INFO:
Disc Title:     Jimi Hendrix Live at Monterey Blu-ray 1080i MPEG2 DTS-HD MA 5.1
Disc Size:      22 573 985 348 bytes
Protection:     AACS
BD-Java:        Yes
BDInfo:         0.5.8
PLAYLIST REPORT:
Name:                   00009.MPLS
Length:                 0:07:58.578 (h:m:s.ms)
Size:                   1 028 407 296 bytes
Total Bitrate:          17,19 Mbps
VIDEO:
Codec                   Bitrate             Description
-----                   -------             -----------
MPEG-2 Video            14617 kbps          1080i / 29,970 fps / 16:9
AUDIO:
Codec                           Language        Bitrate         Description
-----                           --------        -------         -----------
LPCM Audio                      Undetermined    1536 kbps       2.0 / 48 kHz / 1536 kbps / 16-bit
FILES:
Name            Time In         Length          Size            Total Bitrate
----            -------         ------          ----            -------------
00009.M2TS      0:00:00.000     0:07:58.578     1 028 407 296   17 191
CHAPTERS:
Number          Time In         Length          Avg Video Rate  Max 1-Sec Rate  Max 1-Sec Time  Max 5-Sec Rate  Max 5-Sec Time  Max 10Sec Rate  Max 10Sec Time  Avg Frame Size  Max Frame Size  Max Frame Time
------          -------         ------          --------------  --------------  --------------  --------------  --------------  --------------  --------------  --------------  --------------  --------------
1               0:00:00.000     0:07:58.578     14 617 kbps     20 462 kbps     00:05:10.910    18 446 kbps     00:06:09.402    17 740 kbps     00:04:18.825    60 966 bytes    249 493 bytes   00:03:24.771
STREAM DIAGNOSTICS:
File            PID             Type            Codec           Language                Seconds                 Bitrate                 Bytes           Packets
----            ---             ----            -----           --------                --------------          --------------          -------------   -----
00009.M2TS      4113 (0x1011)   0x02            MPEG-2                                  478,478                 14 620                  874 435 885     4 760 758
00009.M2TS      4352 (0x1100)   0x80            LPCM            und (Undetermined)      478,478                 1 543                   92 263 424      574 254


QUICK SUMMARY:
Disc Title: Jimi Hendrix Live at Monterey Blu-ray 1080i MPEG2 DTS-HD MA 5.1
Disc Size: 22 573 985 348 bytes
Protection: AACS
BD-Java: Yes
Playlist: 00009.MPLS
Size: 1 028 407 296 bytes
Length: 0:07:58.578
Total Bitrate: 17,19 Mbps
Video: MPEG-2 Video / 14617 kbps / 1080i / 29,970 fps / 16:9
Audio: Undetermined / LPCM Audio / 2.0 / 48 kHz / 1536 kbps / 16-bit
********************
PLAYLIST: 00010.MPLS
********************

Код:

                                                                                Total   Video
Title                                                           Codec   Length  Movie Size      Disc Size       Bitrate Bitrate Main Audio Track                          Secondary Audio Track
-----                                                           ------  ------- --------------  --------------  ------- ------- ------------------                        ---------------------
00010.MPLS                                                      MPEG-2  0:07:42 1 050 021 888   22 573 985 348  18,14   15,00   LPCM 2.0 1536Kbps (48kHz/16-bit)

Код:
DISC INFO:
Disc Title:     Jimi Hendrix Live at Monterey Blu-ray 1080i MPEG2 DTS-HD MA 5.1
Disc Size:      22 573 985 348 bytes
Protection:     AACS
BD-Java:        Yes
BDInfo:         0.5.8
PLAYLIST REPORT:
Name:                   00010.MPLS
Length:                 0:07:42.995 (h:m:s.ms)
Size:                   1 050 021 888 bytes
Total Bitrate:          18,14 Mbps
VIDEO:
Codec                   Bitrate             Description
-----                   -------             -----------
MPEG-2 Video            14998 kbps          1080i / 29,970 fps / 16:9
AUDIO:
Codec                           Language        Bitrate         Description
-----                           --------        -------         -----------
LPCM Audio                      Undetermined    1536 kbps       2.0 / 48 kHz / 1536 kbps / 16-bit
SUBTITLES:
Codec                           Language        Bitrate         Description
-----                           --------        -------         -----------
Presentation Graphics           Undetermined    87,244 kbps
Presentation Graphics           Undetermined    106,105 kbps
Presentation Graphics           Undetermined    123,782 kbps
Presentation Graphics           Undetermined    99,580 kbps
Presentation Graphics           Undetermined    98,929 kbps
FILES:
Name            Time In         Length          Size            Total Bitrate
----            -------         ------          ----            -------------
00010.M2TS      0:00:00.000     0:07:42.995     1 050 021 888   18 143
CHAPTERS:
Number          Time In         Length          Avg Video Rate  Max 1-Sec Rate  Max 1-Sec Time  Max 5-Sec Rate  Max 5-Sec Time  Max 10Sec Rate  Max 10Sec Time  Avg Frame Size  Max Frame Size  Max Frame Time
------          -------         ------          --------------  --------------  --------------  --------------  --------------  --------------  --------------  --------------  --------------  --------------
1               0:00:00.000     0:07:42.995     14 998 kbps     22 553 kbps     00:01:36.262    17 320 kbps     00:03:10.757    17 004 kbps     00:02:58.011    62 553 bytes    307 791 bytes   00:01:36.296
STREAM DIAGNOSTICS:
File            PID             Type            Codec           Language                Seconds                 Bitrate                 Bytes           Packets
----            ---             ----            -----           --------                --------------          --------------          -------------   -----
00010.M2TS      4113 (0x1011)   0x02            MPEG-2                                  462,929                 15 000                  867 988 803     4 725 472
00010.M2TS      4352 (0x1100)   0x80            LPCM            und (Undetermined)      462,929                 1 543                   89 264 636      555 594
00010.M2TS      4608 (0x1200)   0x90            PGS             und (Undetermined)      462,929                 87                      5 049 185       28 121
00010.M2TS      4609 (0x1201)   0x90            PGS             und (Undetermined)      462,929                 106                     6 140 765       34 407
00010.M2TS      4610 (0x1202)   0x90            PGS             und (Undetermined)      462,929                 124                     7 163 793       39 988
00010.M2TS      4611 (0x1203)   0x90            PGS             und (Undetermined)      462,929                 100                     5 763 133       32 350
00010.M2TS      4612 (0x1204)   0x90            PGS             und (Undetermined)      462,929                 99                      5 725 451       32 096


QUICK SUMMARY:
Disc Title: Jimi Hendrix Live at Monterey Blu-ray 1080i MPEG2 DTS-HD MA 5.1
Disc Size: 22 573 985 348 bytes
Protection: AACS
BD-Java: Yes
Playlist: 00010.MPLS
Size: 1 050 021 888 bytes
Length: 0:07:42.995
Total Bitrate: 18,14 Mbps
Video: MPEG-2 Video / 14998 kbps / 1080i / 29,970 fps / 16:9
Audio: Undetermined / LPCM Audio / 2.0 / 48 kHz / 1536 kbps / 16-bit
Subtitle: Undetermined / 87,244 kbps
Subtitle: Undetermined / 106,105 kbps
Subtitle: Undetermined / 123,782 kbps
Subtitle: Undetermined / 99,580 kbps
Subtitle: Undetermined / 98,929 kbps
********************
PLAYLIST: 00007.MPLS
********************

Код:

                                                                                Total   Video
Title                                                           Codec   Length  Movie Size      Disc Size       Bitrate Bitrate Main Audio Track                          Secondary Audio Track
-----                                                           ------  ------- --------------  --------------  ------- ------- ------------------                        ---------------------
00007.MPLS                                                      MPEG-2  0:07:01 918 435 840     22 573 985 348  17,42   14,85   LPCM 2.0 1536Kbps (48kHz/16-bit)

Код:
DISC INFO:
Disc Title:     Jimi Hendrix Live at Monterey Blu-ray 1080i MPEG2 DTS-HD MA 5.1
Disc Size:      22 573 985 348 bytes
Protection:     AACS
BD-Java:        Yes
BDInfo:         0.5.8
PLAYLIST REPORT:
Name:                   00007.MPLS
Length:                 0:07:01.854 (h:m:s.ms)
Size:                   918 435 840 bytes
Total Bitrate:          17,42 Mbps
Angle 1 Length:         0:07:01.854 (h:m:s.ms) / 0:07:01.854 (h:m:s.ms)
Angle 1 Size:           909 656 064 bytes / 909 656 064 bytes
Angle 1 Total Bitrate:  17,25 Mbps / 17,25 Mbps
Angle 2 Length:         0:07:01.854 (h:m:s.ms) / 0:07:01.854 (h:m:s.ms)
Angle 2 Size:           903 493 632 bytes / 903 493 632 bytes
Angle 2 Total Bitrate:  17,13 Mbps / 17,13 Mbps
All Angles Length:      0:21:05.564 (h:m:s.ms)
All Angles Size:        2 731 585 536 bytes
All Angles Bitrate:     17,27 Mbps
VIDEO:
Codec                   Bitrate             Description
-----                   -------             -----------
MPEG-2 Video            14850 kbps          1080i / 29,970 fps / 16:9
MPEG-2 Video (1)        14690 (14690) kbps  1080i / 29,970 fps / 16:9
MPEG-2 Video (2)        14578 (14578) kbps  1080i / 29,970 fps / 16:9
AUDIO:
Codec                           Language        Bitrate         Description
-----                           --------        -------         -----------
LPCM Audio                      English         1536 kbps       2.0 / 48 kHz / 1536 kbps / 16-bit
FILES:
Name            Time In         Length          Size            Total Bitrate
----            -------         ------          ----            -------------
00007.M2TS      0:00:00.000     0:07:01.854     918 435 840     17 417
00017.M2TS (1)  0:00:00.000     0:07:01.854     909 656 064     17 251
00018.M2TS (2)  0:00:00.000     0:07:01.854     903 493 632     17 134
CHAPTERS:
Number          Time In         Length          Avg Video Rate  Max 1-Sec Rate  Max 1-Sec Time  Max 5-Sec Rate  Max 5-Sec Time  Max 10Sec Rate  Max 10Sec Time  Avg Frame Size  Max Frame Size  Max Frame Time
------          -------         ------          --------------  --------------  --------------  --------------  --------------  --------------  --------------  --------------  --------------  --------------
1               0:00:00.000     0:07:01.854     14 850 kbps     21 637 kbps     00:00:01.401    18 800 kbps     00:04:22.095    17 203 kbps     00:06:13.272    61 936 bytes    182 057 bytes   00:00:15.515
STREAM DIAGNOSTICS:
File            PID             Type            Codec           Language                Seconds                 Bitrate                 Bytes           Packets
----            ---             ----            -----           --------                --------------          --------------          -------------   -----
00007.M2TS      4113 (0x1011)   0x02            MPEG-2                                  421,755                 14 853                  783 056 370     4 263 158
00007.M2TS      4352 (0x1100)   0x80            LPCM            eng (English)           421,755                 1 543                   81 333 644      506 226
00017.M2TS (1)  4113 (0x1011)   0x02            MPEG-2                                  421,755                 14 694                  774 654 425     4 217 422
00017.M2TS (1)  4352 (0x1100)   0x80            LPCM            eng (English)           421,755                 1 543                   81 333 644      506 226
00018.M2TS (2)  4113 (0x1011)   0x02            MPEG-2                                  421,755                 14 581                  768 726 070     4 185 307
00018.M2TS (2)  4352 (0x1100)   0x80            LPCM            eng (English)           421,755                 1 543                   81 333 644      506 226


QUICK SUMMARY:
Disc Title: Jimi Hendrix Live at Monterey Blu-ray 1080i MPEG2 DTS-HD MA 5.1
Disc Size: 22 573 985 348 bytes
Protection: AACS
BD-Java: Yes
Playlist: 00007.MPLS
Size: 918 435 840 bytes
Length: 0:07:01.854
Total Bitrate: 17,42 Mbps
Video: MPEG-2 Video / 14850 kbps / 1080i / 29,970 fps / 16:9
Video: MPEG-2 Video (1) / 14690 (14690) kbps / 1080i / 29,970 fps / 16:9
Video: MPEG-2 Video (2) / 14578 (14578) kbps / 1080i / 29,970 fps / 16:9
Audio: English / LPCM Audio / 2.0 / 48 kHz / 1536 kbps / 16-bit
********************
PLAYLIST: 00008.MPLS
********************

Код:

                                                                                Total   Video
Title                                                           Codec   Length  Movie Size      Disc Size       Bitrate Bitrate Main Audio Track                          Secondary Audio Track
-----                                                           ------  ------- --------------  --------------  ------- ------- ------------------                        ---------------------
00008.MPLS                                                      MPEG-2  0:04:00 520 820 736     22 573 985 348  17,34   14,77   LPCM 2.0 1536Kbps (48kHz/16-bit)

Код:
DISC INFO:
Disc Title:     Jimi Hendrix Live at Monterey Blu-ray 1080i MPEG2 DTS-HD MA 5.1
Disc Size:      22 573 985 348 bytes
Protection:     AACS
BD-Java:        Yes
BDInfo:         0.5.8
PLAYLIST REPORT:
Name:                   00008.MPLS
Length:                 0:04:00.306 (h:m:s.ms)
Size:                   520 820 736 bytes
Total Bitrate:          17,34 Mbps
Angle 1 Length:         0:04:00.306 (h:m:s.ms) / 0:04:00.306 (h:m:s.ms)
Angle 1 Size:           412 489 728 bytes / 412 489 728 bytes
Angle 1 Total Bitrate:  13,73 Mbps / 13,73 Mbps
All Angles Length:      0:08:00.613 (h:m:s.ms)
All Angles Size:        933 310 464 bytes
All Angles Bitrate:     15,54 Mbps
VIDEO:
Codec                   Bitrate             Description
-----                   -------             -----------
MPEG-2 Video            14775 kbps          1080i / 29,970 fps / 16:9
MPEG-2 Video (1)        11319 (11319) kbps  1080i / 29,970 fps / 16:9
AUDIO:
Codec                           Language        Bitrate         Description
-----                           --------        -------         -----------
LPCM Audio                      English         1536 kbps       2.0 / 48 kHz / 1536 kbps / 16-bit
FILES:
Name            Time In         Length          Size            Total Bitrate
----            -------         ------          ----            -------------
00008.M2TS      0:00:00.000     0:04:00.306     520 820 736     17 339
00019.M2TS (1)  0:00:00.000     0:04:00.306     412 489 728     13 732
CHAPTERS:
Number          Time In         Length          Avg Video Rate  Max 1-Sec Rate  Max 1-Sec Time  Max 5-Sec Rate  Max 5-Sec Time  Max 10Sec Rate  Max 10Sec Time  Avg Frame Size  Max Frame Size  Max Frame Time
------          -------         ------          --------------  --------------  --------------  --------------  --------------  --------------  --------------  --------------  --------------  --------------
1               0:00:00.000     0:04:00.306     14 775 kbps     20 392 kbps     00:00:07.207    17 512 kbps     00:01:58.952    17 011 kbps     00:00:15.982    61 622 bytes    168 512 bytes   00:00:07.240
STREAM DIAGNOSTICS:
File            PID             Type            Codec           Language                Seconds                 Bitrate                 Bytes           Packets
----            ---             ----            -----           --------                --------------          --------------          -------------   -----
00008.M2TS      4113 (0x1011)   0x02            MPEG-2                                  240,207                 14 781                  443 804 215     2 416 188
00008.M2TS      4352 (0x1100)   0x80            LPCM            eng (English)           240,207                 1 543                   46 329 840      288 360
00019.M2TS (1)  4113 (0x1011)   0x02            MPEG-2                                  240,207                 11 323                  339 993 488     1 851 965
00019.M2TS (1)  4352 (0x1100)   0x80            LPCM            eng (English)           240,207                 1 543                   46 329 840      288 360


QUICK SUMMARY:
Disc Title: Jimi Hendrix Live at Monterey Blu-ray 1080i MPEG2 DTS-HD MA 5.1
Disc Size: 22 573 985 348 bytes
Protection: AACS
BD-Java: Yes
Playlist: 00008.MPLS
Size: 520 820 736 bytes
Length: 0:04:00.306
Total Bitrate: 17,34 Mbps
Video: MPEG-2 Video / 14775 kbps / 1080i / 29,970 fps / 16:9
Video: MPEG-2 Video (1) / 11319 (11319) kbps / 1080i / 29,970 fps / 16:9
Audio: English / LPCM Audio / 2.0 / 48 kHz / 1536 kbps / 16-bit
********************
PLAYLIST: 00003.MPLS
********************

Код:

                                                                                Total   Video
Title                                                           Codec   Length  Movie Size      Disc Size       Bitrate Bitrate Main Audio Track                          Secondary Audio Track
-----                                                           ------  ------- --------------  --------------  ------- ------- ------------------                        ---------------------
00003.MPLS                                                      MPEG-2  0:03:25 443 830 272     22 573 985 348  17,29   14,73   LPCM 2.0 1536Kbps (48kHz/16-bit)

Код:
DISC INFO:
Disc Title:     Jimi Hendrix Live at Monterey Blu-ray 1080i MPEG2 DTS-HD MA 5.1
Disc Size:      22 573 985 348 bytes
Protection:     AACS
BD-Java:        Yes
BDInfo:         0.5.8
PLAYLIST REPORT:
Name:                   00003.MPLS
Length:                 0:03:25.305 (h:m:s.ms)
Size:                   443 830 272 bytes
Total Bitrate:          17,29 Mbps
Angle 1 Length:         0:03:25.305 (h:m:s.ms) / 0:03:25.305 (h:m:s.ms)
Angle 1 Size:           446 294 016 bytes / 446 294 016 bytes
Angle 1 Total Bitrate:  17,39 Mbps / 17,39 Mbps
Angle 2 Length:         0:03:25.305 (h:m:s.ms) / 0:03:25.305 (h:m:s.ms)
Angle 2 Size:           442 490 880 bytes / 442 490 880 bytes
Angle 2 Total Bitrate:  17,24 Mbps / 17,24 Mbps
All Angles Length:      0:10:15.915 (h:m:s.ms)
All Angles Size:        1 332 615 168 bytes
All Angles Bitrate:     17,31 Mbps
VIDEO:
Codec                   Bitrate             Description
-----                   -------             -----------
MPEG-2 Video            14732 kbps          1080i / 29,970 fps / 16:9
MPEG-2 Video (1)        14824 (14824) kbps  1080i / 29,970 fps / 16:9
MPEG-2 Video (2)        14682 (14682) kbps  1080i / 29,970 fps / 16:9
AUDIO:
Codec                           Language        Bitrate         Description
-----                           --------        -------         -----------
LPCM Audio                      English         1536 kbps       2.0 / 48 kHz / 1536 kbps / 16-bit
FILES:
Name            Time In         Length          Size            Total Bitrate
----            -------         ------          ----            -------------
00003.M2TS      0:00:00.000     0:03:25.305     443 830 272     17 294
00013.M2TS (1)  0:00:00.000     0:03:25.305     446 294 016     17 390
00014.M2TS (2)  0:00:00.000     0:03:25.305     442 490 880     17 242
CHAPTERS:
Number          Time In         Length          Avg Video Rate  Max 1-Sec Rate  Max 1-Sec Time  Max 5-Sec Rate  Max 5-Sec Time  Max 10Sec Rate  Max 10Sec Time  Avg Frame Size  Max Frame Size  Max Frame Time
------          -------         ------          --------------  --------------  --------------  --------------  --------------  --------------  --------------  --------------  --------------  --------------
1               0:00:00.000     0:03:25.305     14 732 kbps     22 942 kbps     00:03:11.658    17 718 kbps     00:02:40.894    16 758 kbps     00:00:01.368    61 446 bytes    181 652 bytes   00:03:11.858
STREAM DIAGNOSTICS:
File            PID             Type            Codec           Language                Seconds                 Bitrate                 Bytes           Packets
----            ---             ----            -----           --------                --------------          --------------          -------------   -----
00003.M2TS      4113 (0x1011)   0x02            MPEG-2                                  205,205                 14 739                  378 076 807     2 058 350
00003.M2TS      4352 (0x1100)   0x80            LPCM            eng (English)           205,205                 1 543                   39 583 768      246 372
00013.M2TS (1)  4113 (0x1011)   0x02            MPEG-2                                  205,205                 14 832                  380 441 760     2 071 183
00013.M2TS (1)  4352 (0x1100)   0x80            LPCM            eng (English)           205,205                 1 543                   39 583 768      246 372
00014.M2TS (2)  4113 (0x1011)   0x02            MPEG-2                                  205,238                 14 687                  376 795 900     2 051 381
00014.M2TS (2)  4352 (0x1100)   0x80            LPCM            eng (English)           205,238                 1 543                   39 583 768      246 372


QUICK SUMMARY:
Disc Title: Jimi Hendrix Live at Monterey Blu-ray 1080i MPEG2 DTS-HD MA 5.1
Disc Size: 22 573 985 348 bytes
Protection: AACS
BD-Java: Yes
Playlist: 00003.MPLS
Size: 443 830 272 bytes
Length: 0:03:25.305
Total Bitrate: 17,29 Mbps
Video: MPEG-2 Video / 14732 kbps / 1080i / 29,970 fps / 16:9
Video: MPEG-2 Video (1) / 14824 (14824) kbps / 1080i / 29,970 fps / 16:9
Video: MPEG-2 Video (2) / 14682 (14682) kbps / 1080i / 29,970 fps / 16:9
Audio: English / LPCM Audio / 2.0 / 48 kHz / 1536 kbps / 16-bit
********************
PLAYLIST: 00006.MPLS
********************

Код:

                                                                                Total   Video
Title                                                           Codec   Length  Movie Size      Disc Size       Bitrate Bitrate Main Audio Track                          Secondary Audio Track
-----                                                           ------  ------- --------------  --------------  ------- ------- ------------------                        ---------------------
00006.MPLS                                                      MPEG-2  0:03:21 440 297 472     22 573 985 348  17,45   14,88   LPCM 2.0 1536Kbps (48kHz/16-bit)

Код:
DISC INFO:
Disc Title:     Jimi Hendrix Live at Monterey Blu-ray 1080i MPEG2 DTS-HD MA 5.1
Disc Size:      22 573 985 348 bytes
Protection:     AACS
BD-Java:        Yes
BDInfo:         0.5.8
PLAYLIST REPORT:
Name:                   00006.MPLS
Length:                 0:03:21.868 (h:m:s.ms)
Size:                   440 297 472 bytes
Total Bitrate:          17,45 Mbps
Angle 1 Length:         0:03:21.868 (h:m:s.ms) / 0:03:21.868 (h:m:s.ms)
Angle 1 Size:           434 810 880 bytes / 434 810 880 bytes
Angle 1 Total Bitrate:  17,23 Mbps / 17,23 Mbps
Angle 2 Length:         0:03:21.868 (h:m:s.ms) / 0:03:21.868 (h:m:s.ms)
Angle 2 Size:           440 808 768 bytes / 440 808 768 bytes
Angle 2 Total Bitrate:  17,47 Mbps / 17,47 Mbps
All Angles Length:      0:10:05.605 (h:m:s.ms)
All Angles Size:        1 315 917 120 bytes
All Angles Bitrate:     17,38 Mbps
VIDEO:
Codec                   Bitrate             Description
-----                   -------             -----------
MPEG-2 Video            14880 kbps          1080i / 29,970 fps / 16:9
MPEG-2 Video (1)        14672 (14672) kbps  1080i / 29,970 fps / 16:9
MPEG-2 Video (2)        14900 (14897) kbps  1080i / 29,970 fps / 16:9
AUDIO:
Codec                           Language        Bitrate         Description
-----                           --------        -------         -----------
LPCM Audio                      English         1536 kbps       2.0 / 48 kHz / 1536 kbps / 16-bit
FILES:
Name            Time In         Length          Size            Total Bitrate
----            -------         ------          ----            -------------
00006.M2TS      0:00:00.000     0:03:21.868     440 297 472     17 449
00015.M2TS (1)  0:00:00.000     0:03:21.868     434 810 880     17 231
00016.M2TS (2)  0:00:00.000     0:03:21.868     440 808 768     17 466
CHAPTERS:
Number          Time In         Length          Avg Video Rate  Max 1-Sec Rate  Max 1-Sec Time  Max 5-Sec Rate  Max 5-Sec Time  Max 10Sec Rate  Max 10Sec Time  Avg Frame Size  Max Frame Size  Max Frame Time
------          -------         ------          --------------  --------------  --------------  --------------  --------------  --------------  --------------  --------------  --------------  --------------
1               0:00:00.000     0:03:21.868     14 880 kbps     22 310 kbps     00:00:36.636    18 611 kbps     00:00:01.768    17 448 kbps     00:00:01.768    62 063 bytes    188 087 bytes   00:00:36.669
STREAM DIAGNOSTICS:
File            PID             Type            Codec           Language                Seconds                 Bitrate                 Bytes           Packets
----            ---             ----            -----           --------                --------------          --------------          -------------   -----
00006.M2TS      4113 (0x1011)   0x02            MPEG-2                                  201,768                 14 888                  375 479 174     2 044 180
00006.M2TS      4352 (0x1100)   0x80            LPCM            eng (English)           201,768                 1 543                   38 920 536      242 244
00015.M2TS (1)  4113 (0x1011)   0x02            MPEG-2                                  201,768                 14 679                  370 224 661     2 015 617
00015.M2TS (1)  4352 (0x1100)   0x80            LPCM            eng (English)           201,768                 1 543                   38 920 536      242 244
00016.M2TS (2)  4113 (0x1011)   0x02            MPEG-2                                  202,302                 14 870                  376 019 586     2 047 130
00016.M2TS (2)  4352 (0x1100)   0x80            LPCM            eng (English)           202,302                 1 539                   38 920 536      242 244


QUICK SUMMARY:
Disc Title: Jimi Hendrix Live at Monterey Blu-ray 1080i MPEG2 DTS-HD MA 5.1
Disc Size: 22 573 985 348 bytes
Protection: AACS
BD-Java: Yes
Playlist: 00006.MPLS
Size: 440 297 472 bytes
Length: 0:03:21.868
Total Bitrate: 17,45 Mbps
Video: MPEG-2 Video / 14880 kbps / 1080i / 29,970 fps / 16:9
Video: MPEG-2 Video (1) / 14672 (14672) kbps / 1080i / 29,970 fps / 16:9
Video: MPEG-2 Video (2) / 14900 (14897) kbps / 1080i / 29,970 fps / 16:9
Audio: English / LPCM Audio / 2.0 / 48 kHz / 1536 kbps / 16-bit
********************
PLAYLIST: 00012.MPLS
********************

Код:

                                                                                Total   Video
Title                                                           Codec   Length  Movie Size      Disc Size       Bitrate Bitrate Main Audio Track                          Secondary Audio Track
-----                                                           ------  ------- --------------  --------------  ------- ------- ------------------                        ---------------------
00012.MPLS                                                      MPEG-2  0:01:58 246 128 640     22 573 985 348  16,68   14,13   LPCM 2.0 1536Kbps (48kHz/16-bit)

Код:
DISC INFO:
Disc Title:     Jimi Hendrix Live at Monterey Blu-ray 1080i MPEG2 DTS-HD MA 5.1
Disc Size:      22 573 985 348 bytes
Protection:     AACS
BD-Java:        Yes
BDInfo:         0.5.8
PLAYLIST REPORT:
Name:                   00012.MPLS
Length:                 0:01:58.051 (h:m:s.ms)
Size:                   246 128 640 bytes
Total Bitrate:          16,68 Mbps
VIDEO:
Codec                   Bitrate             Description
-----                   -------             -----------
MPEG-2 Video            14126 kbps          1080i / 29,970 fps / 16:9
AUDIO:
Codec                           Language        Bitrate         Description
-----                           --------        -------         -----------
LPCM Audio                      Undetermined    1536 kbps       2.0 / 48 kHz / 1536 kbps / 16-bit
FILES:
Name            Time In         Length          Size            Total Bitrate
----            -------         ------          ----            -------------
00012.M2TS      0:00:00.000     0:01:58.051     246 128 640     16 679
CHAPTERS:
Number          Time In         Length          Avg Video Rate  Max 1-Sec Rate  Max 1-Sec Time  Max 5-Sec Rate  Max 5-Sec Time  Max 10Sec Rate  Max 10Sec Time  Avg Frame Size  Max Frame Size  Max Frame Time
------          -------         ------          --------------  --------------  --------------  --------------  --------------  --------------  --------------  --------------  --------------  --------------
1               0:00:00.000     0:01:58.051     14 126 kbps     22 845 kbps     00:01:40.567    17 075 kbps     00:01:52.078    15 846 kbps     00:01:07.033    58 918 bytes    885 278 bytes   00:01:26.086
STREAM DIAGNOSTICS:
File            PID             Type            Codec           Language                Seconds                 Bitrate                 Bytes           Packets
----            ---             ----            -----           --------                --------------          --------------          -------------   -----
00012.M2TS      4113 (0x1011)   0x02            MPEG-2                                  117,951                 14 138                  208 452 363     1 134 983
00012.M2TS      4352 (0x1100)   0x80            LPCM            und (Undetermined)      117,951                 1 544                   22 760 312      141 662


QUICK SUMMARY:
Disc Title: Jimi Hendrix Live at Monterey Blu-ray 1080i MPEG2 DTS-HD MA 5.1
Disc Size: 22 573 985 348 bytes
Protection: AACS
BD-Java: Yes
Playlist: 00012.MPLS
Size: 246 128 640 bytes
Length: 0:01:58.051
Total Bitrate: 16,68 Mbps
Video: MPEG-2 Video / 14126 kbps / 1080i / 29,970 fps / 16:9
Audio: Undetermined / LPCM Audio / 2.0 / 48 kHz / 1536 kbps / 16-bit
********************
PLAYLIST: 00004.MPLS
********************

Код:

                                                                                Total   Video
Title                                                           Codec   Length  Movie Size      Disc Size       Bitrate Bitrate Main Audio Track                          Secondary Audio Track
-----                                                           ------  ------- --------------  --------------  ------- ------- ------------------                        ---------------------
00004.MPLS                                                      MPEG-2  0:00:59 132 194 304     22 573 985 348  17,63   15,04   LPCM 2.0 1536Kbps (48kHz/16-bit)

Код:
DISC INFO:
Disc Title:     Jimi Hendrix Live at Monterey Blu-ray 1080i MPEG2 DTS-HD MA 5.1
Disc Size:      22 573 985 348 bytes
Protection:     AACS
BD-Java:        Yes
BDInfo:         0.5.8
PLAYLIST REPORT:
Name:                   00004.MPLS
Length:                 0:00:59.993 (h:m:s.ms)
Size:                   132 194 304 bytes
Total Bitrate:          17,63 Mbps
VIDEO:
Codec                   Bitrate             Description
-----                   -------             -----------
MPEG-2 Video            15036 kbps          1080i / 29,970 fps / 16:9
AUDIO:
Codec                           Language        Bitrate         Description
-----                           --------        -------         -----------
LPCM Audio                      Undetermined    1536 kbps       2.0 / 48 kHz / 1536 kbps / 16-bit
FILES:
Name            Time In         Length          Size            Total Bitrate
----            -------         ------          ----            -------------
00004.M2TS      0:00:00.000     0:00:59.993     132 194 304     17 628
CHAPTERS:
Number          Time In         Length          Avg Video Rate  Max 1-Sec Rate  Max 1-Sec Time  Max 5-Sec Rate  Max 5-Sec Time  Max 10Sec Rate  Max 10Sec Time  Avg Frame Size  Max Frame Size  Max Frame Time
------          -------         ------          --------------  --------------  --------------  --------------  --------------  --------------  --------------  --------------  --------------  --------------
1               0:00:00.000     0:00:08.008     15 997 kbps     24 653 kbps     00:00:01.368    20 704 kbps     00:00:00.934    0 kbps          00:00:00.000    66 443 bytes    156 958 bytes   00:00:02.135
2               0:00:08.008     0:00:21.021     14 517 kbps     18 077 kbps     00:00:27.193    15 988 kbps     00:00:23.189    15 412 kbps     00:00:18.985    60 549 bytes    210 769 bytes   00:00:14.481
3               0:00:29.029     0:00:30.964     15 139 kbps     18 815 kbps     00:00:55.722    16 048 kbps     00:00:29.929    15 499 kbps     00:00:40.006    63 211 bytes    211 993 bytes   00:00:55.522
STREAM DIAGNOSTICS:
File            PID             Type            Codec           Language                Seconds                 Bitrate                 Bytes           Packets
----            ---             ----            -----           --------                --------------          --------------          -------------   -----
00004.M2TS      4113 (0x1011)   0x02            MPEG-2                                  59,893                  15 061                  112 755 039     613 833
00004.M2TS      4352 (0x1100)   0x80            LPCM            und (Undetermined)      59,893                  1 545                   11 566 716      71 992


QUICK SUMMARY:
Disc Title: Jimi Hendrix Live at Monterey Blu-ray 1080i MPEG2 DTS-HD MA 5.1
Disc Size: 22 573 985 348 bytes
Protection: AACS
BD-Java: Yes
Playlist: 00004.MPLS
Size: 132 194 304 bytes
Length: 0:00:59.993
Total Bitrate: 17,63 Mbps
Video: MPEG-2 Video / 15036 kbps / 1080i / 29,970 fps / 16:9
Audio: Undetermined / LPCM Audio / 2.0 / 48 kHz / 1536 kbps / 16-bit
********************
PLAYLIST: 00001.MPLS
********************

Код:

                                                                                Total   Video
Title                                                           Codec   Length  Movie Size      Disc Size       Bitrate Bitrate Main Audio Track                          Secondary Audio Track
-----                                                           ------  ------- --------------  --------------  ------- ------- ------------------                        ---------------------
00001.MPLS                                                      MPEG-2  0:00:48 85 813 248      22 573 985 348  14,20   11,75   LPCM 2.0 1536Kbps (48kHz/16-bit)

Код:
DISC INFO:
Disc Title:     Jimi Hendrix Live at Monterey Blu-ray 1080i MPEG2 DTS-HD MA 5.1
Disc Size:      22 573 985 348 bytes
Protection:     AACS
BD-Java:        Yes
BDInfo:         0.5.8
PLAYLIST REPORT:
Name:                   00001.MPLS
Length:                 0:00:48.348 (h:m:s.ms)
Size:                   85 813 248 bytes
Total Bitrate:          14,20 Mbps
VIDEO:
Codec                   Bitrate             Description
-----                   -------             -----------
MPEG-2 Video            11750 kbps          1080i / 29,970 fps / 16:9
AUDIO:
Codec                           Language        Bitrate         Description
-----                           --------        -------         -----------
LPCM Audio                      Undetermined    1536 kbps       2.0 / 48 kHz / 1536 kbps / 16-bit
FILES:
Name            Time In         Length          Size            Total Bitrate
----            -------         ------          ----            -------------
00001.M2TS      0:00:00.000     0:00:48.348     85 813 248      14 199
CHAPTERS:
Number          Time In         Length          Avg Video Rate  Max 1-Sec Rate  Max 1-Sec Time  Max 5-Sec Rate  Max 5-Sec Time  Max 10Sec Rate  Max 10Sec Time  Avg Frame Size  Max Frame Size  Max Frame Time
------          -------         ------          --------------  --------------  --------------  --------------  --------------  --------------  --------------  --------------  --------------  --------------
1               0:00:00.000     0:00:48.348     11 750 kbps     30 118 kbps     00:00:12.979    22 493 kbps     00:00:25.058    19 007 kbps     00:00:12.979    49 007 bytes    498 676 bytes   00:00:13.013
STREAM DIAGNOSTICS:
File            PID             Type            Codec           Language                Seconds                 Bitrate                 Bytes           Packets
----            ---             ----            -----           --------                --------------          --------------          -------------   -----
00001.M2TS      4113 (0x1011)   0x02            MPEG-2                                  48,248                  11 774                  71 010 821      386 751
00001.M2TS      4352 (0x1100)   0x80            LPCM            und (Undetermined)      48,248                  1 546                   9 321 552       58 018


QUICK SUMMARY:
Disc Title: Jimi Hendrix Live at Monterey Blu-ray 1080i MPEG2 DTS-HD MA 5.1
Disc Size: 22 573 985 348 bytes
Protection: AACS
BD-Java: Yes
Playlist: 00001.MPLS
Size: 85 813 248 bytes
Length: 0:00:48.348
Total Bitrate: 14,20 Mbps
Video: MPEG-2 Video / 11750 kbps / 1080i / 29,970 fps / 16:9
Audio: Undetermined / LPCM Audio / 2.0 / 48 kHz / 1536 kbps / 16-bit
********************
PLAYLIST: 00005.MPLS
********************

Код:

                                                                                Total   Video
Title                                                           Codec   Length  Movie Size      Disc Size       Bitrate Bitrate Main Audio Track                          Secondary Audio Track
-----                                                           ------  ------- --------------  --------------  ------- ------- ------------------                        ---------------------
00005.MPLS                                                      MPEG-2  0:00:30 66 908 160      22 573 985 348  17,82   15,20   LPCM 2.0 1536Kbps (48kHz/16-bit)

Код:
DISC INFO:
Disc Title:     Jimi Hendrix Live at Monterey Blu-ray 1080i MPEG2 DTS-HD MA 5.1
Disc Size:      22 573 985 348 bytes
Protection:     AACS
BD-Java:        Yes
BDInfo:         0.5.8
PLAYLIST REPORT:
Name:                   00005.MPLS
Length:                 0:00:30.030 (h:m:s.ms)
Size:                   66 908 160 bytes
Total Bitrate:          17,82 Mbps
VIDEO:
Codec                   Bitrate             Description
-----                   -------             -----------
MPEG-2 Video            15200 kbps          1080i / 29,970 fps / 16:9
AUDIO:
Codec                           Language        Bitrate         Description
-----                           --------        -------         -----------
LPCM Audio                      Undetermined    1536 kbps       2.0 / 48 kHz / 1536 kbps / 16-bit
FILES:
Name            Time In         Length          Size            Total Bitrate
----            -------         ------          ----            -------------
00005.M2TS      0:00:00.000     0:00:30.030     66 908 160      17 824
CHAPTERS:
Number          Time In         Length          Avg Video Rate  Max 1-Sec Rate  Max 1-Sec Time  Max 5-Sec Rate  Max 5-Sec Time  Max 10Sec Rate  Max 10Sec Time  Avg Frame Size  Max Frame Size  Max Frame Time
------          -------         ------          --------------  --------------  --------------  --------------  --------------  --------------  --------------  --------------  --------------  --------------
1               0:00:00.000     0:00:30.030     15 200 kbps     17 840 kbps     00:00:25.658    16 038 kbps     00:00:24.691    15 594 kbps     00:00:19.519    63 398 bytes    211 840 bytes   00:00:08.508
STREAM DIAGNOSTICS:
File            PID             Type            Codec           Language                Seconds                 Bitrate                 Bytes           Packets
----            ---             ----            -----           --------                --------------          --------------          -------------   -----
00005.M2TS      4113 (0x1011)   0x02            MPEG-2                                  29,930                  15 251                  57 058 169      310 633
00005.M2TS      4352 (0x1100)   0x80            LPCM            und (Undetermined)      29,930                  1 567                   5 861 764       36 484


QUICK SUMMARY:
Disc Title: Jimi Hendrix Live at Monterey Blu-ray 1080i MPEG2 DTS-HD MA 5.1
Disc Size: 22 573 985 348 bytes
Protection: AACS
BD-Java: Yes
Playlist: 00005.MPLS
Size: 66 908 160 bytes
Length: 0:00:30.030
Total Bitrate: 17,82 Mbps
Video: MPEG-2 Video / 15200 kbps / 1080i / 29,970 fps / 16:9
Audio: Undetermined / LPCM Audio / 2.0 / 48 kHz / 1536 kbps / 16-bit


Скриншоты
[





                                                                                       
                       
                       
                       
                       
                       
                                磁力下载:(论坛代下载服务)
                                                               
                                       
游客,本主题需向作者支付 7音乐币 才能浏览,金币充值, 免回复、免金币,直接查看内容请开通VIP支付

                                               
  • 21.02 GB
  • 温馨提示

    记得善用社区搜索功能,那里可能会有你想要的资源;论坛站内搜索

    如果你有什么需要的资源可以去资源求档发帖,求助社区的网友,我们会在第一时间给你回复哦;资源求档

    对于本社区网盘链接失效密码错误各种报错请在反馈板块反馈报错发帖,您的支持,是我们发展的最大动力;投诉建议

    回复

    使用道具 举报

    您需要登录后才可以回帖 登录 | 立即注册 微信登录

    本版积分规则

    关注0

    粉丝0

    帖子30176

    发布主题
    阅读排行更多+
    关闭

    站长推荐上一条 /1 下一条

    收藏帖子 返回列表 这是一个自定义按钮
    音乐分享,音乐下载。
    微信公众号
    微信号:hires_
    意见反馈:admin@maomicd.com

    加入我们的官方QQ群和微信群

    Powered by Discuz! X3.4 Archiver|手机版|小黑屋|捌零音乐论坛 ( 苏ICP备20015413号 )|( 苏公网安备 32030502000272号) 繁體

    GMT+8, 2021-5-18 19:50