自购原抓音乐圈:只有自购、合购、原抓级高解析(hires、sacd、dsd)正版音乐资源分享!【点我打开
极速无线网卡:千兆无线网卡、服务器网卡、USB接口台式机笔记本网卡 硬盘代考无损音乐!【点我打开
广告

[摇滚] Ayreon - Electric Castle Live And Other Tales [2020, Progressive Metal, Prog Rock, Folk Rock, BDRip, 1080p]

[复制链接]
lz189 发表于 2021-4-13 15:33:59 | 显示全部楼层 |阅读模式 打印 上一主题 下一主题
Electric Castle Live And Other Tales
Жанр: Progressive Metal, Prog Rock, Folk Rock
Продолжительность: 02:38:39
Год выпуска: 2020Описание: More than 20 years ago Ayreon published her famous album "Into The Electric Castle". Arjen Anthony Lucassen brought to the jubilee the songs last year on the stage. Now with »Electric Castle live And Other of valley« there is the recording in picture and tone. In a total of four nights the songs were performed in the Dutch castle Til again. Besides, Mastermind Lucassen was supported by some singers and musicians of the original album of 1998, under it Thijs van Blank, Damian Wilson, Edward Reekers and Anneke van to avarice mountains. There were other gas baptismal rides of Simone Simons (Epica), John Jaycee Cuijpers (Praying Mantis) and many more. But the title would not be called »Electric Castle live And Other of valley« if beside the Electric Castle songs still other "stories" did not wait. Pieces of other Lucassen projects like The Gentle Storm, Ambeon, Stream Of passion, Guilt Machine, star One and his solo album belong to it. A Marillion cover also gives it. A rousing live album with concert film, a progressive rock classic in the new garment and other highlights: Here is »Electric Castle live And Other of valley« from Ayreon.Треклист:
1. Welcome To The New Dimension
2. Isis And Osiris
3. Amazing Flight
4. Time Beyond Time
5. The Decision Tree
6. Tunnel Of Light
7. Across The Rainbow Bridge
8. The Garden Of Emotions
9. Valley Of The Queens
10. The Castle Hall
11. Tower Of Hope
12. Cosmic Fusion
13. Robby Valentine
14. The Mirror Maze
15. Evil Devolution
16. The Two Gates
17. Forever Of The Stars
18. Another Time, Another Space
19. Shores Of India
20. Ashes
21. Out In The Real World
22. Twisted Coil
23. Kayleigh
24. Pink Beatles In A Purple Zeppelin
25. Speech Arjen And Joost
26. Songs Of The Ocean

Спасибо anbelk27Качество: BDRip
Разрешение видео/развертка: 1080p
Контейнер: MKV
Видео кодек: H.264
Аудио кодек: DTS / PCM
Видео: MPEG-4 AVC / 1920*1080 / (16:9) / 9200 kbps / 23.97 fps
Аудио #1: DTS / 755 kbps / 48.0 khz / 6 ch / 24 bit
Аудио #2: PCM / 1536 kbps / 48.0 khz / 2 ch / 16 bit Источник
Log x264

x264 [info]: using SAR=1/1
x264 [info]: using cpu capabilities: MMX2 SSE2Fast SSSE3 SSE4.2 AVX FMA3 BMI2 AVX2
x264 [info]: profile High, level 4.1
x264 [info]: frame I:2405  Avg QP:15.52  size:230355
x264 [info]: frame P:71664 Avg QP:18.56  size: 79591
x264 [info]: frame B:154177 Avg QP:21.47  size: 30417
x264 [info]: consecutive B-frames: 10.8%  7.1% 20.3% 10.3%  9.0% 39.6%  1.6%  1.0%  0.4%
x264 [info]: mb I  I16..4: 17.2% 51.4% 31.4%
x264 [info]: mb P  I16..4: 10.3% 26.4%  3.2%  P16..4: 34.7% 10.8%  6.0%  0.3%  0.1%    skip: 8.0%
x264 [info]: mb B  I16..4:  1.3%  3.0%  0.5%  B16..8: 49.2%  8.3%  1.7%  direct: 6.1%  skip:29.8%  L0:46.3% L1:43.1% BI:10.5%
x264 [info]: 8x8 transform intra:64.5% inter:64.6%
x264 [info]: direct mvs  spatial:97.4% temporal:2.6%
x264 [info]: coded y,uvDC,uvAC intra: 55.0% 68.3% 31.0% inter: 23.3% 26.1% 3.4%
x264 [info]: i16 v,h,dc,p: 43% 17% 16% 25%
x264 [info]: i8 v,h,dc,ddl,ddr,vr,hd,vl,hu: 17% 13% 23%  6%  7%  8%  8%  8%  9%
x264 [info]: i4 v,h,dc,ddl,ddr,vr,hd,vl,hu: 17% 14% 14%  7% 10% 10% 10%  8% 11%
x264 [info]: i8c dc,h,v,p: 46% 24% 20% 10%
x264 [info]: Weighted P-Frames: Y:13.2% UV:10.0%
x264 [info]: ref P L0: 62.4% 12.1% 16.3%  7.6%  1.5%  0.1%
x264 [info]: ref B L0: 89.8%  8.3%  1.9%
x264 [info]: ref B L1: 98.4%  1.6%
x264 [info]: kb/s:9199.76

MI

Общее
Уникальный идентификатор                 : 228135398527753394588653120510906028817 (0xABA1478FEDD02413A234C3DFB5035311)
Полное имя                               : E:\Video\Ayreon - Electric Castle Live And Other Tales.mkv
Формат                                   : Matroska
Версия формата                           : Version 4
Размер файла                             : 12,7 Гбайт
Продолжительность                        : 2 ч. 38 м.
Общий поток                              : 11,5 Мбит/сек
Дата кодирования                         : UTC 2020-03-30 08:48:39
Программа кодирования                    : mkvmerge v7.1.0 ('Good Love') 64bit built on Jul 27 2014 13:06:55
Библиотека кодирования                   : libebml v1.3.0 + libmatroska v1.4.1
Видео
Идентификатор                            : 1
Формат                                   : AVC
Формат/Информация                        : Advanced Video Codec
Профиль формата                          : High@L4.1
Настройки формата                        : CABAC / 4 Ref Frames
Параметр CABAC формата                   : Да
Параметр RefFrames формата               : 4 кадра
Идентификатор кодека                     : V_MPEG4/ISO/AVC
Продолжительность                        : 2 ч. 38 м.
Битрейт                                  : 9200 Кбит/сек
Ширина                                   : 1920 пикселей
Высота                                   : 1080 пикселей
Соотношение сторон                       : 16:9
Режим частоты кадров                     : Постоянный
Частота кадров                           : 23,976 (24000/1001) кадра/сек
Цветовое пространство                    : YUV
Субдискретизация насыщенности            : 4:2:0
Битовая глубина                          : 8 бит
Тип развёртки                            : Прогрессивная
Бит/(Пиксели*Кадры)                      : 0.185
Размер потока                            : 10,2 Гбайт (80%)
Библиотека кодирования                   : x264 core 152 r2851 ba24899
Настройки программы                      : cabac=1 / ref=4 / deblock=1:-2:-2 / analyse=0x3:0x133 / me=umh / subme=10 / psy=1 / psy_rd=1.00:0.15 / mixed_ref=1 / me_range=32 / chroma_me=1 / trellis=2 / 8x8dct=1 / cqm=0 / deadzone=21,11 / fast_pskip=1 / chroma_qp_offset=-3 / threads=6 / lookahead_threads=1 / sliced_threads=0 / nr=0 / decimate=1 / interlaced=0 / bluray_compat=0 / constrained_intra=0 / bframes=8 / b_pyramid=2 / b_adapt=2 / b_bias=0 / direct=3 / weightb=1 / open_gop=0 / weightp=2 / keyint=240 / keyint_min=23 / scenecut=40 / intra_refresh=0 / rc_lookahead=60 / rc=2pass / mbtree=1 / bitrate=9200 / ratetol=1.0 / qcomp=0.60 / qpmin=0 / qpmax=69 / qpstep=4 / cplxblur=20.0 / qblur=0.5 / vbv_maxrate=50000 / vbv_bufsize=50000 / nal_hrd=none / filler=0 / ip_ratio=1.40 / aq=1:1.00
Default                                  : Да
Forced                                   : Нет
Аудио #1
Идентификатор                            : 2
Формат                                   : DTS
Формат/Информация                        : Digital Theater Systems
Идентификатор кодека                     : A_DTS
Продолжительность                        : 2 ч. 38 м.
Вид битрейта                             : Постоянный
Битрейт                                  : 755 Кбит/сек
Каналы                                   : 6 каналов
ChannelLayout                            : C L R Ls Rs LFE
Частота                                  : 48,0 КГц
Частота кадров                           : 93,750 кадра/сек (512 SPF)
Битовая глубина                          : 24 бит
Метод сжатия                             : С потерями
Размер потока                            : 856 Мбайт (7%)
Default                                  : Да
Forced                                   : Нет
Аудио #2
Идентификатор                            : 3
Формат                                   : PCM
Настройки формата                        : Little / Signed
Идентификатор кодека                     : A_PCM/INT/LIT
Продолжительность                        : 2 ч. 38 м.
Вид битрейта                             : Постоянный
Битрейт                                  : 1536 Кбит/сек
Каналы                                   : 2 канала
Частота                                  : 48,0 КГц
Частота кадров                           : 32,000 кадра/сек (1500 SPF)
Битовая глубина                          : 16 бит
Размер потока                            : 1,70 Гбайт (13%)
Default                                  : Нет
Forced                                   : Нет
Меню
00:00:00.000                             : en:Welcome to the New Dimension
00:03:09.188                             : en:Isis and Osiris
00:14:02.007                             : en:Amazing Flight
00:22:27.763                             : en:Time Beyond Time
00:28:59.821                             : en:The Decision Tree
00:34:43.915                             : en:Tunnel of Light
00:39:13.351                             : en:Across the Rainbow Bridge
00:45:18.215                             : en:The Garden of Emotions
00:54:19.256                             : en:Valley of the Queens
00:58:39.098                             : en:The Castle Hall
01:04:25.361                             : en:Tower of Hope
01:09:55.524                             : en:Cosmic Fusion
01:16:42.139                             : en:Robby Valentine
01:21:38.101                             : en:The Mirror Maze
01:28:33.308                             : en:Evil Devolution
01:33:33.441                             : en:The Two Gates
01:40:24.810                             : en:Forever of the Stars
01:42:10.791                             : en:Another Time, Another Space
01:48:34.758                             : en:Shores of India
01:53:59.249                             : en:Ashes
01:59:04.887                             : en:Out in the Real World
02:03:07.797                             : en:Twisted Coil
02:12:25.020                             : en:Kayleigh
02:16:40.191                             : en:Pink Beatles in a Purple Zeppelin
02:21:16.634                             : en:Speech Arjen and Joost
02:28:12.884                             : en:Songs of the Ocean
02:35:16.307                             : en:Credits


Скриншоты

















                                                                                       
                       
                       
                       
                       
                       
                                磁力下载:(论坛代下载服务)
                                                               
                                       
游客,本主题需向作者支付 7音乐币 才能浏览,金币充值, 免回复、免金币,直接查看内容请开通VIP支付

                                               
  • 12.74 GB
  • 温馨提示

    记得善用社区搜索功能,那里可能会有你想要的资源;论坛站内搜索

    如果你有什么需要的资源可以去资源求档发帖,求助社区的网友,我们会在第一时间给你回复哦;资源求档

    对于本社区网盘链接失效密码错误各种报错请在反馈板块反馈报错发帖,您的支持,是我们发展的最大动力;投诉建议

    回复

    使用道具 举报

    您需要登录后才可以回帖 登录 | 立即注册 微信登录

    本版积分规则

    关注0

    粉丝0

    帖子30120

    发布主题
    阅读排行更多+
    关闭

    站长推荐上一条 /1 下一条

    收藏帖子 返回列表 这是一个自定义按钮
    音乐分享,音乐下载。
    微信公众号
    微信号:hires_
    意见反馈:admin@maomicd.com

    加入我们的官方QQ群和微信群

    Powered by Discuz! X3.4 Archiver|手机版|小黑屋|捌零音乐论坛 ( 苏ICP备20015413号 )|( 苏公网安备 32030502000272号) 繁體

    GMT+8, 2021-5-10 06:54