自购原抓音乐圈:只有自购、合购、原抓级高解析(hires、sacd、dsd)正版音乐资源分享!【点我打开
极速无线网卡:千兆无线网卡、服务器网卡、USB接口台式机笔记本网卡 硬盘代考无损音乐!【点我打开
广告

[摇滚] Birdy • Live ZDF@Bauhaus [2013, Indie Pop, Indie rock, HDTV 720p]

[复制链接]
10086 发表于 2021-4-13 15:33:59 | 显示全部楼层 |阅读模式 打印 上一主题 下一主题
Birdy
Live ZDF@Bauhaus


Жанр: Indie pop, Indie rock
Продолжительность: 00:58:55
Год выпуска: 2013
Качество: HDTV 720p
Контейнер: TS
Видео кодек: H.264
Аудио кодек: AC3
Видео: MPEG4 Video (H264) 1280x720 50fps 11.1Mbps
Аудио 1: Dolby AC3 48000Hz stereo 448kbps
Аудио 2: MPEG Audio 48000Hz stereo 256kbps
Аудио 3: MPEG Audio 48000Hz stereo 192kbps
Треклист
Жасмин ван ден Богард (род. 15 мая 1996 года), известная под псевдонимом Birdy
британская певица, победительница конкурса Open Mic UK 2008 года.
01.1901
02.People Help The People
03.Shelter
04.Interview
05.Learn Me Right
06.Words As Weapons
07.All About You
08.Interview
09.Youngblood
10.Terrible Love
11.Skinny Love
12.Interview
13.Light Me Up
14.Wings

Отчёт MediaInfo / BDInfo

General
ID                             : 1011 (0x3F3)
Complete name                  : L:\Birdy - Live ZDF@Bauhaus 2013.ts
Format                         : MPEG-TS
File size                      : 5.28 GiB
Duration                       : 58mn 54s
Overall bit rate mode          : Variable
Overall bit rate               : 12.8 Mbps
Video
ID                             : 6410 (0x190A)
Menu ID                        : 11140 (0x2B84)
Format                         : AVC
Format/Info                    : Advanced Video Codec
Format profile                 : High@L4.0
Format settings, CABAC         : Yes
Format settings, ReFrames      : 6 frames
Codec ID                       : 27
Duration                       : 58mn 53s
Bit rate                       : 11.1 Mbps
Width                          : 1 280 pixels
Height                         : 720 pixels
Display aspect ratio           : 16:9
Frame rate                     : 50.000 fps
Color space                    : YUV
Chroma subsampling             : 4:2:0
Bit depth                      : 8 bits
Scan type                      : Progressive
Bits/(Pixel*Frame)             : 0.241
Stream size                    : 4.57 GiB (86%)
Color primaries                : BT.709
Transfer characteristics       : BT.709
Matrix coefficients            : BT.709
Audio #1
ID                             : 6420 (0x1914)
Menu ID                        : 11140 (0x2B84)
Format                         : MPEG Audio
Format version                 : Version 1
Format profile                 : Layer 2
Codec ID                       : 3
Duration                       : 58mn 54s
Bit rate mode                  : Constant
Bit rate                       : 256 Kbps
Channel(s)                     : 2 channels
Sampling rate                  : 48.0 KHz
Compression mode               : Lossy
Delay relative to video        : -450ms
Stream size                    : 108 MiB (2%)
Language                       : German
Audio #2
ID                             : 6421 (0x1915)
Menu ID                        : 11140 (0x2B84)
Format                         : MPEG Audio
Format version                 : Version 1
Format profile                 : Layer 2
Codec ID                       : 3
Duration                       : 58mn 54s
Bit rate mode                  : Constant
Bit rate                       : 192 Kbps
Channel(s)                     : 2 channels
Sampling rate                  : 48.0 KHz
Compression mode               : Lossy
Delay relative to video        : -410ms
Stream size                    : 80.9 MiB (1%)
Audio #3
ID                             : 6422 (0x1916)
Menu ID                        : 11140 (0x2B84)
Format                         : AC-3
Format/Info                    : Audio Coding 3
Mode extension                 : CM (complete main)
Format settings, Endianness    : Big
Codec ID                       : 6
Duration                       : 58mn 54s
Bit rate mode                  : Constant
Bit rate                       : 448 Kbps
Channel(s)                     : 2 channels
Channel positions              : Front: L R
Sampling rate                  : 48.0 KHz
Bit depth                      : 16 bits
Compression mode               : Lossy
Delay relative to video        : -431ms
Stream size                    : 189 MiB (3%)
Language                       : German
Audio #4
ID                             : 6423 (0x1917)
Menu ID                        : 11140 (0x2B84)
Format                         : MPEG Audio
Format version                 : Version 1
Format profile                 : Layer 2
Codec ID                       : 3
Duration                       : 58mn 54s
Bit rate mode                  : Constant
Bit rate                       : 192 Kbps
Channel(s)                     : 2 channels
Sampling rate                  : 48.0 KHz
Compression mode               : Lossy
Delay relative to video        : -430ms
Stream size                    : 80.9 MiB (1%)
Language                       : Multiple languages


Скриншоты



















Мои раздачи ®
https://rutracker.org/forum/https://rutracker.net/forum/tracker.php?rid=9539252


                                                                                       
                       
                       
                       
                       
                       
                                磁力下载:
                                                               
                                       
游客,本主题需向作者支付 7音乐币 才能浏览,金币充值, 免回复、免金币,直接查看内容请开通VIP支付

                                               
  • 5.28 GB
  • 温馨提示

    记得善用社区搜索功能,那里可能会有你想要的资源;论坛站内搜索

    如果你有什么需要的资源可以去资源求档发帖,求助社区的网友,我们会在第一时间给你回复哦;资源求档

    对于本社区网盘链接失效密码错误各种报错请在反馈板块反馈报错发帖,您的支持,是我们发展的最大动力;投诉建议

    回复

    使用道具 举报

    您需要登录后才可以回帖 登录 | 立即注册 微信登录

    本版积分规则

    关注0

    粉丝4

    帖子51182

    发布主题
    阅读排行更多+
    关闭

    站长推荐上一条 /1 下一条

    收藏帖子 返回列表 这是一个自定义按钮
    音乐分享,音乐下载。
    微信公众号
    微信号:hires_
    意见反馈:admin@maomicd.com

    加入我们的官方QQ群和微信群

    Powered by Discuz! X3.4 Archiver|手机版|小黑屋|捌零音乐论坛 ( 苏ICP备20015413号 )|( 苏公网安备 32030502000272号) 繁體

    GMT+8, 2021-5-7 00:07