自购原抓音乐圈:只有自购、合购、原抓级高解析(hires、sacd、dsd)正版音乐资源分享!【点我打开
极速无线网卡:千兆无线网卡、服务器网卡、USB接口台式机笔记本网卡 硬盘代考无损音乐!【点我打开
广告

[摇滚] Nightwish - End Of An Era, Live at Hartwall Arena (Antti Jokinen) [2006, Gothic/Power Metall, BDRip] [720p/DVD9]

[复制链接]
tikus75 发表于 2021-4-13 15:33:59 | 显示全部楼层 |阅读模式 打印 上一主题 下一主题
Nightwish - End Of An Era, Live at Hartwall Arena
Год выпуска: 2006
Выпущено: Summit Entertainment
Страна: Финляндия
Жанр: Gothic/Power Metall
Продолжительность: 01:43:04Режиссер: Antti Jokinen
Описание: Last concert of Nightwish with Tarja Turunen on vocals. She was fired directly after this concert.Качество: BDRip
Формат: mkv
Видео кодек: h264
Аудио кодек: AC3
Видео: 1240x720, 23.976 fps, ~8654 kbps avg
Аудио: 48 kHz, AC3 Dolby Digital, 3/2 (L,C,R,l,r) + LFE ch, ~640.00 kbps avg
mi

Complete name : G:\Nightwish - End Of An Era 2009 [720p].mkv
Format : Matroska
File size : 6.23 GiB
Duration : 1h 43mn
Overall bit rate : 8 654 Kbps
Encoded date : UTC 2009-08-25 16:29:32
Writing application : mkvmerge v2.4.2 ('Oh My God') built on Jan 18 2009 17:30:28
Writing library : libebml v0.7.7 + libmatroska v0.8.1
Video
ID : 1
Format : AVC
Format/Info : Advanced Video Codec
Format profile : Main@L3.2
Format settings, CABAC : Yes
Format settings, ReFrames : 2 frames
Muxing mode : Container profile=Unknown@3.2
Codec ID : V_MPEG4/ISO/AVC
Duration : 1h 42mn
Bit rate : 7 842 Kbps
Nominal bit rate : 8 000 Kbps
Width : 1 240 pixels
Height : 720 pixels
Display aspect ratio : 16:9
Frame rate : 23.976 fps
Resolution : 24 bits
Colorimetry : 4:2:0
Scan type : Progressive
Bits/(Pixel*Frame) : 0.366
Stream size : 5.64 GiB (91%)
Writing library : x264 core 67 r1169 ab85c9b
Encoding settings : cabac=1 / ref=2 / deblock=1:0:0 / analyse=0x1:0x111 / me=umh / subme=6 / psy_rd=1.0:0.0 / mixed_ref=0 / me_range=16 / chroma_me=1 / trellis=0 / 8x8dct=0 / cqm=0 / deadzone=21,11 / chroma_qp_offset=-2 / threads=3 / nr=0 / decimate=1 / mbaff=0 / bframes=2 / b_pyramid=0 / b_adapt=1 / b_bias=0 / direct=1 / wpredb=0 / keyint=240 / keyint_min=24 / scenecut=40 / rc=abr / bitrate=8000 / ratetol=1.0 / qcomp=0.60 / qpmin=10 / qpmax=51 / qpstep=4 / ip_ratio=1.40 / pb_ratio=1.30 / aq=1:1.00
Language : English
Color primaries : BT.709-5, BT.1361, IEC 61966-2-4, SMPTE RP177
Transfer characteristics : BT.709-5, BT.1361
Matrix coefficients : BT.709-5, BT.1361, IEC 61966-2-4 709, SMPTE RP177
Audio
ID : 2
Format : AC-3
Format/Info : Audio Coding 3
Codec ID : A_AC3
Duration : 1h 43mn
Bit rate mode : Constant
Bit rate : 640 Kbps
Channel(s) : 6 channels
Channel positions : Front: L C R, Surround: L R, LFE
Sampling rate : 48.0 KHz
Stream size : 472 MiB (7%)
Title : AC3 Audio 5.1
Language : English
Menu
00:00:00.000 : :Chapter 01
00:00:06.250 : :Chapter 02
00:05:12.500 : :Chapter 03
00:09:54.375 : :Chapter 04
00:15:23.125 : :Chapter 05
00:19:34.375 : :Chapter 06
00:24:35.000 : :Chapter 07
00:29:47.500 : :Chapter 08
00:34:31.250 : :Chapter 09
00:41:29.375 : :Chapter 10
00:47:53.125 : :Chapter 11
00:52:42.500 : :Chapter 12
00:55:28.750 : :Chapter 13
00:57:31.250 : :Chapter 14
01:01:15.625 : :Chapter 15
01:06:36.250 : :Chapter 16
01:17:07.500 : :Chapter 17
01:29:50.625 : :Chapter 18
01:35:16.875 : :Chapter 19


Треклист

01. Dark Chest Of Wonders
02. Planet Hell
03. Ever Dream
04. The Kinslayer
05. Phantom Of The Opera
06. The Siren
07. Sleeping Sun
08. High Hopes
09. Bless The Child
10. Wishmaster
11. Slaying The Dreamer
12. Kuolema Tekee Taiteilijan
13. Nemo
14. Ghost Love Score
15. Stone People
16. Creek Mary's Blood
17. Over The Hills And Far Away
18. Wish I Had An Angel

Скриншоты








Приятного просмотра!                                                                                       
                       
                       
                       
                       
                       
                                磁力下载:
                                                               
                                       
游客,本主题需向作者支付 7音乐币 才能浏览,金币充值, 免回复、免金币,直接查看内容请开通VIP支付

                                               
  • 6.23 GB
  • 温馨提示

    记得善用社区搜索功能,那里可能会有你想要的资源;论坛站内搜索

    如果你有什么需要的资源可以去资源求档发帖,求助社区的网友,我们会在第一时间给你回复哦;资源求档

    对于本社区网盘链接失效密码错误各种报错请在反馈板块反馈报错发帖,您的支持,是我们发展的最大动力;投诉建议

    回复

    使用道具 举报

    您需要登录后才可以回帖 登录 | 立即注册 微信登录

    本版积分规则

    关注0

    粉丝0

    帖子29919

    发布主题
    阅读排行更多+
    关闭

    站长推荐上一条 /1 下一条

    收藏帖子 返回列表 这是一个自定义按钮
    音乐分享,音乐下载。
    微信公众号
    微信号:hires_
    意见反馈:admin@maomicd.com

    加入我们的官方QQ群和微信群

    Powered by Discuz! X3.4 Archiver|手机版|小黑屋|捌零音乐论坛 ( 苏ICP备20015413号 )|( 苏公网安备 32030502000272号) 繁體

    GMT+8, 2021-5-6 08:29