自购原抓音乐圈:只有自购、合购、原抓级高解析(hires、sacd、dsd)正版音乐资源分享!【点我打开
极速无线网卡:千兆无线网卡、服务器网卡、USB接口台式机笔记本网卡 硬盘代考无损音乐!【点我打开
广告

[摇滚] Black Sabbath - The End: Live In Birmingham [2017, Rock, Hard Rock, Heavy Metal, Blu-ray, 1080p]

[复制链接]
全球采集 发表于 2021-4-13 15:33:59 | 显示全部楼层 |阅读模式 打印 上一主题 下一主题
Black Sabbath - The End: Live In Birmingham
Жанр: Rock, Hard Rock, Heavy Metal
Продолжительность: 02:14:19
Год выпуска: 2017
Режиссер: Dick Carruthers
Исполнители: Ozzy Osbourne – vocals; Tony Iommi – guitars; Geezer Butler – bass; Adam Wakeman – keyboards; Tommy Clufetos – drums
Описание: • THE FINAL SHOW FROM THE GREATEST METAL BAND OF ALL TIME :: On 4th February, 2017, Black Sabbath stormed the stage in their hometown of Birmingham for their final triumphant gig. This monumental show brought down the curtain on a career that spanned almost half a century, and is featured here in its entirety. With a hit packed set list including Iron Man, Paranoid, War Pigs and many more, the high production values, visual effects and pyrotechnics wowed fans, as the band delivered the most emotionally charged show in their history. Also included is The Angelic Sessions, the exclusive final studio recordings by the band who forged the sound of metal and continue to influence bands the world over. The End captures a once-in-a-career performance, an essential snapshot of musical history and a fitting farewell to true innovators and original heavy metal icons, Black Sabbath.
Треклист:
• Live From The Genting Arena, Birmingham, 4 February 2017 [01:48:13]
1 Black Sabbath 7:15
2 Fairies Wear Boots 6:06
3 Medley: Under The Sun / Every Day Comes And Goes 6:00
4 After Forever 5:34
5 Into The Void 6:48
6 Snowblind 6:32
7 Band Introductions 1:41
8 War Pigs 8:04
9 Behind The Wall Of Sleep 3:32
10 Medley: Bassically / N.I.B. 6:26
11 Hand Of Doom 6:57
12 Medley: Supernaut / Sabbath Bloody Sabbath / Megalomania 3:28
13 Medley: Rat Salad / Drum Solo 4:07
14 Iron Man 7:24
15 Dirty Women 7:42
16 Children Of The Grave 5:23
17 Crowd Cheering 1:54
18 Paranoid 4:31
19 Credits 3:10
• Live From Angelic Studios, United Kingdom, 2017 [00:26:06]
1 The Wizard 4:16
2 Wicked World 4:40
3 Sweet Leaf 5:15
4 Tomorrow's Dream 3:08
5 Changes 4:58
Сканы здесь (спасибо CoJIHbIIIIKo)
Источник
Качество: Blu-ray
Разрешение видео/развертка: 1080p
Контейнер: BDMV
Видео кодек: H.264
Аудио кодек: DTS, PCM
Видео: MPEG-4 AVC 25511 kbps / 1920*1080p / 23,976 fps / 16:9 / High Profile 4.1
Аудио#1: English DTS-HD MA 5.1 / 48 kHz / 2686 kbps / 16-bit (DTS Core: 5.1 / 48 kHz / 1509 kbps / 16-bit)
Аудио#2: English LPCM 2.0 / 48 kHz / 1536 kbps / 16-bit
BDInfo

Disc Title:     Black Sabbath.The End.Live In Birmingham.2017.BD1080p
Disc Size:      33 958 541 629 bytes
Protection:     AACS
BD-Java:        No
BDInfo:         0.5.8
Notes:
BDINFO HOME:
  Cinema Squid
    http://www.cinemasquid.com/blu-ray/tools/bdinfo
INCLUDES FORUMS REPORT FOR:
  AVS Forum Blu-ray Audio and Video Specifications Thread
    http://www.avsforum.com/avs-vb/showthread.php?t=1155731
********************
PLAYLIST: 00002.MPLS
********************

Код:

                                                                                Total   Video
Title                                                           Codec   Length  Movie Size      Disc Size       Bitrate Bitrate Main Audio Track                          Secondary Audio Track
-----                                                           ------  ------- --------------  --------------  ------- ------- ------------------                        ---------------------
00002.MPLS                                                      AVC     1:48:13 25 633 867 776  33 958 541 629  31,58   25,51   LPCM 2.0 1536Kbps (48kHz/16-bit)          DTS-HD Master 5.1 2686Kbps (48kHz/16-bit)

Код:
DISC INFO:
Disc Title:     Black Sabbath.The End.Live In Birmingham.2017.BD1080p
Disc Size:      33 958 541 629 bytes
Protection:     AACS
BD-Java:        No
BDInfo:         0.5.8
PLAYLIST REPORT:
Name:                   00002.MPLS
Length:                 1:48:13.904 (h:m:s.ms)
Size:                   25 633 867 776 bytes
Total Bitrate:          31,58 Mbps
VIDEO:
Codec                   Bitrate             Description
-----                   -------             -----------
MPEG-4 AVC Video        25511 kbps          1080p / 23,976 fps / 16:9 / High Profile 4.1
AUDIO:
Codec                           Language        Bitrate         Description
-----                           --------        -------         -----------
LPCM Audio                      English         1536 kbps       2.0 / 48 kHz / 1536 kbps / 16-bit
DTS-HD Master Audio             English         2686 kbps       5.1 / 48 kHz / 2686 kbps / 16-bit (DTS Core: 5.1 / 48 kHz / 1509 kbps / 16-bit)
FILES:
Name            Time In         Length          Size            Total Bitrate
----            -------         ------          ----            -------------
00002.M2TS      0:00:00.000     1:48:13.904     25 633 867 776  31 579
CHAPTERS:
Number          Time In         Length          Avg Video Rate  Max 1-Sec Rate  Max 1-Sec Time  Max 5-Sec Rate  Max 5-Sec Time  Max 10Sec Rate  Max 10Sec Time  Avg Frame Size  Max Frame Size  Max Frame Time
------          -------         ------          --------------  --------------  --------------  --------------  --------------  --------------  --------------  --------------  --------------  --------------
1               0:00:00.000     0:07:46.507     26 922 kbps     47 584 kbps     00:04:35.275    39 813 kbps     00:02:27.063    38 947 kbps     00:02:49.878    140 346 bytes   433 815 bytes   00:04:47.996
2               0:07:46.507     0:06:40.149     29 074 kbps     48 228 kbps     00:08:08.529    40 004 kbps     00:08:19.498    38 837 kbps     00:08:16.954    151 580 bytes   452 729 bytes   00:08:03.274
3               0:14:26.657     0:07:12.557     26 262 kbps     46 658 kbps     00:16:18.936    43 489 kbps     00:19:23.495    39 267 kbps     00:19:22.494    136 919 bytes   481 422 bytes   00:20:33.190
4               0:21:39.214     0:06:31.140     24 734 kbps     47 787 kbps     00:24:27.340    41 899 kbps     00:23:11.598    35 299 kbps     00:24:52.073    128 950 bytes   394 718 bytes   00:28:08.520
5               0:28:10.355     0:07:15.560     24 658 kbps     48 959 kbps     00:30:56.729    41 321 kbps     00:30:56.521    38 962 kbps     00:30:56.521    128 558 bytes   413 551 bytes   00:29:20.842
6               0:35:25.915     0:06:47.824     21 957 kbps     47 606 kbps     00:39:28.449    38 729 kbps     00:42:03.229    34 917 kbps     00:41:58.307    114 472 bytes   417 124 bytes   00:36:49.957
7               0:42:13.739     0:01:47.148     25 543 kbps     46 019 kbps     00:42:46.897    37 521 kbps     00:42:54.572    35 705 kbps     00:42:46.730    133 172 bytes   420 630 bytes   00:43:25.644
8               0:44:00.888     0:08:45.107     24 927 kbps     49 278 kbps     00:49:36.682    42 637 kbps     00:49:36.682    39 703 kbps     00:49:36.682    129 955 bytes   465 148 bytes   00:44:27.623
9               0:52:45.996     0:03:21.701     28 354 kbps     47 002 kbps     00:53:48.934    41 145 kbps     00:55:26.740    37 463 kbps     00:54:29.182    147 824 bytes   418 459 bytes   00:54:07.327
10              0:56:07.697     0:06:57.625     25 788 kbps     48 542 kbps     00:59:27.897    42 045 kbps     01:00:04.142    38 498 kbps     01:00:00.513    134 444 bytes   410 513 bytes   01:01:09.582
11              1:03:05.323     0:06:39.440     26 994 kbps     48 925 kbps     01:08:36.695    39 765 kbps     01:04:59.562    37 577 kbps     01:03:29.305    140 733 bytes   455 730 bytes   01:09:04.056
12              1:09:44.763     0:03:48.561     23 686 kbps     47 830 kbps     01:12:55.204    40 147 kbps     01:11:18.107    35 733 kbps     01:11:42.840    123 490 bytes   399 218 bytes   01:11:44.758
13              1:13:33.325     0:04:34.857     24 710 kbps     48 576 kbps     01:16:28.250    43 573 kbps     01:17:27.976    38 446 kbps     01:16:12.901    128 824 bytes   427 337 bytes   01:18:00.592
14              1:18:08.183     0:07:40.084     27 436 kbps     48 677 kbps     01:20:15.268    41 664 kbps     01:20:11.556    39 332 kbps     01:21:42.272    143 041 bytes   386 766 bytes   01:23:47.272
15              1:25:48.268     0:08:32.386     21 939 kbps     44 790 kbps     01:28:55.121    38 825 kbps     01:26:11.833    32 858 kbps     01:26:11.791    114 379 bytes   515 254 bytes   01:26:05.577
16              1:34:20.655     0:06:03.988     25 554 kbps     48 362 kbps     01:38:00.708    43 609 kbps     01:34:46.639    37 027 kbps     01:39:18.077    133 229 bytes   392 121 bytes   01:37:18.833
17              1:40:24.643     0:01:16.868     21 995 kbps     38 429 kbps     01:40:44.830    35 175 kbps     01:40:44.163    30 815 kbps     01:40:44.037    114 670 bytes   397 104 bytes   01:40:46.540
18              1:41:41.512     0:04:31.229     31 397 kbps     47 799 kbps     01:42:19.258    42 056 kbps     01:42:17.923    37 364 kbps     01:42:13.168    163 692 bytes   361 942 bytes   01:42:14.628
19              1:46:12.741     0:02:01.162     17 095 kbps     34 916 kbps     01:46:59.955    29 716 kbps     01:46:21.249    27 701 kbps     01:46:16.370    89 158 bytes    313 765 bytes   01:46:45.774
STREAM DIAGNOSTICS:
File            PID             Type            Codec           Language                Seconds                 Bitrate                 Bytes           Packets
----            ---             ----            -----           --------                --------------          --------------          -------------   -----
00002.M2TS      4113 (0x1011)   0x1B            AVC                                     6493,779                25 512                  20 708 548 756  112 637 843
00002.M2TS      4352 (0x1100)   0x80            LPCM            eng (English)           6493,779                1 542                   1 252 024 884   7 792 686
00002.M2TS      4353 (0x1101)   0x86            DTS-HD MA       eng (English)           6493,779                2 686                   2 180 621 376   12 861 615


QUICK SUMMARY:
Disc Title: Black Sabbath.The End.Live In Birmingham.2017.BD1080p
Disc Size: 33 958 541 629 bytes
Protection: AACS
BD-Java: No
Playlist: 00002.MPLS
Size: 25 633 867 776 bytes
Length: 1:48:13.904
Total Bitrate: 31,58 Mbps
Video: MPEG-4 AVC Video / 25511 kbps / 1080p / 23,976 fps / 16:9 / High Profile 4.1
Audio: English / LPCM Audio / 2.0 / 48 kHz / 1536 kbps / 16-bit
Audio: English / DTS-HD Master Audio / 5.1 / 48 kHz / 2686 kbps / 16-bit (DTS Core: 5.1 / 48 kHz / 1509 kbps / 16-bit)
********************
PLAYLIST: 00006.MPLS
********************

Код:

                                                                                Total   Video
Title                                                           Codec   Length  Movie Size      Disc Size       Bitrate Bitrate Main Audio Track                          Secondary Audio Track
-----                                                           ------  ------- --------------  --------------  ------- ------- ------------------                        ---------------------
00006.MPLS                                                      AVC     0:26:06 8 040 671 232   33 958 541 629  41,06   34,87   LPCM 2.0 1536Kbps (48kHz/16-bit)          DTS-HD Master 5.1 2409Kbps (48kHz/16-bit)

Код:
DISC INFO:
Disc Title:     Black Sabbath.The End.Live In Birmingham.2017.BD1080p
Disc Size:      33 958 541 629 bytes
Protection:     AACS
BD-Java:        No
BDInfo:         0.5.8
PLAYLIST REPORT:
Name:                   00006.MPLS
Length:                 0:26:06.565 (h:m:s.ms)
Size:                   8 040 671 232 bytes
Total Bitrate:          41,06 Mbps
VIDEO:
Codec                   Bitrate             Description
-----                   -------             -----------
MPEG-4 AVC Video        34874 kbps          1080p / 23,976 fps / 16:9 / High Profile 4.1
AUDIO:
Codec                           Language        Bitrate         Description
-----                           --------        -------         -----------
LPCM Audio                      English         1536 kbps       2.0 / 48 kHz / 1536 kbps / 16-bit
DTS-HD Master Audio             English         2409 kbps       5.1 / 48 kHz / 2409 kbps / 16-bit (DTS Core: 5.1 / 48 kHz / 1509 kbps / 16-bit)
FILES:
Name            Time In         Length          Size            Total Bitrate
----            -------         ------          ----            -------------
00010.M2TS      0:00:00.000     0:26:06.565     8 040 671 232   41 061
CHAPTERS:
Number          Time In         Length          Avg Video Rate  Max 1-Sec Rate  Max 1-Sec Time  Max 5-Sec Rate  Max 5-Sec Time  Max 10Sec Rate  Max 10Sec Time  Avg Frame Size  Max Frame Size  Max Frame Time
------          -------         ------          --------------  --------------  --------------  --------------  --------------  --------------  --------------  --------------  --------------  --------------
1               0:00:00.000     0:04:42.657     34 898 kbps     44 485 kbps     00:00:10.468    39 284 kbps     00:00:38.204    38 224 kbps     00:02:08.795    181 916 bytes   402 713 bytes   00:01:14.407
2               0:04:42.657     0:04:56.045     35 439 kbps     40 347 kbps     00:04:47.578    38 376 kbps     00:07:44.672    38 070 kbps     00:07:44.005    184 761 bytes   400 610 bytes   00:04:48.162
3               0:09:38.703     0:06:57.834     34 765 kbps     43 856 kbps     00:09:50.089    38 819 kbps     00:10:37.720    37 466 kbps     00:10:33.257    181 248 bytes   360 069 bytes   00:11:03.788
4               0:16:36.537     0:04:03.326     35 380 kbps     43 142 kbps     00:17:32.217    39 008 kbps     00:17:28.213    38 358 kbps     00:17:31.884    184 455 bytes   400 852 bytes   00:19:50.063
5               0:20:39.863     0:05:26.701     34 102 kbps     40 204 kbps     00:20:54.378    39 039 kbps     00:20:50.332    38 488 kbps     00:20:48.747    177 814 bytes   388 503 bytes   00:20:54.878
STREAM DIAGNOSTICS:
File            PID             Type            Codec           Language                Seconds                 Bitrate                 Bytes           Packets
----            ---             ----            -----           --------                --------------          --------------          -------------   -----
00010.M2TS      4113 (0x1011)   0x1B            AVC                                     1566,482                34 875                  6 828 961 851   37 135 789
00010.M2TS      4352 (0x1100)   0x80            LPCM            eng (English)           1566,482                1 542                   302 033 732     1 879 878
00010.M2TS      4353 (0x1101)   0x86            DTS-HD MA       eng (English)           1566,482                2 409                   471 730 152     2 810 319


QUICK SUMMARY:
Disc Title: Black Sabbath.The End.Live In Birmingham.2017.BD1080p
Disc Size: 33 958 541 629 bytes
Protection: AACS
BD-Java: No
Playlist: 00006.MPLS
Size: 8 040 671 232 bytes
Length: 0:26:06.565
Total Bitrate: 41,06 Mbps
Video: MPEG-4 AVC Video / 34874 kbps / 1080p / 23,976 fps / 16:9 / High Profile 4.1
Audio: English / LPCM Audio / 2.0 / 48 kHz / 1536 kbps / 16-bit
Audio: English / DTS-HD Master Audio / 5.1 / 48 kHz / 2409 kbps / 16-bit (DTS Core: 5.1 / 48 kHz / 1509 kbps / 16-bit)
********************
PLAYLIST: 00004.MPLS
********************

Код:

                                                                                Total   Video
Title                                                           Codec   Length  Movie Size      Disc Size       Bitrate Bitrate Main Audio Track                          Secondary Audio Track
-----                                                           ------  ------- --------------  --------------  ------- ------- ------------------                        ---------------------
00004.MPLS                                                      AVC     0:00:41 54 140 928      33 958 541 629  10,54   9,13    LPCM 2.0 1536Kbps (48kHz/16-bit)

Код:
DISC INFO:
Disc Title:     Black Sabbath.The End.Live In Birmingham.2017.BD1080p
Disc Size:      33 958 541 629 bytes
Protection:     AACS
BD-Java:        No
BDInfo:         0.5.8
PLAYLIST REPORT:
Name:                   00004.MPLS
Length:                 0:00:41.074 (h:m:s.ms)
Size:                   54 140 928 bytes
Total Bitrate:          10,54 Mbps
VIDEO:
Codec                   Bitrate             Description
-----                   -------             -----------
MPEG-4 AVC Video        9130 kbps           1080i / 29,970 fps / 16:9 / High Profile 4.1
AUDIO:
Codec                           Language        Bitrate         Description
-----                           --------        -------         -----------
LPCM Audio                      English         1536 kbps       2.0 / 48 kHz / 1536 kbps / 16-bit
FILES:
Name            Time In         Length          Size            Total Bitrate
----            -------         ------          ----            -------------
00003.M2TS      0:00:00.000     0:00:20.053     44 697 600      17 831
00005.M2TS      0:00:20.053     0:00:10.510     4 841 472       3 685
00006.M2TS      0:00:30.563     0:00:10.510     4 601 856       3 503
CHAPTERS:
Number          Time In         Length          Avg Video Rate  Max 1-Sec Rate  Max 1-Sec Time  Max 5-Sec Rate  Max 5-Sec Time  Max 10Sec Rate  Max 10Sec Time  Avg Frame Size  Max Frame Size  Max Frame Time
------          -------         ------          --------------  --------------  --------------  --------------  --------------  --------------  --------------  --------------  --------------  --------------
1               0:00:00.000     0:00:41.074     9 130 kbps      32 421 kbps     00:00:08.141    27 674 kbps     00:00:04.771    24 839 kbps     00:00:03.436    38 081 bytes    324 912 bytes   00:00:08.308
STREAM DIAGNOSTICS:
File            PID             Type            Codec           Language                Seconds                 Bitrate                 Bytes           Packets
----            ---             ----            -----           --------                --------------          --------------          -------------   -----
00003.M2TS      4113 (0x1011)   0x1B            AVC                                     19,953                  15 290                  38 136 751      208 048
00003.M2TS      4352 (0x1100)   0x80            LPCM            eng (English)           19,953                  1 549                   3 864 676       24 054
00005.M2TS      4113 (0x1011)   0x1B            AVC                                     10,410                  3 448                   4 486 469       24 858
00006.M2TS      4113 (0x1011)   0x1B            AVC                                     10,410                  3 270                   4 254 964       23 596


QUICK SUMMARY:
Disc Title: Black Sabbath.The End.Live In Birmingham.2017.BD1080p
Disc Size: 33 958 541 629 bytes
Protection: AACS
BD-Java: No
Playlist: 00004.MPLS
Size: 54 140 928 bytes
Length: 0:00:41.074
Total Bitrate: 10,54 Mbps
Video: MPEG-4 AVC Video / 9130 kbps / 1080i / 29,970 fps / 16:9 / High Profile 4.1
Audio: English / LPCM Audio / 2.0 / 48 kHz / 1536 kbps / 16-bit
********************
PLAYLIST: 00003.MPLS
********************

Код:

                                                                                Total   Video
Title                                                           Codec   Length  Movie Size      Disc Size       Bitrate Bitrate Main Audio Track                          Secondary Audio Track
-----                                                           ------  ------- --------------  --------------  ------- ------- ------------------                        ---------------------
00003.MPLS                                                      AVC     0:00:20 44 697 600      33 958 541 629  17,83   15,21   LPCM 2.0 1536Kbps (48kHz/16-bit)

Код:
DISC INFO:
Disc Title:     Black Sabbath.The End.Live In Birmingham.2017.BD1080p
Disc Size:      33 958 541 629 bytes
Protection:     AACS
BD-Java:        No
BDInfo:         0.5.8
PLAYLIST REPORT:
Name:                   00003.MPLS
Length:                 0:00:20.053 (h:m:s.ms)
Size:                   44 697 600 bytes
Total Bitrate:          17,83 Mbps
VIDEO:
Codec                   Bitrate             Description
-----                   -------             -----------
MPEG-4 AVC Video        15214 kbps          1080i / 29,970 fps / 16:9 / High Profile 4.1
AUDIO:
Codec                           Language        Bitrate         Description
-----                           --------        -------         -----------
LPCM Audio                      English         1536 kbps       2.0 / 48 kHz / 1536 kbps / 16-bit
FILES:
Name            Time In         Length          Size            Total Bitrate
----            -------         ------          ----            -------------
00003.M2TS      0:00:00.000     0:00:20.053     44 697 600      17 831
CHAPTERS:
Number          Time In         Length          Avg Video Rate  Max 1-Sec Rate  Max 1-Sec Time  Max 5-Sec Rate  Max 5-Sec Time  Max 10Sec Rate  Max 10Sec Time  Avg Frame Size  Max Frame Size  Max Frame Time
------          -------         ------          --------------  --------------  --------------  --------------  --------------  --------------  --------------  --------------  --------------  --------------
1               0:00:00.000     0:00:20.053     15 214 kbps     32 421 kbps     00:00:08.141    27 674 kbps     00:00:04.771    24 839 kbps     00:00:03.436    63 455 bytes    324 912 bytes   00:00:08.308
STREAM DIAGNOSTICS:
File            PID             Type            Codec           Language                Seconds                 Bitrate                 Bytes           Packets
----            ---             ----            -----           --------                --------------          --------------          -------------   -----
00003.M2TS      4113 (0x1011)   0x1B            AVC                                     19,953                  15 290                  38 136 751      208 048
00003.M2TS      4352 (0x1100)   0x80            LPCM            eng (English)           19,953                  1 549                   3 864 676       24 054


QUICK SUMMARY:
Disc Title: Black Sabbath.The End.Live In Birmingham.2017.BD1080p
Disc Size: 33 958 541 629 bytes
Protection: AACS
BD-Java: No
Playlist: 00003.MPLS
Size: 44 697 600 bytes
Length: 0:00:20.053
Total Bitrate: 17,83 Mbps
Video: MPEG-4 AVC Video / 15214 kbps / 1080i / 29,970 fps / 16:9 / High Profile 4.1
Audio: English / LPCM Audio / 2.0 / 48 kHz / 1536 kbps / 16-bit


Скриншоты











                                                                                       
                       
                       
                       
                       
                       
                                磁力下载:(论坛代下载服务)
                                                               
                                       
游客,本主题需向作者支付 7音乐币 才能浏览,金币充值, 免回复、免金币,直接查看内容请开通VIP支付

                                               
  • 31.63 GB
  • 温馨提示

    记得善用社区搜索功能,那里可能会有你想要的资源;论坛站内搜索

    如果你有什么需要的资源可以去资源求档发帖,求助社区的网友,我们会在第一时间给你回复哦;资源求档

    对于本社区网盘链接失效密码错误各种报错请在反馈板块反馈报错发帖,您的支持,是我们发展的最大动力;投诉建议

    回复

    使用道具 举报

    您需要登录后才可以回帖 登录 | 立即注册 微信登录

    本版积分规则

    关注0

    粉丝15

    帖子86505

    发布主题
    阅读排行更多+
    关闭

    站长推荐上一条 /1 下一条

    收藏帖子 返回列表 这是一个自定义按钮
    音乐分享,音乐下载。
    微信公众号
    微信号:hires_
    意见反馈:admin@maomicd.com

    加入我们的官方QQ群和微信群

    Powered by Discuz! X3.4 Archiver|手机版|小黑屋|捌零音乐论坛 ( 苏ICP备20015413号 )|( 苏公网安备 32030502000272号) 繁體

    GMT+8, 2021-5-9 05:52