自购原抓音乐圈:只有自购、合购、原抓级高解析(hires、sacd、dsd)正版音乐资源分享!【点我打开
极速无线网卡:千兆无线网卡、服务器网卡、USB接口台式机笔记本网卡 硬盘代考无损音乐!【点我打开
广告

[摇滚] Def Leppard - Hysteria At The O2 [2020, Rock, BDRip, 1080p]

[复制链接]
全球搬运 发表于 2021-4-13 15:33:59 | 显示全部楼层 |阅读模式 打印 上一主题 下一主题
Hysteria At The O2
Жанр
Rock
Продолжительность
01:08:04+00:31:28Описание
Filmed in December 2018, Hysteria At The O2 captures Def Leppard celebrating the ground-breaking Hysteria, one of their two diamond-certified 10x platinum albums (the other being Pyromania). Performed in its entirety before a ravenous sold-out crowd, this momentous homecoming event is made all the more powerful as it was their long-awaited debut at the iconic O2 Arena in London. Featuring electrifying performances of “Pour Some Sugar On Me,” “Animal,” “Women,” and “Love Bites,” band members Joe Elliott (vocals), Phil Collen (guitar), Rick “Sav” Savage (bass), Vivian Campbell (guitar), and Rick Allen (drums), conclude the set with a host of extra hits including “Let’s Get Rocked,” “When Love and Hate Collide,” and “Photograph.”
01. Hysteria
Треклист
1 Intro
2 Women
3 Rocket
4 Animal
5 Love Bites
6 Pour Some Sugar On Me
7 Armageddon It
8 Stephen Clark Tribute
9 Gods Of War
10 Don't Shoot Shotgun
11 Run Riot
12 Hysteria
13 Excitable
14 Love And AffectionКачество
BDRip
Разрешение видео/развертка
1080p
Контейнер
MKV
Видео кодек
H.264
Аудио кодек
PCM / DTS
Видео
MPEG-4 AVC / 1920*1080 (16:9) / 8001 kbps / 23.97 fps
Аудио #1
DTS /1509 kbps / 48.0 khz / 6 ch / 24 bit
Аудио #2
PCM /2304 kbps / 48.0 khz / 2 ch / 24 bit
Log x264

x264 [info]: using SAR=1/1
x264 [info]: using cpu capabilities: MMX2 SSE2Fast SSSE3 SSE4.2 AVX FMA3 BMI2 AVX2
x264 [info]: profile High, level 4.1
x264 [info]: frame I:958   Avg QP:14.55  size:190426
x264 [info]: frame P:31389 Avg QP:17.83  size: 64678
x264 [info]: frame B:65573 Avg QP:19.34  size: 28540
x264 [info]: consecutive B-frames:  7.6%  8.1% 28.1% 26.5% 15.2% 11.4%  1.6%  0.4%  1.0%
x264 [info]: mb I  I16..4: 15.1% 73.8% 11.1%
x264 [info]: mb P  I16..4: 12.5% 27.1%  2.0%  P16..4: 31.1%  7.7%  5.6%  0.2%  0.1%    skip:13.6%
x264 [info]: mb B  I16..4:  2.0%  3.5%  0.2%  B16..8: 33.8%  7.9%  2.0%  direct: 9.4%  skip:41.2%  L0:44.4% L1:42.3% BI:13.3%
x264 [info]: 8x8 transform intra:64.7% inter:75.3%
x264 [info]: direct mvs  spatial:96.4% temporal:3.6%
x264 [info]: coded y,uvDC,uvAC intra: 44.3% 68.5% 46.8% inter: 17.2% 29.4% 6.5%
x264 [info]: i16 v,h,dc,p: 64% 14%  8% 15%
x264 [info]: i8 v,h,dc,ddl,ddr,vr,hd,vl,hu: 13% 11% 32%  6%  8%  8%  7%  7%  8%
x264 [info]: i4 v,h,dc,ddl,ddr,vr,hd,vl,hu: 11% 12% 11%  9% 14% 12% 11%  9% 11%
x264 [info]: i8c dc,h,v,p: 53% 22% 16%  9%
x264 [info]: Weighted P-Frames: Y:12.1% UV:8.6%
x264 [info]: ref P L0: 60.4%  7.8% 20.1%  9.9%  1.7%  0.1%
x264 [info]: ref B L0: 84.2% 13.0%  2.8%
x264 [info]: ref B L1: 96.1%  3.9%
x264 [info]: kb/s:7999.96

MI

Общее
Уникальный идентификатор                 : 232825355083068597165953912016148116893 (0xAF288845E860DB99B9B972968010359D)
Полное имя                               : E:\Video\Def Leppard - Hysteria At The O2\01. Hysteria.mkv
Формат                                   : Matroska
Версия формата                           : Version 4
Размер файла                             : 5,62 Гбайт
Продолжительность                        : 1 ч. 8 м.
Общий поток                              : 11,8 Мбит/сек
Дата кодирования                         : UTC 2020-06-06 10:19:32
Программа кодирования                    : mkvmerge v7.1.0 ('Good Love') 64bit built on Jul 27 2014 13:06:55
Библиотека кодирования                   : libebml v1.3.0 + libmatroska v1.4.1
Видео
Идентификатор                            : 1
Формат                                   : AVC
Формат/Информация                        : Advanced Video Codec
Профиль формата                          : High@L4.1
Настройки формата                        : CABAC / 4 Ref Frames
Параметр CABAC формата                   : Да
Параметр RefFrames формата               : 4 кадра
Идентификатор кодека                     : V_MPEG4/ISO/AVC
Продолжительность                        : 1 ч. 8 м.
Битрейт                                  : 8 001 Кбит/сек
Ширина                                   : 1 920 пикселей
Высота                                   : 1 080 пикселей
Соотношение сторон                       : 16:9
Режим частоты кадров                     : Постоянный
Частота кадров                           : 23,976 (24000/1001) кадра/сек
Цветовое пространство                    : YUV
Субдискретизация насыщенности            : 4:2:0
Битовая глубина                          : 8 бит
Тип развёртки                            : Прогрессивная
Бит/(Пиксели*Кадры)                      : 0.161
Размер потока                            : 3,80 Гбайт (68%)
Библиотека кодирования                   : x264 core 152 r2851 ba24899
Настройки программы                      : cabac=1 / ref=4 / deblock=1:-2:-2 / analyse=0x3:0x133 / me=umh / subme=10 / psy=1 / psy_rd=1.00:0.15 / mixed_ref=1 / me_range=32 / chroma_me=1 / trellis=2 / 8x8dct=1 / cqm=0 / deadzone=21,11 / fast_pskip=1 / chroma_qp_offset=-3 / threads=6 / lookahead_threads=1 / sliced_threads=0 / nr=0 / decimate=1 / interlaced=0 / bluray_compat=0 / constrained_intra=0 / bframes=8 / b_pyramid=2 / b_adapt=2 / b_bias=0 / direct=3 / weightb=1 / open_gop=0 / weightp=2 / keyint=240 / keyint_min=23 / scenecut=40 / intra_refresh=0 / rc_lookahead=60 / rc=2pass / mbtree=1 / bitrate=8001 / ratetol=1.0 / qcomp=0.60 / qpmin=0 / qpmax=69 / qpstep=4 / cplxblur=20.0 / qblur=0.5 / vbv_maxrate=50000 / vbv_bufsize=50000 / nal_hrd=none / filler=0 / ip_ratio=1.40 / aq=1:1.00
Default                                  : Да
Forced                                   : Нет
Аудио #1
Идентификатор                            : 2
Формат                                   : DTS
Формат/Информация                        : Digital Theater Systems
Идентификатор кодека                     : A_DTS
Продолжительность                        : 1 ч. 8 м.
Вид битрейта                             : Постоянный
Битрейт                                  : 1 509 Кбит/сек
Каналы                                   : 6 каналов
Channel layout                           : C L R Ls Rs LFE
Частота                                  : 48,0 КГц
Частота кадров                           : 93,750 кадра/сек (512 SPF)
Битовая глубина                          : 24 бит
Метод сжатия                             : С потерями
Задержка видео                           : 1 с. 1 мс.
Размер потока                            : 735 Мбайт (13%)
Default                                  : Да
Forced                                   : Нет
Аудио #2
Идентификатор                            : 3
Формат                                   : PCM
Настройки формата                        : Little / Signed
Идентификатор кодека                     : A_PCM/INT/LIT
Продолжительность                        : 1 ч. 8 м.
Вид битрейта                             : Постоянный
Битрейт                                  : 2 304 Кбит/сек
Каналы                                   : 2 канала
Частота                                  : 48,0 КГц
Частота кадров                           : 32,000 кадра/сек (1500 SPF)
Битовая глубина                          : 24 бит
Задержка видео                           : 1 с. 1 мс.
Размер потока                            : 1,10 Гбайт (19%)
Default                                  : Нет
Forced                                   : Нет
Меню
00:00:00.000                             : en:1 Intro
00:01:24.084                             : en:2 Women
00:07:00.419                             : en:3 Rocket
00:13:14.043                             : en:4 Animal
00:17:22.040                             : en:5 Love Bites
00:23:10.389                             : en:6 Pour Some Sugar On Me
00:29:20.758                             : en:7 Armageddon It
00:34:42.080                             : en:8 Stephen Clark Tribute
00:35:59.156                             : en:9 Gods Of War
00:42:11.403                             : en:10 Don't Shoot Shotgun
00:46:41.798                             : en:11 Run Riot
00:51:32.255                             : en:12 Hysteria
00:57:39.455                             : en:13 Excitable
01:02:33.541                             : en:14 Love And Affection


Скриншоты














02. Before And After
Треклист
1 Encore
2 Wasted
3 When Love And Hate Collide
4 Let's Get Rocked
5 Rock Of Ages
6 PhotographКачество
BDRip
Разрешение видео/развертка
1080p
Контейнер
MKV
Видео кодек
H.264
Аудио кодек
PCM / DTS
Видео
MPEG-4 AVC / 1920*1080 (16:9) / 8001 kbps / 23.97 fps
Аудио #1
DTS /1509 kbps / 48.0 khz / 6 ch / 24 bit
Аудио #2
PCM /2304 kbps / 48.0 khz / 2 ch / 24 bit
Log x264

x264 [info]: using SAR=1/1
x264 [info]: using cpu capabilities: MMX2 SSE2Fast SSSE3 SSE4.2 AVX FMA3 BMI2 AVX2
x264 [info]: profile High, level 4.1
x264 [info]: frame I:366   Avg QP:14.08  size:178784
x264 [info]: frame P:15357 Avg QP:17.69  size: 64505
x264 [info]: frame B:29566 Avg QP:18.78  size: 28113
x264 [info]: consecutive B-frames:  9.3%  9.7% 28.4% 25.1% 13.6% 10.2%  1.1%  0.7%  2.1%
x264 [info]: mb I  I16..4: 18.4% 70.4% 11.2%
x264 [info]: mb P  I16..4: 11.5% 30.2%  2.2%  P16..4: 28.5%  7.8%  5.0%  0.3%  0.1%    skip:14.5%
x264 [info]: mb B  I16..4:  2.2%  4.5%  0.2%  B16..8: 30.9%  7.9%  1.9%  direct: 9.2%  skip:43.0%  L0:44.3% L1:41.4% BI:14.3%
x264 [info]: 8x8 transform intra:68.0% inter:73.3%
x264 [info]: direct mvs  spatial:96.2% temporal:3.8%
x264 [info]: coded y,uvDC,uvAC intra: 46.5% 67.3% 46.5% inter: 17.8% 26.8% 5.4%
x264 [info]: i16 v,h,dc,p: 61% 13%  9% 18%
x264 [info]: i8 v,h,dc,ddl,ddr,vr,hd,vl,hu: 13% 10% 33%  6%  7%  8%  7%  7%  8%
x264 [info]: i4 v,h,dc,ddl,ddr,vr,hd,vl,hu: 11% 11% 12% 10% 14% 12% 11%  9% 10%
x264 [info]: i8c dc,h,v,p: 57% 20% 15%  7%
x264 [info]: Weighted P-Frames: Y:16.0% UV:12.5%
x264 [info]: ref P L0: 60.1%  8.2% 19.4%  9.9%  2.1%  0.3%
x264 [info]: ref B L0: 85.0% 12.4%  2.6%
x264 [info]: ref B L1: 96.7%  3.3%
x264 [info]: kb/s:7992.78

MI
[pre]
Общее
Уникальный идентификатор : 198435280565614544236011416057707584412 (0x95493EB0E05CF259ADFBB9DFA2955B9C)
Полное имя : E:\Video\Def Leppard - Hysteria At The O2\02. Before And After.mkv
Формат : Matroska
Версия формата : Version 4
Размер файла : 2,60 Гбайт
Продолжительность : 31 м. 28 с.
Общий поток : 11,8 Мбит/сек
Дата кодирования : UTC 2020-06-04 16:23:31
Программа кодирования : mkvmerge v7.1.0 ('Good Love') 64bit built on Jul 27 2014 13:06:55
Библиотека кодирования : libebml v1.3.0 + libmatroska v1.4.1
Видео
Идентификатор : 1
Формат : AVC
Формат/Информация : Advanced Video Codec
Профиль формата : High@L4.1
Настройки формата : CABAC / 4 Ref Frames
Параметр CABAC формата : Да
Параметр RefFrames формата : 4 кадра
Идентификатор кодека : V_MPEG4/ISO/AVC
Продолжительность : 31 м. 28 с.
Битрейт : 8 001 Кбит/сек
Ширина : 1 920 пикселей
Высота : 1 080 пикселей
Соотношение сторон : 16:9
Режим частоты кадров : Постоянный
Частота кадров : 23,976 (24000/1001) кадра/сек
Цветовое пространство : YUV
Субдискретизация насыщенности : 4:2:0
Битовая глубина : 8 бит
Тип развёртки : Прогрессивная
Бит/(Пиксели*Кадры) : 0.161
Размер потока : 1,76 Гбайт (68%)
Библиотека кодирования : x264 core 152 r2851 ba24899
Настройки программы : cabac=1 / ref=4 / deblock=1:-2:-2 / analyse=0x3:0x133 / me=umh / subme=10 / psy=1 / psy_rd=1.00:0.15 / mixed_ref=1 / me_range=32 / chroma_me=1 / trellis=2 / 8x8dct=1 / cqm=0 / deadzone=21,11 / fast_pskip=1 / chroma_qp_offset=-3 / threads=6 / lookahead_threads=1 / sliced_threads=0 / nr=0 / decimate=1 / interlaced=0 / bluray_compat=0 / constrained_intra=0 / bframes=8 / b_pyramid=2 / b_adapt=2 / b_bias=0 / direct=3 / weightb=1 / open_gop=0 / weightp=2 / keyint=240 / keyint_min=23 / scenecut=40 / intra_refresh=0 / rc_lookahead=60 / rc=2pass / mbtree=1 / bitrate=8001 / ratetol=1.0 / qcomp=0.60 / qpmin=0 / qpmax=69 / qpstep=4 / cplxblur=20.0 / qblur=0.5 / vbv_maxrate=50000 / vbv_bufsize=50000 / nal_hrd=none / filler=0 / ip_ratio=1.40 / aq=1:1.00
Default : Да
Forced : Нет
Аудио #1
Идентификатор : 2
Формат : DTS
Формат/Информация : Digital Theater Systems
Идентификатор кодека : A_DTS
Продолжительность : 31 м. 28 с.
Вид битрейта : Постоянный
Битрейт : 1 509 Кбит/сек
Каналы : 6 каналов
Channel layout : C L R Ls Rs LFE
Частота : 48,0 КГц
Частота кадров : 93,750 кадра/сек (512 SPF)
Битовая глубина : 24 бит
Метод сжатия : С потерями
Размер потока : 340 Мбайт (13%)
Default : Да
Forced : Нет
Аудио #2
Идентификатор : 3
Формат : PCM
Настройки формата : Little / Signed
Идентификатор кодека : A_PCM/INT/LIT
Продолжительность : 31 м. 28 с.
Вид битрейта : Постоянный
Битрейт : 2 304 Кбит/сек
Каналы : 2 канала
Частота : 48,0 КГц
Частота кадров : 32,000 кадра/сек (1500 SPF)
Битовая глубина : 24 бит
Размер потока : 519 Мбайт (20%)
Default : Нет
Forced : Нет
Меню
00:00:00.000 : en:Encore
00:01:39.641 : en:Wasted
00:06:02.111 : en:When Love And Hate Collide
00:10:18.117 : en:Let's Get Rocked
00:16:00.751 : en:Rock Of Ages
00:20:59.883 : en:Photograph
00:28:19.155 : en:Credits

Скриншоты












                                                                                       
                       
                       
                       
                       
                       
                                磁力下载:(论坛代下载服务)
                                                               
                                       
游客,本主题需向作者支付 7音乐币 才能浏览,金币充值, 免回复、免金币,直接查看内容请开通VIP支付

                                               
  • 8.21 GB
  • 温馨提示

    记得善用社区搜索功能,那里可能会有你想要的资源;论坛站内搜索

    如果你有什么需要的资源可以去资源求档发帖,求助社区的网友,我们会在第一时间给你回复哦;资源求档

    对于本社区网盘链接失效密码错误各种报错请在反馈板块反馈报错发帖,您的支持,是我们发展的最大动力;投诉建议

    回复

    使用道具 举报

    您需要登录后才可以回帖 登录 | 立即注册 微信登录

    本版积分规则

    关注0

    粉丝12

    帖子69802

    发布主题
    阅读排行更多+
    关闭

    站长推荐上一条 /1 下一条

    收藏帖子 返回列表 这是一个自定义按钮
    音乐分享,音乐下载。
    微信公众号
    微信号:hires_
    意见反馈:admin@maomicd.com

    加入我们的官方QQ群和微信群

    Powered by Discuz! X3.4 Archiver|手机版|小黑屋|捌零音乐论坛 ( 苏ICP备20015413号 )|( 苏公网安备 32030502000272号) 繁體

    GMT+8, 2021-5-18 19:04