自购原抓音乐圈:只有自购、合购、原抓级高解析(hires、sacd、dsd)正版音乐资源分享!【点我打开
极速无线网卡:千兆无线网卡、服务器网卡、USB接口台式机笔记本网卡 硬盘代考无损音乐!【点我打开
广告

[摇滚] Arch Enemy - War Eternal Tour: Tokyo Sacrifice [2016, Melodic Death Metal, BDRip, 1080p]

[复制链接]
kayda 发表于 2021-4-13 15:33:59 | 显示全部楼层 |阅读模式 打印 上一主题 下一主题
War Eternal Tour: Tokyo Sacrifice
Жанр: Melodic Death Metal
Продолжительность: 01:38:31
Год выпуска: 2016Описание: Live At Shibuya O-EAST, Tokyo, 03.03.2015Треклист:
1.Tempore Nihil Sanat (Prelude in F minor)
2.Never Forgive, Never Forget
3.War Eternal
4.Bury Me an Angel
5.Stolen Life
6.Ravenous
7.Taking Back My Soul
8.My Apocalypse
9.You Will Know My Name
10.Bloodstained Cross
11.Burning Angel
12.As the Pages Burn
13.Dead Eyes See No Future
14.The Day You Died
15.No More Regrets
16.No Gods, No Masters
17.We Will Rise
18.Silverwing
19.Snowbound
20.Nemesis
21.Fields of Desolation / OutroИсточник: Arch Enemy ★ War Eternal Tour ★ Tokyo Sacrifice, Blu-rayКачество: BDRip
Разрешение видео/развертка: 1080p
Контейнер: MKV
Видео кодек: H.264
Аудио кодек: PCM
Видео: MPEG-4 AVC / 1920*1080 / 16:9 / 8135 kbps / 29.97 fps
Аудио: PCM /1536 kbps / 48.0 khz / 2 ch
MI

Общее
Уникальный идентификатор                 : 211355153522120059937064232885480852100 (0x9F01859BB07A79D0B1490D44D5E00A84)
Полное имя                               : D:\Video\Arch Enemy - War Eternal Tour Tokyo Sacrifice.mkv
Формат                                   : Matroska
Версия формата                           : Version 4 / Version 2
Размер файла                             : 6,66 Гбайт
Продолжительность                        : 1 ч. 38 м.
Общий поток                              : 9673 Кбит/сек
Дата кодирования                         : UTC 2016-06-08 14:10:41
Программа кодирования                    : mkvmerge v7.1.0 ('Good Love') 64bit built on Jul 27 2014 13:06:55
Библиотека кодирования                   : libebml v1.3.0 + libmatroska v1.4.1
Видео
Идентификатор                            : 1
Формат                                   : AVC
Формат/Информация                        : Advanced Video Codec
Профиль формата                          : High@L4.1
Параметр CABAC формата                   : Да
Параметр ReFrames формата                : 4 кадра
Идентификатор кодека                     : V_MPEG4/ISO/AVC
Продолжительность                        : 1 ч. 38 м.
Битрейт                                  : 8135 Кбит/сек
Ширина                                   : 1920 пикселей
Высота                                   : 1080 пикселей
Соотношение сторон                       : 16:9
Режим частоты кадров                     : Постоянный
Частота кадров                           : 29,970 (30000/1001) кадров/сек
Цветовое пространство                    : YUV
Субдискретизация насыщенности            : 4:2:0
Битовая глубина                          : 8 бит
Тип развёртки                            : Прогрессивная
Бит/(Пиксели*Кадры)                      : 0.131
Размер потока                            : 5,60 Гбайт (84%)
Библиотека кодирования                   : x264 core 148 r2638 7599210
Настройки программы                      : cabac=1 / ref=4 / deblock=1:-1:-1 / analyse=0x3:0x133 / me=umh / subme=9 / psy=1 / psy_rd=1.00:0.15 / mixed_ref=1 / me_range=16 / chroma_me=1 / trellis=2 / 8x8dct=1 / cqm=0 / deadzone=21,11 / fast_pskip=1 / chroma_qp_offset=-3 / threads=6 / lookahead_threads=1 / sliced_threads=0 / nr=0 / decimate=1 / interlaced=0 / bluray_compat=0 / constrained_intra=0 / bframes=6 / b_pyramid=2 / b_adapt=2 / b_bias=0 / direct=3 / weightb=1 / open_gop=0 / weightp=2 / keyint=300 / keyint_min=29 / scenecut=40 / intra_refresh=0 / rc_lookahead=60 / rc=2pass / mbtree=1 / bitrate=8135 / ratetol=1.0 / qcomp=0.60 / qpmin=0 / qpmax=69 / qpstep=4 / cplxblur=20.0 / qblur=0.5 / vbv_maxrate=50000 / vbv_bufsize=50000 / nal_hrd=none / filler=0 / ip_ratio=1.40 / aq=1:1.00
Default                                  : Да
Forced                                   : Нет
Аудио
Идентификатор                            : 2
Формат                                   : PCM
Идентификатор кодека                     : A_PCM/INT/LIT
Продолжительность                        : 1 ч. 38 м.
Вид битрейта                             : Постоянный
Битрейт                                  : 1536 Кбит/сек
Каналы                                   : 2 канала
Частота                                  : 48,0 КГц
Частота кадров                           : 32,000 кадра/сек (1500 spf)
Битовая глубина                          : 16 бит
Размер потока                            : 1,06 Гбайт (16%)
Default                                  : Да
Forced                                   : Нет
Меню
00:00:00.000                             : en:01 Tempore Nihil Sanat
00:01:20.914                             : en:02 Tempore Nihil Sanat
00:05:04.470                             : en:03 War Eternal
00:09:38.678                             : en:04 Bury Me an Angel
00:13:58.304                             : en:05 Stolen Life
00:17:44.430                             : en:06 Ravenous
00:21:49.141                             : en:07 Taking Back My Soul
00:26:32.757                             : en:08 My Apocalypse
00:32:57.709                             : en:09 You Will Know My Name
00:37:35.586                             : en:10 Bloodstained Cross
00:42:27.077                             : en:11 Burning Angel
00:47:32.182                             : en:12 As the Pages Burn
00:51:48.772                             : en:13 Dead Eyes See No Future
00:56:25.548                             : en:14 The Day You Died
01:01:33.022                             : en:15 No More Regrets
01:06:37.126                             : en:16 No Gods, No Masters
01:11:03.759                             : en:17 We Will Rise
01:17:54.002                             : en:18 Silverwing
01:23:19.627                             : en:19 Snowbound
01:26:49.037                             : en:20 Nemesis
01:31:10.298                             : en:21 Fields of Desolation


Скриншоты













                                                                                       
                       
                       
                       
                       
                       
                                磁力下载:(论坛代下载服务)
                                                               
                                       
游客,本主题需向作者支付 7音乐币 才能浏览,金币充值, 免回复、免金币,直接查看内容请开通VIP支付

                                               
  • 6.66 GB
  • 温馨提示

    记得善用社区搜索功能,那里可能会有你想要的资源;论坛站内搜索

    如果你有什么需要的资源可以去资源求档发帖,求助社区的网友,我们会在第一时间给你回复哦;资源求档

    对于本社区网盘链接失效密码错误各种报错请在反馈板块反馈报错发帖,您的支持,是我们发展的最大动力;投诉建议

    回复

    使用道具 举报

    您需要登录后才可以回帖 登录 | 立即注册 微信登录

    本版积分规则

    关注0

    粉丝0

    帖子30073

    发布主题
    阅读排行更多+
    关闭

    站长推荐上一条 /1 下一条

    收藏帖子 返回列表 这是一个自定义按钮
    音乐分享,音乐下载。
    微信公众号
    微信号:hires_
    意见反馈:admin@maomicd.com

    加入我们的官方QQ群和微信群

    Powered by Discuz! X3.4 Archiver|手机版|小黑屋|捌零音乐论坛 ( 苏ICP备20015413号 )|( 苏公网安备 32030502000272号) 繁體

    GMT+8, 2021-5-9 00:12