自购原抓音乐圈:只有自购、合购、原抓级高解析(hires、sacd、dsd)正版音乐资源分享!【点我打开
极速无线网卡:千兆无线网卡、服务器网卡、USB接口台式机笔记本网卡 硬盘代考无损音乐!【点我打开
广告

[摇滚] U2 - Live at Glastonbury Festival 2011 [2011, Rock, HDTVRip]

[复制链接]
fqw1001 发表于 2021-4-13 15:33:59 | 显示全部楼层 |阅读模式 打印 上一主题 下一主题
U2 - Live at Glastonbury Festival 2011
Жанр: Rock
Продолжительность: 01:36:21
Год выпуска: 2011Описание: Выступление группы U2 на фестивале Glastonbury Festival of Contemporary Performing Arts 2011.
Исходник рипа - захват с технического канала U2 - Live at Glastonbury Festival 2011 [2011 г., Rock, HDTV]
Треклист:
1. Even Better Than the Real Thing (Remix version)
2. The Fly
3. Mysterious Ways (with "Independent Women" snippet)
4. Until the End of the World
5. One
6. Where the Streets Have No Name (with "Jerusalem" intro)
7. I Will Follow
8. I Still Haven't Found What I'm Looking For (with "Movin' On Up" snippet)
9. Stay (Faraway, So Close!)
10. Beautiful Day (with "Rain" snippet)
11. Elevation
12. Get On Your Boots (with "She Loves You" snippet)
13. Vertigo (with "GarageLand" snippet)
14. Sunday Bloody Sunday
15. Bad (with "Jerusalem" snippet)
16. Pride (In the Name of Love)
Encores:
17. With Or Without You (with "Love Will Tear Us Apart" snippet)
18. Moment of Surrender (with "Yellow" Snippet)
19. Out of Control (with "Pretty Vacant" intro)Качество: HDTVRip
Контейнер: MKV
Видео кодек: H.264
Аудио кодек: MP2
Видео: 1280x720 (16:9), 25 fps, 6500 Kbps
Аудио: MPEG Audio 2.0, 256 Kbps, 48.0 KHz, 2 ch
Mediainfo

Код:
General
Unique ID                        : 209265299262093592096298763152117038311 (0x9D6F07D6840F3A50AFC5731E46697CE7)
Complete name                    : \\psf\Elements\U2.Glastonbury.2011.x264.720p.mkv
Format                           : Matroska
File size                        : 4.55 GiB
Duration                         : 1h 36mn
Overall bit rate                 : 6 757 Kbps
Encoded date                     : UTC 2011-07-03 19:43:56
Writing application              : mkvmerge v4.8.0 ('I Got The...') сборка от May 24 2011 03:12:58
Writing library                  : libebml v1.2.0 + libmatroska v1.1.0
Video
ID                               : 1
Format                           : AVC
Format/Info                      : Advanced Video Codec
Format profile                   : High@L4.1
Format settings, CABAC           : Yes
Format settings, ReFrames        : 9 frames
Codec ID                         : V_MPEG4/ISO/AVC
Duration                         : 1h 36mn
Bit rate                         : 6 500 Kbps
Width                            : 1 280 pixels
Height                           : 720 pixels
Display aspect ratio             : 16:9
Frame rate                       : 25.000 fps
Color space                      : YUV
Chroma subsampling               : 4:2:0
Bit depth                        : 8 bits
Scan type                        : Progressive
Bits/(Pixel*Frame)               : 0.282
Stream size                      : 4.29 GiB (94%)
Writing library                  : x264 core 115 r1995 c1e60b9
Encoding settings                : cabac=1 / ref=9 / deblock=1:-3:-3 / analyse=0x3:0x113 / me=umh / subme=9 / psy=1 / psy_rd=1.00:0.00 / mixed_ref=1 / me_range=24 / chroma_me=1 / trellis=2 / 8x8dct=1 / cqm=0 / deadzone=21,11 / fast_pskip=1 / chroma_qp_offset=-2 / threads=12 / sliced_threads=0 / nr=0 / decimate=1 / interlaced=0 / bluray_compat=0 / constrained_intra=0 / bframes=6 / b_pyramid=2 / b_adapt=2 / b_bias=0 / direct=3 / weightb=1 / open_gop=0 / weightp=2 / keyint=250 / keyint_min=23 / scenecut=40 / intra_refresh=0 / rc=2pass / mbtree=0 / bitrate=6500 / ratetol=1.0 / qcomp=0.60 / qpmin=0 / qpmax=69 / qpstep=4 / cplxblur=20.0 / qblur=0.5 / ip_ratio=1.40 / pb_ratio=1.30 / aq=1:1.00
Language                         : English
Audio
ID                               : 2
Format                           : MPEG Audio
Format version                   : Version 1
Format profile                   : Layer 2
Codec ID                         : A_MPEG/L2
Codec ID/Hint                    : MP2
Duration                         : 1h 36mn
Bit rate mode                    : Constant
Bit rate                         : 256 Kbps
Channel(s)                       : 2 channels
Sampling rate                    : 48.0 KHz
Compression mode                 : Lossy
Delay relative to video          : 19ms
Stream size                      : 176 MiB (4%)


Скриншоты












                                                                                       
                       
                       
                       
                       
                       
                                磁力下载:
                                                               
                                       
游客,本主题需向作者支付 7音乐币 才能浏览,金币充值, 免回复、免金币,直接查看内容请开通VIP支付

                                               
  • 4.55 GB
  • 温馨提示

    记得善用社区搜索功能,那里可能会有你想要的资源;论坛站内搜索

    如果你有什么需要的资源可以去资源求档发帖,求助社区的网友,我们会在第一时间给你回复哦;资源求档

    对于本社区网盘链接失效密码错误各种报错请在反馈板块反馈报错发帖,您的支持,是我们发展的最大动力;投诉建议

    回复

    使用道具 举报

    您需要登录后才可以回帖 登录 | 立即注册 微信登录

    本版积分规则

    关注0

    粉丝0

    帖子29518

    发布主题
    阅读排行更多+
    关闭

    站长推荐上一条 /1 下一条

    收藏帖子 返回列表 这是一个自定义按钮
    音乐分享,音乐下载。
    微信公众号
    微信号:hires_
    意见反馈:admin@maomicd.com

    加入我们的官方QQ群和微信群

    Powered by Discuz! X3.4 Archiver|手机版|小黑屋|捌零音乐论坛 ( 苏ICP备20015413号 )|( 苏公网安备 32030502000272号) 繁體

    GMT+8, 2021-5-6 23:07