自购原抓音乐圈:只有自购、合购、原抓级高解析(hires、sacd、dsd)正版音乐资源分享!【点我打开
极速无线网卡:千兆无线网卡、服务器网卡、USB接口台式机笔记本网卡 硬盘代考无损音乐!【点我打开
广告

[流行音乐] Das Falco Tribute Konzert • Coming Home [2017, Pop Rock, HDTV, 720p]

[复制链接]
kayda 发表于 2021-4-13 15:31:17 | 显示全部楼层 |阅读模式 打印 上一主题 下一主题
Das Falco Tribute Konzert
Coming Home



Жанр: Pop Rock
Продолжительность: 01:23:41
Год выпуска: 2017
Качество: HDTV
Разрешение видео/развертка: 720p
Контейнер: TS
Видео кодек: H.264
Аудио кодек: AC3, MP2
Видео: MPEG4 Video (H264) 1280x720 50fps 10.2 Mb/s
Аудио 1: MPEG Audio 48000Hz stereo 192kbps
Аудио 2: Dolby AC3 48000Hz 6ch 448kbps
Треклист
01. Out Of The Dark - Falco
02. Wiener Blut - Edita Malovcic
03. June Romer - Gianna Nannini & Julian le Play
04. Auf Der Flucht - Skero
05. Der Komissar - Fettes Brot
06. Ganz Wein - Falco
07. Jeanny + Coming Home - Johannes Krisch
08. Manner Des Westens - Yasmo
09. The Sound Of Musik - Ana Milva Gomes & Drew Sarich
10. Vienna Calling - Fettes Brot
11. Helden Von Heute - Roman Gregory
12. Nachtflug - Edita Malovcic
13. It's All Over Now, Baby Blue - Gianna Nannini
14. Dance Mephisto - Georgij Makazaria
15. Rock Me Amadeus - All
16. Europa - All

Отчёт MediaInfo / BDInfo

General
ID                             : 12300 (0x300C)
Complete name                  : L:\Das Falco Tribute Konzert - Coming Home 2017.ts
Format                         : MPEG-TS
File size                      : 6.81 GiB
Duration                       : 1 h 23 min
Overall bit rate mode          : Variable
Overall bit rate               : 11.6 Mb/s
Video
ID                             : 512 (0x200)
Menu ID                        : 17202 (0x4332)
Format                         : AVC
Format/Info                    : Advanced Video Codec
Format profile                 : High@L4
Format settings, CABAC         : Yes
Format settings, RefFrames     : 3 frames
Format settings, GOP           : M=2, N=24
Codec ID                       : 27
Duration                       : 1 h 23 min
Bit rate                       : 10.2 Mb/s
Width                          : 1 280 pixels
Height                         : 720 pixels
Display aspect ratio           : 16:9
Frame rate                     : 50.000 FPS
Standard                       : Component
Color space                    : YUV
Chroma subsampling             : 4:2:0
Bit depth                      : 8 bits
Scan type                      : Progressive
Bits/(Pixel*Frame)             : 0.222
Stream size                    : 5.98 GiB (88%)
Encryption                     : TPS-Crypt  or Viaccess
Color range                    : Limited
Color primaries                : BT.709
Transfer characteristics       : BT.709
Matrix coefficients            : BT.709
Audio #1
ID                             : 513 (0x201)
Menu ID                        : 17202 (0x4332)
Format                         : MPEG Audio
Format version                 : Version 1
Format profile                 : Layer 2
Mode                           : Joint stereo
Mode extension                 : Intensity Stereo + MS Stereo
Codec ID                       : 3
Duration                       : 1 h 23 min
Bit rate mode                  : Constant
Bit rate                       : 192 kb/s
Channel(s)                     : 2 channels
Sampling rate                  : 48.0 kHz
Compression mode               : Lossy
Delay relative to video        : -232 ms
Stream size                    : 115 MiB (2%)
Language                       : German
Language, more info            : Clean effects
Encryption                     : TPS-Crypt  or Viaccess
Audio #2
ID                             : 514 (0x202)
Menu ID                        : 17202 (0x4332)
Format                         : MPEG Audio
Format version                 : Version 1
Format profile                 : Layer 2
Mode                           : Joint stereo
Mode extension                 : Intensity Stereo + MS Stereo
Codec ID                       : 3
Duration                       : 1 h 23 min
Bit rate mode                  : Constant
Bit rate                       : 192 kb/s
Channel(s)                     : 2 channels
Sampling rate                  : 48.0 kHz
Compression mode               : Lossy
Delay relative to video        : -232 ms
Stream size                    : 115 MiB (2%)
Language                       : English
Language, more info            : Clean effects
Encryption                     : TPS-Crypt  or Viaccess
Audio #3
ID                             : 515 (0x203)
Menu ID                        : 17202 (0x4332)
Format                         : AC-3
Format/Info                    : Audio Coding 3
Format settings, Endianness    : Big
Codec ID                       : 6
Duration                       : 1 h 23 min
Bit rate mode                  : Constant
Bit rate                       : 448 kb/s
Channel(s)                     : 6 channels
Channel positions              : Front: L C R, Side: L R, LFE
Sampling rate                  : 48.0 kHz
Frame rate                     : 31.250 FPS (1536 SPF)
Bit depth                      : 16 bits
Compression mode               : Lossy
Delay relative to video        : -240 ms
Stream size                    : 268 MiB (4%)
Language                       : German
Language, more info            : Clean effects
Service kind                   : Complete Main
Encryption                     : TPS-Crypt  or Viaccess


Скриншоты


























Мои раздачи ®
https://rutracker.org/forum/https://rutracker.net/forum/tracker.php?rid=9539252


                                                                                       
                       
                       
                       
                       
                       
                                磁力下载:(论坛代下载服务)
                                                               
                                       
游客,本主题需向作者支付 7音乐币 才能浏览,金币充值, 免回复、免金币,直接查看内容请开通VIP支付

                                               
  • 6.81 GB
  • 温馨提示

    记得善用社区搜索功能,那里可能会有你想要的资源;论坛站内搜索

    如果你有什么需要的资源可以去资源求档发帖,求助社区的网友,我们会在第一时间给你回复哦;资源求档

    对于本社区网盘链接失效密码错误各种报错请在反馈板块反馈报错发帖,您的支持,是我们发展的最大动力;投诉建议

    回复

    使用道具 举报

    您需要登录后才可以回帖 登录 | 立即注册 微信登录

    本版积分规则

    关注0

    粉丝0

    帖子30073

    发布主题
    阅读排行更多+
    关闭

    站长推荐上一条 /1 下一条

    收藏帖子 返回列表 这是一个自定义按钮
    音乐分享,音乐下载。
    微信公众号
    微信号:hires_
    意见反馈:admin@maomicd.com

    加入我们的官方QQ群和微信群

    Powered by Discuz! X3.4 Archiver|手机版|小黑屋|捌零音乐论坛 ( 苏ICP备20015413号 )|( 苏公网安备 32030502000272号) 繁體

    GMT+8, 2021-5-10 06:43