自购原抓音乐圈:只有自购、合购、原抓级高解析(hires、sacd、dsd)正版音乐资源分享!【点我打开
极速无线网卡:千兆无线网卡、服务器网卡、USB接口台式机笔记本网卡 硬盘代考无损音乐!【点我打开
广告

[流行音乐] Stevie Wonder ft. Ariana Grande - Faith [2017, MasterRip, 1080p]

[复制链接]
fqw1001 发表于 2021-4-13 15:31:16 | 显示全部楼层 |阅读模式 打印 上一主题 下一主题
Stevie Wonder ft. Ariana Grande - Faith
Жанр: Pop, R&B, soul
Продолжительность: 00.02.40
Год выпуска: 2016
Качество: MasterRip
Разрешение видео/развертка: 1080p
Контейнер: MOV
Видео: AVC, 1920*1080p, 59,5 Mbps, 23.976 fps
Аудио: AAC, 320 kb/s, 48.0 KHz, 2 channels
Отчёт MediaInfo / BDInfo

Общее
Полное имя                               : E:\Stevie Wonder ft. Ariana Grande - Faith.mp4
Формат                                   : MPEG-4
Профиль формата                          : QuickTime
Идентификатор кодека                     : qt   2005.03 (qt  )
Размер файла                             : 1,12 Гбайт
Продолжительность                        : 2 м. 40 с.
Общий поток                              : 59,8 Мбит/сек
Дата кодирования                         : UTC 2017-07-11 20:09:24
Дата пометки                             : UTC 2017-07-11 20:09:32
Библиотека кодирования                   : Apple QuickTime
Видео
Идентификатор                            : 2
Формат                                   : AVC
Формат/Информация                        : Advanced Video Codec
Профиль формата                          : Main@L5
Параметр CABAC формата                   : Нет
Параметр RefFrames формата               : 2 кадра
Параметр GOP формата                     : M=2, N=24
Идентификатор кодека                     : avc1
Идентификатор кодека/Информация          : Advanced Video Coding
Продолжительность                        : 2 м. 40 с.
Duration_FirstFrame                      : -1 мс.
Duration_LastFrame                       : -41 мс.
Битрейт                                  : 59,5 Мбит/сек
Ширина                                   : 1920 пикселей
Высота                                   : 1080 пикселей
Соотношение сторон                       : 16:9
Режим частоты кадров                     : Постоянный
Частота кадров                           : 23,976 (24000/1001) кадра/сек
Цветовое пространство                    : YUV
Субдискретизация насыщенности            : 4:2:0
Битовая глубина                          : 8 бит
Тип развёртки                            : Прогрессивная
Бит/(Пиксели*Кадры)                      : 1.197
Размер потока                            : 1,11 Гбайт (99%)
Язык                                     : English
Дата кодирования                         : UTC 2017-07-11 20:09:13
Дата пометки                             : UTC 2017-07-11 20:09:32
Цветовой диапазон                        : Limited
Основные цвета                           : BT.709
Характеристики трансфера                 : BT.709
Коэффициенты матрицы                     : BT.709
Аудио
Идентификатор                            : 1
Формат                                   : AAC
Формат/Информация                        : Advanced Audio Codec
Профиль формата                          : LC
Идентификатор кодека                     : 40
Продолжительность                        : 2 м. 40 с.
Продолжительность оригинала              : 2 м. 40 с.
Вид битрейта                             : Постоянный
Битрейт                                  : 320 Кбит/сек
Каналы                                   : 2 канала
Расположение каналов                     : Front: L R
Частота                                  : 48,0 КГц
Частота кадров                           : 46,875 кадров/сек (1024 SPF)
Метод сжатия                             : С потерями
Размер потока                            : 6,05 Мбайт (1%)
Размер потока оригинала                  : 6,05 Мбайт (1%)
Язык                                     : English
Дата кодирования                         : UTC 2017-07-11 20:09:13
Дата пометки                             : UTC 2017-07-11 20:09:32


Скриншоты







                                                                                       
                       
                       
                       
                       
                       
                                磁力下载:(论坛代下载服务)
                                                               
                                       
游客,本主题需向作者支付 7音乐币 才能浏览,金币充值, 免回复、免金币,直接查看内容请开通VIP支付

                                               
  • 1.12 GB
  • 温馨提示

    记得善用社区搜索功能,那里可能会有你想要的资源;论坛站内搜索

    如果你有什么需要的资源可以去资源求档发帖,求助社区的网友,我们会在第一时间给你回复哦;资源求档

    对于本社区网盘链接失效密码错误各种报错请在反馈板块反馈报错发帖,您的支持,是我们发展的最大动力;投诉建议

    回复

    使用道具 举报

    您需要登录后才可以回帖 登录 | 立即注册 微信登录

    本版积分规则

    关注0

    粉丝0

    帖子29518

    发布主题
    阅读排行更多+
    关闭

    站长推荐上一条 /1 下一条

    收藏帖子 返回列表 这是一个自定义按钮
    音乐分享,音乐下载。
    微信公众号
    微信号:hires_
    意见反馈:admin@maomicd.com

    加入我们的官方QQ群和微信群

    Powered by Discuz! X3.4 Archiver|手机版|小黑屋|捌零音乐论坛 ( 苏ICP备20015413号 )|( 苏公网安备 32030502000272号) 繁體

    GMT+8, 2021-5-10 07:07