自购原抓音乐圈:只有自购、合购、原抓级高解析(hires、sacd、dsd)正版音乐资源分享!【点我打开
极速无线网卡:千兆无线网卡、服务器网卡、USB接口台式机笔记本网卡 硬盘代考无损音乐!【点我打开
广告

[流行音乐] Kylie Minogue - Kiss Me Once - Live at the SSE Hydro [2014, Pop, Blu-ray]

[复制链接]
全球搬运 发表于 2021-4-13 15:31:16 | 显示全部楼层 |阅读模式 打印 上一主题 下一主题
Kylie Minogue - Kiss Me Once - Live at the SSE Hydro
Жанр: Pop
Продолжительность: 01:49:43
Год выпуска: 2014
Release Date: 2015
Лейбл: Parlophone
Creative Directors: William Baker and Kylie Minogue
Musical Director: Steve Anderson
Choreographer: Ashley Wallen
Lighting Designer: Rob Sinclair
Artist: Kylie Minogue and Band: Pete Watson – Piano/Keyboards; Tom Meadows – Drums; Dishan Abrahams – Bass; Luke Fitton – Guitar; Roxy Rizzo, Lucy Jules – Backing Vocals
Описание: • After the release of her 2014 album Kiss Me Once, the pop whirlwind known as Kylie Minogue set off on an ambitious world tour that took her everywhere from Monte Carlo to Istanbul to Sheffield. Playing before rapturous crowds with a stage show that could only be described as elaborate, Kylie ran through a set that included hits from her impressively long career. From "The Loco-Motion" all the way up to "Les Sex" from the new album, every song is a sparkling nugget of pop greatness brought to life in front of the crowd. This CD/Blu-Ray set captures a November show at Glasgow's SSE Hydro arena, and if you were unfortunate enough to have missed the tour, this comes about as close as one can get to actually being there. Just close your eyes and imagine lots of pink lights, sequins, and feathers as the music plays.
Tracklist:
1. Breathe / Les Sex Intro
2. Les Sex
3. In My Arms
4. Timebomb
5. Wow
6. Step Back In Time
7. Spinning Around
8. Your Disco Needs You
9. On a Night Like This
10. Slow
11. Enjoy Yourself
12. Hand On Your Heart
13. Never Too Late
14. Got To Be Certain
15. I Should Be So Lucky
16. Skirt
17. Need You Tonight
18. Sexercize
19. Can’t Get You Out Of My Head
20. Kids
21. Beautiful
22. Kiss Me Once
23. Get Outta My Way
24. Love At First Sight
25. Tears On My Pillow
26. Locomotion
27. All The Lovers
28. Into The Blue
29. End Sequence (Kmo Instrumental)
Bonus:
30. Sleepwalker
31. Chasing Ghosts – Screen Visual
32. Sexercize – Screen Visual
33. Skirt – Screen Visual
34. Can’t Get You Out Of My Head – Screen Visual
35. In My Arms – Screen Visual
Качество: Blu-ray
Контейнер: BDMV
Видео кодек: MPEG4
Аудио кодек: DTS, LPCM, AC3
Видео: MPEG-4 AVC 33286 kbps / 1920*1080i / 29,970 fps / 16:9 / High Profile 4.1
Аудио#1: English DTS-HD MA 5.1 / 48 kHz / 5061 kbps / 24-bit (DTS Core: 5.1 / 48 kHz / 1509 kbps / 24-bit)
Аудио#2: English Dolby Digital 5.1 / 48 kHz / 448 kbps
Аудио#3: English LPCM 2.0 / 48 kHz / 2304 kbps / 24-bit
BDInfo

Disc Title:     Kylie Minogue.Kiss Me Once.Live at the SSE Hydro.2015.BD1080i
Disc Size:      43 375 731 714 bytes
Protection:     AACS
BD-Java:        Yes
BDInfo:         0.5.8
Notes:
BDINFO HOME:
  Cinema Squid
    http://www.cinemasquid.com/blu-ray/tools/bdinfo
INCLUDES FORUMS REPORT FOR:
  AVS Forum Blu-ray Audio and Video Specifications Thread
    http://www.avsforum.com/avs-vb/showthread.php?t=1155731
********************
PLAYLIST: 01001.MPLS
********************
Код
1
                                                                                Total   Video
Title                                                           Codec   Length  Movie Size      Disc Size       Bitrate Bitrate Main Audio Track                          Secondary Audio Track
-----                                                           ------  ------- --------------  --------------  ------- ------- ------------------                        ---------------------
01001.MPLS                                                      AVC     1:49:43 35 619 176 448  43 375 731 714  43,29   33,29   LPCM 2.0 2304Kbps (48kHz/24-bit)          DTS-HD Master 5.1 5061Kbps (48kHz/24-bit)
Код
1
DISC INFO:
Disc Title:     Kylie Minogue.Kiss Me Once.Live at the SSE Hydro.2015.BD1080i
Disc Size:      43 375 731 714 bytes
Protection:     AACS
BD-Java:        Yes
BDInfo:         0.5.8
PLAYLIST REPORT:
Name:                   01001.MPLS
Length:                 1:49:43.009 (h:m:s.ms)
Size:                   35 619 176 448 bytes
Total Bitrate:          43,29 Mbps
VIDEO:
Codec                   Bitrate             Description
-----                   -------             -----------
MPEG-4 AVC Video        33286 kbps          1080i / 29,970 fps / 16:9 / High Profile 4.1
AUDIO:
Codec                           Language        Bitrate         Description
-----                           --------        -------         -----------
LPCM Audio                      English         2304 kbps       2.0 / 48 kHz / 2304 kbps / 24-bit
DTS-HD Master Audio             English         5061 kbps       5.1 / 48 kHz / 5061 kbps / 24-bit (DTS Core: 5.1 / 48 kHz / 1509 kbps / 24-bit)
Dolby Digital Audio             English         448 kbps        5.1 / 48 kHz / 448 kbps
FILES:
Name            Time In         Length          Size            Total Bitrate
----            -------         ------          ----            -------------
00001.M2TS      0:00:00.000     1:49:43.009     35 619 176 448  43 286
CHAPTERS:
Number          Time In         Length          Avg Video Rate  Max 1-Sec Rate  Max 1-Sec Time  Max 5-Sec Rate  Max 5-Sec Time  Max 10Sec Rate  Max 10Sec Time  Avg Frame Size  Max Frame Size  Max Frame Time
------          -------         ------          --------------  --------------  --------------  --------------  --------------  --------------  --------------  --------------  --------------  --------------
1               0:00:00.000     0:02:07.694     29 957 kbps     52 487 kbps     00:01:41.301    37 622 kbps     00:01:41.167    36 303 kbps     00:01:40.600    124 912 bytes   604 155 bytes   00:00:33.967
2               0:02:07.694     0:03:08.354     33 785 kbps     51 185 kbps     00:02:42.128    37 793 kbps     00:02:42.061    36 668 kbps     00:02:33.286    140 912 bytes   589 629 bytes   00:04:38.811
3               0:05:16.049     0:03:26.439     34 601 kbps     46 252 kbps     00:08:03.216    37 156 kbps     00:06:46.572    36 277 kbps     00:07:36.489    144 314 bytes   647 485 bytes   00:07:53.773
4               0:08:42.488     0:04:16.689     34 783 kbps     46 420 kbps     00:09:07.780    37 652 kbps     00:08:55.167    36 316 kbps     00:12:08.260    145 073 bytes   618 680 bytes   00:09:56.228
5               0:12:59.178     0:03:13.459     34 293 kbps     46 768 kbps     00:15:24.990    37 913 kbps     00:13:41.353    36 481 kbps     00:13:13.259    143 030 bytes   667 476 bytes   00:13:46.292
6               0:16:12.638     0:04:30.970     32 467 kbps     46 756 kbps     00:18:45.891    37 555 kbps     00:20:26.391    36 236 kbps     00:19:55.194    135 413 bytes   512 591 bytes   00:19:35.874
7               0:20:43.609     0:03:41.821     34 688 kbps     45 527 kbps     00:22:17.502    37 229 kbps     00:22:49.401    36 117 kbps     00:21:51.343    144 678 bytes   520 570 bytes   00:23:57.235
8               0:24:25.430     0:04:41.981     34 202 kbps     46 817 kbps     00:28:56.835    37 486 kbps     00:28:52.731    36 249 kbps     00:28:12.390    142 649 bytes   543 943 bytes   00:25:51.016
9               0:29:07.412     0:03:37.517     33 843 kbps     46 542 kbps     00:29:29.667    37 368 kbps     00:29:29.567    36 414 kbps     00:31:09.434    141 155 bytes   554 369 bytes   00:32:16.134
10              0:32:44.929     0:04:12.685     33 694 kbps     47 868 kbps     00:33:19.864    37 824 kbps     00:33:32.844    36 361 kbps     00:35:27.024    140 534 bytes   520 432 bytes   00:33:37.749
11              0:36:57.615     0:00:47.480     33 823 kbps     46 844 kbps     00:37:32.283    37 234 kbps     00:37:14.365    36 074 kbps     00:37:23.274    141 072 bytes   573 884 bytes   00:37:24.875
12              0:37:45.096     0:02:48.067     34 971 kbps     44 184 kbps     00:39:21.826    36 804 kbps     00:37:48.599    35 996 kbps     00:38:03.581    145 859 bytes   627 350 bytes   00:39:18.923
13              0:40:33.164     0:01:50.310     34 979 kbps     45 052 kbps     00:40:51.949    36 970 kbps     00:40:56.086    36 067 kbps     00:40:50.781    145 893 bytes   635 275 bytes   00:40:56.520
14              0:42:23.474     0:01:54.114     35 003 kbps     45 287 kbps     00:42:52.536    38 193 kbps     00:43:31.442    36 129 kbps     00:43:35.746    145 992 bytes   588 244 bytes   00:43:35.946
15              0:44:17.588     0:02:35.455     34 315 kbps     46 254 kbps     00:44:59.830    37 342 kbps     00:45:12.142    36 197 kbps     00:45:34.131    143 121 bytes   699 413 bytes   00:45:00.798
16              0:46:53.043     0:02:26.045     31 292 kbps     48 948 kbps     00:47:49.700    37 909 kbps     00:47:12.596    35 990 kbps     00:48:54.197    130 512 bytes   447 999 bytes   00:47:56.206
17              0:49:19.089     0:03:58.004     34 309 kbps     48 113 kbps     00:53:14.791    37 369 kbps     00:50:47.077    36 515 kbps     00:49:43.480    143 098 bytes   520 296 bytes   00:51:21.778
18              0:53:17.093     0:03:46.192     33 938 kbps     46 810 kbps     00:54:38.575    37 658 kbps     00:55:46.743    36 208 kbps     00:53:21.264    141 551 bytes   606 320 bytes   00:54:24.094
19              0:57:03.286     0:01:10.003     24 331 kbps     45 834 kbps     00:57:40.590    36 874 kbps     00:57:20.036    32 561 kbps     00:57:15.031    101 480 bytes   360 926 bytes   00:57:23.139
20              0:58:13.289     0:04:26.232     34 678 kbps     48 300 kbps     00:58:35.645    37 362 kbps     01:01:41.497    36 030 kbps     00:59:13.983    144 637 bytes   531 275 bytes   00:59:11.414
21              1:02:39.522     0:01:23.283     29 967 kbps     42 636 kbps     01:02:59.976    37 336 kbps     01:02:59.942    36 081 kbps     01:02:59.876    124 988 bytes   482 261 bytes   01:03:42.952
22              1:04:02.805     0:04:41.147     34 243 kbps     48 644 kbps     01:07:11.961    38 297 kbps     01:07:08.124    36 173 kbps     01:07:21.704    142 823 bytes   516 732 bytes   01:04:12.014
23              1:08:43.953     0:04:52.225     32 963 kbps     46 311 kbps     01:08:48.824    37 186 kbps     01:10:30.092    36 168 kbps     01:08:54.296    137 482 bytes   589 812 bytes   01:09:02.872
24              1:13:36.178     0:03:53.967     32 213 kbps     47 676 kbps     01:16:14.036    37 571 kbps     01:14:04.506    36 248 kbps     01:16:14.036    134 354 bytes   648 038 bytes   01:17:17.699
25              1:17:30.145     0:06:24.183     34 291 kbps     47 258 kbps     01:23:44.552    37 905 kbps     01:23:44.252    36 445 kbps     01:18:46.088    143 020 bytes   580 157 bytes   01:22:42.557
26              1:23:54.329     0:05:46.679     34 685 kbps     47 557 kbps     01:28:17.292    37 336 kbps     01:26:00.355    36 238 kbps     01:28:24.065    144 664 bytes   583 972 bytes   01:25:59.521
27              1:29:41.008     0:01:52.245     33 943 kbps     45 185 kbps     01:31:04.158    37 155 kbps     01:31:04.425    36 107 kbps     01:31:03.357    141 572 bytes   566 320 bytes   01:31:26.047
28              1:31:33.254     0:04:29.335     34 741 kbps     45 131 kbps     01:32:24.772    37 318 kbps     01:34:38.773    35 996 kbps     01:33:56.931    144 897 bytes   536 865 bytes   01:32:41.322
29              1:36:02.590     0:03:51.364     34 368 kbps     50 437 kbps     01:38:54.194    38 724 kbps     01:38:50.324    36 085 kbps     01:38:44.952    143 343 bytes   551 096 bytes   01:38:35.442
30              1:39:53.954     0:06:37.330     33 933 kbps     50 406 kbps     01:45:03.730    39 026 kbps     01:46:00.320    36 315 kbps     01:43:05.779    141 527 bytes   603 831 bytes   01:45:58.118
31              1:46:31.284     0:03:09.689     16 362 kbps     27 383 kbps     01:47:25.405    25 994 kbps     01:47:22.402    25 068 kbps     01:47:18.398    68 243 bytes    181 325 bytes   01:47:25.439
32              1:49:40.974     0:00:02.035     686 kbps        1 261 kbps      01:49:41.641    0 kbps          00:00:00.000    0 kbps          00:00:00.000    2 908 bytes     42 011 bytes    01:49:42.609
STREAM DIAGNOSTICS:
File            PID             Type            Codec           Language                Seconds                 Bitrate                 Bytes           Packets
----            ---             ----            -----           --------                --------------          --------------          -------------   -----
00001.M2TS      4113 (0x1011)   0x1B            AVC                                     6582,943                33 286                  27 390 243 237  148 975 670
00001.M2TS      4352 (0x1100)   0x80            LPCM            eng (English)           6582,943                2 310                   1 901 163 180   10 532 767
00001.M2TS      4353 (0x1101)   0x86            DTS-HD MA       eng (English)           6582,943                5 061                   4 164 266 680   23 658 366
00001.M2TS      4354 (0x1102)   0x81            AC3             eng (English)           6582,943                448                     368 646 656     2 057 180
QUICK SUMMARY:
Disc Title: Kylie Minogue.Kiss Me Once.Live at the SSE Hydro.2015.BD1080i
Disc Size: 43 375 731 714 bytes
Protection: AACS
BD-Java: Yes
Playlist: 01001.MPLS
Size: 35 619 176 448 bytes
Length: 1:49:43.009
Total Bitrate: 43,29 Mbps
Video: MPEG-4 AVC Video / 33286 kbps / 1080i / 29,970 fps / 16:9 / High Profile 4.1
Audio: English / LPCM Audio / 2.0 / 48 kHz / 2304 kbps / 24-bit
Audio: English / DTS-HD Master Audio / 5.1 / 48 kHz / 5061 kbps / 24-bit (DTS Core: 5.1 / 48 kHz / 1509 kbps / 24-bit)
Audio: English / Dolby Digital Audio / 5.1 / 48 kHz / 448 kbps
********************
PLAYLIST: 01002.MPLS
********************
Код
1
                                                                                Total   Video
Title                                                           Codec   Length  Movie Size      Disc Size       Bitrate Bitrate Main Audio Track                          Secondary Audio Track
-----                                                           ------  ------- --------------  --------------  ------- ------- ------------------                        ---------------------
01002.MPLS                                                      AVC     0:08:43 2 360 432 640   43 375 731 714  36,10   29,20   LPCM 2.0 1536Kbps (48kHz/16-bit)          LPCM 2.0 1536Kbps (48kHz/16-bit)
Код
1
DISC INFO:
Disc Title:     Kylie Minogue.Kiss Me Once.Live at the SSE Hydro.2015.BD1080i
Disc Size:      43 375 731 714 bytes
Protection:     AACS
BD-Java:        Yes
BDInfo:         0.5.8
PLAYLIST REPORT:
Name:                   01002.MPLS
Length:                 0:08:43.122 (h:m:s.ms)
Size:                   2 360 432 640 bytes
Total Bitrate:          36,10 Mbps
VIDEO:
Codec                   Bitrate             Description
-----                   -------             -----------
MPEG-4 AVC Video        29204 kbps          1080i / 29,970 fps / 16:9 / High Profile 4.1
AUDIO:
Codec                           Language        Bitrate         Description
-----                           --------        -------         -----------
LPCM Audio                      English         1536 kbps       2.0 / 48 kHz / 1536 kbps / 16-bit
LPCM Audio                      English         1536 kbps       2.0 / 48 kHz / 1536 kbps / 16-bit
LPCM Audio                      English         1536 kbps       2.0 / 48 kHz / 1536 kbps / 16-bit
FILES:
Name            Time In         Length          Size            Total Bitrate
----            -------         ------          ----            -------------
00002.M2TS      0:00:00.000     0:08:43.122     2 360 432 640   36 098
CHAPTERS:
Number          Time In         Length          Avg Video Rate  Max 1-Sec Rate  Max 1-Sec Time  Max 5-Sec Rate  Max 5-Sec Time  Max 10Sec Rate  Max 10Sec Time  Avg Frame Size  Max Frame Size  Max Frame Time
------          -------         ------          --------------  --------------  --------------  --------------  --------------  --------------  --------------  --------------  --------------  --------------
1               0:00:00.000     0:08:43.122     29 204 kbps     48 362 kbps     00:06:03.930    37 429 kbps     00:04:51.357    36 246 kbps     00:05:33.533    121 812 bytes   632 984 bytes   00:04:10.216
STREAM DIAGNOSTICS:
File            PID             Type            Codec           Language                Seconds                 Bitrate                 Bytes           Packets
----            ---             ----            -----           --------                --------------          --------------          -------------   -----
00002.M2TS      4113 (0x1011)   0x1B            AVC                                     523,056                 29 208                  1 909 651 954   10 387 581
00002.M2TS      4352 (0x1100)   0x80            LPCM            eng (English)           523,056                 1 542                   100 846 932     627 683
00002.M2TS      4353 (0x1101)   0x80            LPCM            eng (English)           523,056                 1 542                   100 847 896     627 684
00002.M2TS      4354 (0x1102)   0x80            LPCM            eng (English)           523,056                 1 542                   100 847 896     627 684
QUICK SUMMARY:
Disc Title: Kylie Minogue.Kiss Me Once.Live at the SSE Hydro.2015.BD1080i
Disc Size: 43 375 731 714 bytes
Protection: AACS
BD-Java: Yes
Playlist: 01002.MPLS
Size: 2 360 432 640 bytes
Length: 0:08:43.122
Total Bitrate: 36,10 Mbps
Video: MPEG-4 AVC Video / 29204 kbps / 1080i / 29,970 fps / 16:9 / High Profile 4.1
Audio: English / LPCM Audio / 2.0 / 48 kHz / 1536 kbps / 16-bit
Audio: English / LPCM Audio / 2.0 / 48 kHz / 1536 kbps / 16-bit
Audio: English / LPCM Audio / 2.0 / 48 kHz / 1536 kbps / 16-bit
********************
PLAYLIST: 01006.MPLS
********************
Код
1
                                                                                Total   Video
Title                                                           Codec   Length  Movie Size      Disc Size       Bitrate Bitrate Main Audio Track                          Secondary Audio Track
-----                                                           ------  ------- --------------  --------------  ------- ------- ------------------                        ---------------------
01006.MPLS                                                      AVC     0:04:47 1 116 192 768   43 375 731 714  31,04   22,17   LPCM 2.0 1536Kbps (48kHz/16-bit)          DTS-HD Master 5.1 5030Kbps (48kHz/24-bit)
Код
1
DISC INFO:
Disc Title:     Kylie Minogue.Kiss Me Once.Live at the SSE Hydro.2015.BD1080i
Disc Size:      43 375 731 714 bytes
Protection:     AACS
BD-Java:        Yes
BDInfo:         0.5.8
PLAYLIST REPORT:
Name:                   01006.MPLS
Length:                 0:04:47.654 (h:m:s.ms)
Size:                   1 116 192 768 bytes
Total Bitrate:          31,04 Mbps
VIDEO:
Codec                   Bitrate             Description
-----                   -------             -----------
MPEG-4 AVC Video        22173 kbps          1080i / 29,970 fps / 16:9 / High Profile 4.1
AUDIO:
Codec                           Language        Bitrate         Description
-----                           --------        -------         -----------
LPCM Audio                      English         1536 kbps       2.0 / 48 kHz / 1536 kbps / 16-bit
DTS-HD Master Audio             English         5030 kbps       5.1 / 48 kHz / 5030 kbps / 24-bit (DTS Core: 5.1 / 48 kHz / 1509 kbps / 24-bit)
Dolby Digital Audio             English         448 kbps        5.1 / 48 kHz / 448 kbps / DN -4dB
FILES:
Name            Time In         Length          Size            Total Bitrate
----            -------         ------          ----            -------------
00006.M2TS      0:00:00.000     0:04:47.654     1 116 192 768   31 043
CHAPTERS:
Number          Time In         Length          Avg Video Rate  Max 1-Sec Rate  Max 1-Sec Time  Max 5-Sec Rate  Max 5-Sec Time  Max 10Sec Rate  Max 10Sec Time  Avg Frame Size  Max Frame Size  Max Frame Time
------          -------         ------          --------------  --------------  --------------  --------------  --------------  --------------  --------------  --------------  --------------  --------------
1               0:00:00.000     0:04:47.654     22 173 kbps     45 407 kbps     00:03:16.896    36 634 kbps     00:00:18.551    34 273 kbps     00:00:17.317    92 492 bytes    675 239 bytes   00:03:17.063
STREAM DIAGNOSTICS:
File            PID             Type            Codec           Language                Seconds                 Bitrate                 Bytes           Packets
----            ---             ----            -----           --------                --------------          --------------          -------------   -----
00006.M2TS      4113 (0x1011)   0x1B            AVC                                     287,587                 22 178                  797 280 223     4 338 040
00006.M2TS      4352 (0x1100)   0x80            LPCM            eng (English)           287,587                 1 543                   55 451 208      345 132
00006.M2TS      4353 (0x1101)   0x86            DTS-HD MA       eng (English)           287,587                 5 031                   180 854 580     1 027 652
00006.M2TS      4354 (0x1102)   0x81            AC3             eng (English)           287,587                 448                     16 104 704      89 870
QUICK SUMMARY:
Disc Title: Kylie Minogue.Kiss Me Once.Live at the SSE Hydro.2015.BD1080i
Disc Size: 43 375 731 714 bytes
Protection: AACS
BD-Java: Yes
Playlist: 01006.MPLS
Size: 1 116 192 768 bytes
Length: 0:04:47.654
Total Bitrate: 31,04 Mbps
Video: MPEG-4 AVC Video / 22173 kbps / 1080i / 29,970 fps / 16:9 / High Profile 4.1
Audio: English / LPCM Audio / 2.0 / 48 kHz / 1536 kbps / 16-bit
Audio: English / DTS-HD Master Audio / 5.1 / 48 kHz / 5030 kbps / 24-bit (DTS Core: 5.1 / 48 kHz / 1509 kbps / 24-bit)
Audio: English / Dolby Digital Audio / 5.1 / 48 kHz / 448 kbps / DN -4dB
********************
PLAYLIST: 01004.MPLS
********************
Код
1
                                                                                Total   Video
Title                                                           Codec   Length  Movie Size      Disc Size       Bitrate Bitrate Main Audio Track                          Secondary Audio Track
-----                                                           ------  ------- --------------  --------------  ------- ------- ------------------                        ---------------------
01004.MPLS                                                      AVC     0:03:43 1 192 906 752   43 375 731 714  42,71   33,21   LPCM 2.0 1536Kbps (48kHz/16-bit)          DTS-HD Master 5.1 5176Kbps (48kHz/24-bit)
Код
1
DISC INFO:
Disc Title:     Kylie Minogue.Kiss Me Once.Live at the SSE Hydro.2015.BD1080i
Disc Size:      43 375 731 714 bytes
Protection:     AACS
BD-Java:        Yes
BDInfo:         0.5.8
PLAYLIST REPORT:
Name:                   01004.MPLS
Length:                 0:03:43.423 (h:m:s.ms)
Size:                   1 192 906 752 bytes
Total Bitrate:          42,71 Mbps
VIDEO:
Codec                   Bitrate             Description
-----                   -------             -----------
MPEG-4 AVC Video        33212 kbps          1080i / 29,970 fps / 16:9 / High Profile 4.1
AUDIO:
Codec                           Language        Bitrate         Description
-----                           --------        -------         -----------
LPCM Audio                      English         1536 kbps       2.0 / 48 kHz / 1536 kbps / 16-bit
DTS-HD Master Audio             English         5176 kbps       5.1 / 48 kHz / 5176 kbps / 24-bit (DTS Core: 5.1 / 48 kHz / 1509 kbps / 24-bit)
Dolby Digital Audio             English         448 kbps        5.1 / 48 kHz / 448 kbps / DN -4dB
FILES:
Name            Time In         Length          Size            Total Bitrate
----            -------         ------          ----            -------------
00004.M2TS      0:00:00.000     0:03:43.423     1 192 906 752   42 714
CHAPTERS:
Number          Time In         Length          Avg Video Rate  Max 1-Sec Rate  Max 1-Sec Time  Max 5-Sec Rate  Max 5-Sec Time  Max 10Sec Rate  Max 10Sec Time  Avg Frame Size  Max Frame Size  Max Frame Time
------          -------         ------          --------------  --------------  --------------  --------------  --------------  --------------  --------------  --------------  --------------  --------------
1               0:00:00.000     0:03:43.423     33 212 kbps     45 222 kbps     00:03:37.016    37 150 kbps     00:01:09.536    36 008 kbps     00:00:51.918    138 543 bytes   513 810 bytes   00:02:57.177
STREAM DIAGNOSTICS:
File            PID             Type            Codec           Language                Seconds                 Bitrate                 Bytes           Packets
----            ---             ----            -----           --------                --------------          --------------          -------------   -----
00004.M2TS      4113 (0x1011)   0x1B            AVC                                     223,356                 33 222                  927 544 204     5 044 895
00004.M2TS      4352 (0x1100)   0x80            LPCM            eng (English)           223,356                 1 542                   43 064 772      268 038
00004.M2TS      4353 (0x1101)   0x86            DTS-HD MA       eng (English)           223,356                 5 177                   144 549 228     820 363
00004.M2TS      4354 (0x1102)   0x81            AC3             eng (English)           223,356                 448                     12 508 160      69 800
QUICK SUMMARY:
Disc Title: Kylie Minogue.Kiss Me Once.Live at the SSE Hydro.2015.BD1080i
Disc Size: 43 375 731 714 bytes
Protection: AACS
BD-Java: Yes
Playlist: 01004.MPLS
Size: 1 192 906 752 bytes
Length: 0:03:43.423
Total Bitrate: 42,71 Mbps
Video: MPEG-4 AVC Video / 33212 kbps / 1080i / 29,970 fps / 16:9 / High Profile 4.1
Audio: English / LPCM Audio / 2.0 / 48 kHz / 1536 kbps / 16-bit
Audio: English / DTS-HD Master Audio / 5.1 / 48 kHz / 5176 kbps / 24-bit (DTS Core: 5.1 / 48 kHz / 1509 kbps / 24-bit)
Audio: English / Dolby Digital Audio / 5.1 / 48 kHz / 448 kbps / DN -4dB
********************
PLAYLIST: 01007.MPLS
********************
Код
1
                                                                                Total   Video
Title                                                           Codec   Length  Movie Size      Disc Size       Bitrate Bitrate Main Audio Track                          Secondary Audio Track
-----                                                           ------  ------- --------------  --------------  ------- ------- ------------------                        ---------------------
01007.MPLS                                                      AVC     0:03:31 1 022 466 048   43 375 731 714  38,63   29,03   LPCM 2.0 1536Kbps (48kHz/16-bit)          DTS-HD Master 5.1 5443Kbps (48kHz/24-bit)
Код
1
DISC INFO:
Disc Title:     Kylie Minogue.Kiss Me Once.Live at the SSE Hydro.2015.BD1080i
Disc Size:      43 375 731 714 bytes
Protection:     AACS
BD-Java:        Yes
BDInfo:         0.5.8
PLAYLIST REPORT:
Name:                   01007.MPLS
Length:                 0:03:31.744 (h:m:s.ms)
Size:                   1 022 466 048 bytes
Total Bitrate:          38,63 Mbps
VIDEO:
Codec                   Bitrate             Description
-----                   -------             -----------
MPEG-4 AVC Video        29029 kbps          1080i / 29,970 fps / 16:9 / High Profile 4.1
AUDIO:
Codec                           Language        Bitrate         Description
-----                           --------        -------         -----------
LPCM Audio                      English         1536 kbps       2.0 / 48 kHz / 1536 kbps / 16-bit
DTS-HD Master Audio             English         5443 kbps       5.1 / 48 kHz / 5443 kbps / 24-bit (DTS Core: 5.1 / 48 kHz / 1509 kbps / 24-bit)
Dolby Digital Audio             English         448 kbps        5.1 / 48 kHz / 448 kbps / DN -4dB
FILES:
Name            Time In         Length          Size            Total Bitrate
----            -------         ------          ----            -------------
00007.M2TS      0:00:00.000     0:03:31.744     1 022 466 048   38 630
CHAPTERS:
Number          Time In         Length          Avg Video Rate  Max 1-Sec Rate  Max 1-Sec Time  Max 5-Sec Rate  Max 5-Sec Time  Max 10Sec Rate  Max 10Sec Time  Avg Frame Size  Max Frame Size  Max Frame Time
------          -------         ------          --------------  --------------  --------------  --------------  --------------  --------------  --------------  --------------  --------------  --------------
1               0:00:00.000     0:03:31.744     29 029 kbps     45 861 kbps     00:03:07.587    37 214 kbps     00:01:54.414    35 402 kbps     00:01:50.443    121 094 bytes   404 305 bytes   00:01:52.579
STREAM DIAGNOSTICS:
File            PID             Type            Codec           Language                Seconds                 Bitrate                 Bytes           Packets
----            ---             ----            -----           --------                --------------          --------------          -------------   -----
00007.M2TS      4113 (0x1011)   0x1B            AVC                                     211,678                 29 038                  768 344 040     4 179 444
00007.M2TS      4352 (0x1100)   0x80            LPCM            eng (English)           211,678                 1 543                   40 815 760      254 040
00007.M2TS      4353 (0x1101)   0x86            DTS-HD MA       eng (English)           211,678                 5 445                   144 064 976     816 276
00007.M2TS      4354 (0x1102)   0x81            AC3             eng (English)           211,678                 448                     11 854 080      66 150
QUICK SUMMARY:
Disc Title: Kylie Minogue.Kiss Me Once.Live at the SSE Hydro.2015.BD1080i
Disc Size: 43 375 731 714 bytes
Protection: AACS
BD-Java: Yes
Playlist: 01007.MPLS
Size: 1 022 466 048 bytes
Length: 0:03:31.744
Total Bitrate: 38,63 Mbps
Video: MPEG-4 AVC Video / 29029 kbps / 1080i / 29,970 fps / 16:9 / High Profile 4.1
Audio: English / LPCM Audio / 2.0 / 48 kHz / 1536 kbps / 16-bit
Audio: English / DTS-HD Master Audio / 5.1 / 48 kHz / 5443 kbps / 24-bit (DTS Core: 5.1 / 48 kHz / 1509 kbps / 24-bit)
Audio: English / Dolby Digital Audio / 5.1 / 48 kHz / 448 kbps / DN -4dB


Скриншоты

























                                                                                       
                       
                       
                       
                       
                       
                                磁力下载:
                                                               
                                       
游客,本主题需向作者支付 7音乐币 才能浏览,金币充值, 免回复、免金币,直接查看内容请开通VIP支付

                                               
  • 40.4 GB
  • 温馨提示

    记得善用社区搜索功能,那里可能会有你想要的资源;论坛站内搜索

    如果你有什么需要的资源可以去资源求档发帖,求助社区的网友,我们会在第一时间给你回复哦;资源求档

    对于本社区网盘链接失效密码错误各种报错请在反馈板块反馈报错发帖,您的支持,是我们发展的最大动力;投诉建议

    回复

    使用道具 举报

    您需要登录后才可以回帖 登录 | 立即注册 微信登录

    本版积分规则

    关注0

    粉丝12

    帖子69803

    发布主题
    阅读排行更多+
    关闭

    站长推荐上一条 /1 下一条

    收藏帖子 返回列表 这是一个自定义按钮
    音乐分享,音乐下载。
    微信公众号
    微信号:hires_
    意见反馈:admin@maomicd.com

    加入我们的官方QQ群和微信群

    Powered by Discuz! X3.4 Archiver|手机版|小黑屋|捌零音乐论坛 ( 苏ICP备20015413号 )|( 苏公网安备 32030502000272号) 繁體

    GMT+8, 2021-5-7 00:19