自购原抓音乐圈:只有自购、合购、原抓级高解析(hires、sacd、dsd)正版音乐资源分享!【点我打开
极速无线网卡:千兆无线网卡、服务器网卡、USB接口台式机笔记本网卡 硬盘代考无损音乐!【点我打开
广告

[流行音乐] Conor MAYNARD Live @ V Festival 2015 [Pop / Electropop / R&B, HDTV 1080i]

[复制链接]
10086 发表于 2021-4-13 15:31:16 | 显示全部楼层 |阅读模式 打印 上一主题 下一主题
Conor MAYNARD Live @ V Festival 2015
Жанр: Pop / Electropop / R&B
Продолжительность: 21mn 32s
Год выпуска: 2015
Описание: The sensational Conor Maynard stuns the V Festival crowd with his addictive singles 'Can't Say No' and 'R U Crazy' in an electric set that got everyone moving.Треклист:
01. Can't Say No
02. Animal
03. Talking About
04. Trap Queen / My Way / Gotta Get Thru This
05. Turn Around
06. R U CrazyКачество: HDTV 1080i
Контейнер: TS
Видео кодек: H.264
Аудио кодек: AC3
Видео: Cod.: V_MPEG4/ISO/AVC, 1920x1080i, 9.9 Mbps, 25 fps
Аудио: AC3, Chann. 6: 3F2R/LFE, SR:48 KHz, BR: 384 Kbps
Отчёт MediaInfo

General
Complete name                            : Conor Maynard Live at V Festival.ts
Format                                   : MPEG-TS
File size                                : 1.64 GiB
Duration                                 : 21mn 32s
Overall bit rate mode                    : Variable
Overall bit rate                         : 10.9 Mbps
Video
Format                                   : AVC
Format/Info                              : Advanced Video Codec
Format profile                           : Main@L4.0
Format settings, CABAC                   : Yes
Format settings, ReFrames                : 4 frames
Format settings, GOP                     : M=4, N=32
Codec ID                                 : 27
Duration                                 : 21mn 32s
Bit rate                                 : 9 946 Kbps
Width                                    : 1 920 pixels
Height                                   : 1 080 pixels
Display aspect ratio                     : 16:9
Frame rate                               : 25.000 fps
Color space                              : YUV
Chroma subsampling                       : 4:2:0
Bit depth                                : 8 bits
Scan type                                : Interlaced
Scan order                               : Top Field First
Bits/(Pixel*Frame)                       : 0.192
Stream size                              : 1.50 GiB (91%)
Color primaries                          : BT.709
Transfer characteristics                 : BT.709
Matrix coefficients                      : BT.709
Audio
Format                                   : AC-3
Format/Info                              : Audio Coding 3
Mode extension                           : CM (complete main)
Format settings, Endianness              : Big
Codec ID                                 : 6
Duration                                 : 21mn 32s
Bit rate mode                            : Constant
Bit rate                                 : 384 Kbps
Channel(s)                               : 6 channels
Channel positions                        : Front: L C R, Side: L R, LFE
Sampling rate                            : 48.0 KHz
Bit depth                                : 16 bits
Delay relative to video                  : 26ms
Stream size                              : 59.2 MiB (4%)
Language                                 : English


Скриншоты
















V Festival 2015 Live

• Calvin HARRIS (HD) https://rutracker.org/forum/https://rutracker.net/forum/viewtopic.php?t=5085102
• Clean Bandit (HD) https://rutracker.org/forum/https://rutracker.net/forum/viewtopic.php?t=5087232

                                                                                       
                       
                       
                       
                       
                       
                                磁力下载:
                                                               
                                       
游客,本主题需向作者支付 7音乐币 才能浏览,金币充值, 免回复、免金币,直接查看内容请开通VIP支付

                                               
  • 1.64 GB
  • 温馨提示

    记得善用社区搜索功能,那里可能会有你想要的资源;论坛站内搜索

    如果你有什么需要的资源可以去资源求档发帖,求助社区的网友,我们会在第一时间给你回复哦;资源求档

    对于本社区网盘链接失效密码错误各种报错请在反馈板块反馈报错发帖,您的支持,是我们发展的最大动力;投诉建议

    回复

    使用道具 举报

    您需要登录后才可以回帖 登录 | 立即注册 微信登录

    本版积分规则

    关注0

    粉丝4

    帖子51182

    发布主题
    阅读排行更多+
    关闭

    站长推荐上一条 /1 下一条

    收藏帖子 返回列表 这是一个自定义按钮
    音乐分享,音乐下载。
    微信公众号
    微信号:hires_
    意见反馈:admin@maomicd.com

    加入我们的官方QQ群和微信群

    Powered by Discuz! X3.4 Archiver|手机版|小黑屋|捌零音乐论坛 ( 苏ICP备20015413号 )|( 苏公网安备 32030502000272号) 繁體

    GMT+8, 2021-5-6 08:30