自购原抓音乐圈:只有自购、合购、原抓级高解析(hires、sacd、dsd)正版音乐资源分享!【点我打开
极速无线网卡:千兆无线网卡、服务器网卡、USB接口台式机笔记本网卡 硬盘代考无损音乐!【点我打开
广告

[流行音乐] Björk (Bjork) - <volta> Live In Paris (Voltaic: The Volta tour Live in Paris) [2008, Experimental / Electronic / Pop, HDTV 1080i]

[复制链接]
tikus75 发表于 2021-4-13 15:31:15 | 显示全部楼层 |阅读模式 打印 上一主题 下一主题
Björk (Bjork) -  Live In Paris (Voltaic: The Volta tour Live in Paris)
Жанр: Experimental / Electronic / Pop
Продолжительность: 55mn 10s
Год выпуска: 2008
Описание: "Voltaic: The Volta tour Live in Paris " is a remarkable, multi-media document of Björk's visually dazzling Volta tour. Full of on-your-feet moments, the film features highlights recorded in Paris, with performances of songs from Volta as well as earlier tracks including Hunter, Jóga, and Hyperballad. Björk's band on the Volta tour included Mark Bell (LFO) on computers and keyboards and Damian Taylor on keyboards and programming. Drums and percussion were played by Chris Corsano (Sonic Youth, etc.); Jónas Sen played piano, harpsichord, and church organ; and Björk's all female Icelandic 10-piece brass section rounded out the group. A dynamic, grand live experience, the Volta tour has been acclaimed around the world.
https://en.wikipedia.org/wiki/Volta%C3%AFc
https://en.wikipedia.org/wiki/Volta_%28album%29
Треклист:
01. Brennið Þið Vitar
02. Earth Intruders
03. Hunter
04. Immature
05. Jóga
06. The Pleasure Is All Mine
07. Vertebræ by Vertebræ
08. Where Is the Line
09. Who Is It
10. Desired Constellation
11. Army of Me
12. Bachelorette
13. Wanderlust
14. Hyperballad
15. Pluto
16. Declare Independence
Качество: HDTV 1080i
Контейнер: MKV
Видео кодек: H.264
Аудио кодек: AC3
Видео: Codec: H264-MPEG-4 AVC , 1920x1080i, 12.4 Mbps, 25 fps
Аудио: AC3 , Chann. 2, Sample rate: 48 KHz, Bitrate: 384 kb/s
Скриншоты

Отчёт MediaInfo

General
Complete name                    : Bjork_Live In Paris.mkv
Format                           : Matroska
File size                        : 5.04 GiB
Duration                         : 55mn 10s
Overall bit rate                 : 13.1 Mbps
Writing application              : Lavf53.21.0
Writing library                  : Lavf53.21.0
Video
ID                               : 1
Format                           : AVC
Format/Info                      : Advanced Video Codec
Format profile                   : Main@L4.0
Format settings, CABAC           : Yes
Format settings, ReFrames        : 4 frames
Format settings, GOP             : M=1, N=24
Muxing mode                      : Container profile=@4.0
Codec ID                         : V_MPEG4/ISO/AVC
Duration                         : 55mn 10s
Bit rate                         : 12.4 Mbps
Width                            : 1 920 pixels
Height                           : 1 080 pixels
Display aspect ratio             : 16:9
Frame rate                       : 25.000 fps
Color space                      : YUV
Chroma subsampling               : 4:2:0
Bit depth                        : 8 bits
Scan type                        : Interlaced
Scan order                       : Top Field First
Bits/(Pixel*Frame)               : 0.240
Stream size                      : 4.79 GiB (95%)
Color primaries                  : BT.709-5, BT.1361, IEC 61966-2-4, SMPTE RP177
Transfer characteristics         : BT.709-5, BT.1361
Matrix coefficients              : BT.709-5, BT.1361, IEC 61966-2-4 709, SMPTE RP177
Audio
ID                               : 2
Format                           : AC-3
Format/Info                      : Audio Coding 3
Mode extension                   : CM (complete main)
Codec ID                         : A_AC3
Duration                         : 55mn 10s
Bit rate mode                    : Constant
Bit rate                         : 384 Kbps
Channel(s)                       : 2 channels
Channel positions                : Front: L R
Sampling rate                    : 48.0 KHz
Video delay                      : 116ms
Stream size                      : 152 MiB (3%)

















                                                                                       
                       
                       
                       
                       
                       
                                磁力下载:(论坛代下载服务)
                                                               
                                       
游客,本主题需向作者支付 7音乐币 才能浏览,金币充值, 免回复、免金币,直接查看内容请开通VIP支付

                                               
  • 5.04 GB
  • 温馨提示

    记得善用社区搜索功能,那里可能会有你想要的资源;论坛站内搜索

    如果你有什么需要的资源可以去资源求档发帖,求助社区的网友,我们会在第一时间给你回复哦;资源求档

    对于本社区网盘链接失效密码错误各种报错请在反馈板块反馈报错发帖,您的支持,是我们发展的最大动力;投诉建议

    回复

    使用道具 举报

    您需要登录后才可以回帖 登录 | 立即注册 微信登录

    本版积分规则

    关注0

    粉丝0

    帖子29919

    发布主题
    阅读排行更多+
    关闭

    站长推荐上一条 /1 下一条

    收藏帖子 返回列表 这是一个自定义按钮
    音乐分享,音乐下载。
    微信公众号
    微信号:hires_
    意见反馈:admin@maomicd.com

    加入我们的官方QQ群和微信群

    Powered by Discuz! X3.4 Archiver|手机版|小黑屋|捌零音乐论坛 ( 苏ICP备20015413号 )|( 苏公网安备 32030502000272号) 繁體

    GMT+8, 2021-5-9 07:26