自购原抓音乐圈:只有自购、合购、原抓级高解析(hires、sacd、dsd)正版音乐资源分享!【点我打开
极速无线网卡:千兆无线网卡、服务器网卡、USB接口台式机笔记本网卡 硬盘代考无损音乐!【点我打开
广告

[流行音乐] Ariana Grande - Live in London 2018 [2018, Pop, 3 SAT HD, HDTV, 720p]

[复制链接]
韬199435 发表于 2021-4-13 15:31:15 | 显示全部楼层 |阅读模式 打印 上一主题 下一主题
Ariana Grande - Live in London 2018
Дата/Год выпуска: 6 сентября 2018
Жанр: Pop
Продолжительность: 00:43:27
Страна/Место проведения: england, BBC-Studio
Язык комментариев: английский
Автор записи: J SilverОписание:
Cпециальный телевизионный выпуск Би-би-си с участием Арианы Гранде. Ариана Гранде исполнила тринадцать песен во время часового спецвыпуска.
Программа была анонсирована 31 августа 2018 года, записана 6 сентября и вышла в эфир 1 ноября.Дополнительно:

В данную раздачу вошли все 13 песен концерта Ariana Grande, в отличие от СОСЕДНЕЙ раздачи.
Телеканал 3 SAT HD убрал лишние бла-бла интервью с ведущей Davina McCall. Песни исполняются практически в режиме "нон-стоп".
Качество: HDTV
Разрешение видео/развертка: 720p
Контейнер: TS
Видео кодек: H.264
Аудио кодек: AC-3 / MPEG2
Видео: AVC | H.264 |1280 x 720p | 12.9 mb/s | 50 fps
Аудио 1: AC-3 | 48000 hz | 448 kb/s | 2.0 | stereo
Аудио 2: MPEG2 | 48000 hz | 256 kb/s | 2.0 | stereo
Треклист
No Tears Left to Cry
Dangerous Woman
Pete Davidson
R.E.M
Goodnight 'n Go
Them Changes
Breathin
Better Off
Get Well Soon
God Is a Woman
Only 1
Love Me Harder
One Last Time

Скриншоты








Отчёт MediaInfo

Формат                                   : MPEG-TS
Размер файла                             : 4,35 Гбайт
Продолжительность                        : 43 м. 27 с.
Режим общего битрейта                    : Переменный
Общий поток                              : 14,3 Мбит/сек
Видео
Идентификатор                            : 6510 (0x196E)
Идентификатор меню                       : 11150 (0x2B8E)
Формат                                   : AVC
Формат/Информация                        : Advanced Video Codec
Профиль формата                          : High@L4
Настройки формата                        : CABAC / 6 Ref Frames
Параметр CABAC формата                   : Да
Параметр RefFrames формата               : 6 кадров
Идентификатор кодека                     : 27
Продолжительность                        : 43 м. 27 с.
Битрейт                                  : 12,9 Мбит/сек
Ширина                                   : 1280 пикселей
Высота                                   : 720 пикселей
Соотношение сторон                       : 16:9
Частота кадров                           : 50,000 кадров/сек
Цветовое пространство                    : YUV
Субдискретизация насыщенности            : 4:2:0
Битовая глубина                          : 8 бит
Тип развёртки                            : Прогрессивная
Бит/(Пиксели*Кадры)                      : 0.280
Размер потока                            : 3,92 Гбайт (90%)
Цветовой диапазон                        : Limited
Основные цвета                           : BT.709
Характеристики трансфера                 : BT.709
Коэффициенты матрицы                     : BT.709
Аудио #1
Идентификатор                            : 6520 (0x1978)
Идентификатор меню                       : 11150 (0x2B8E)
Формат                                   : AC-3
Формат/Информация                        : Audio Coding 3
Коммерческое название                    : Dolby Digital
Идентификатор кодека                     : 6
Продолжительность                        : 43 м. 27 с.
Вид битрейта                             : Постоянный
Битрейт                                  : 448 Кбит/сек
Каналы                                   : 2 канала
ChannelLayout                            : L R
Частота                                  : 48,0 КГц
Частота кадров                           : 31,250 кадров/сек (1536 SPF)
Метод сжатия                             : С потерями
Размер потока                            : 139 Мбайт (3%)
Язык                                     : German
ServiceKind/String                       : Complete Main
Аудио #2
Идентификатор                            : 6521 (0x1979)
Идентификатор меню                       : 11150 (0x2B8E)
Формат                                   : MPEG Audio
Версия формата                           : Version 1
Профиль формата                          : Layer 2
Идентификатор кодека                     : 3
Продолжительность                        : 43 м. 27 с.
Вид битрейта                             : Постоянный
Битрейт                                  : 256 Кбит/сек
Каналы                                   : 2 канала
Частота                                  : 48,0 КГц
Частота кадров                           : 41,667 кадра/сек (1152 SPF)
Метод сжатия                             : С потерями
Размер потока                            : 79,6 Мбайт (2%)
Язык                                     : German
Прочее
Идентификатор                            : 6524 (0x197C)-100
Идентификатор меню                       : 11150 (0x2B8E)
Формат                                   : Teletext
Язык                                     : German

                                                                                       
                       
                       
                       
                       
                       
                                磁力下载:
                                                               
                                       
游客,本主题需向作者支付 7音乐币 才能浏览,金币充值, 免回复、免金币,直接查看内容请开通VIP支付

                                               
  • 4.35 GB
  • 温馨提示

    记得善用社区搜索功能,那里可能会有你想要的资源;论坛站内搜索

    如果你有什么需要的资源可以去资源求档发帖,求助社区的网友,我们会在第一时间给你回复哦;资源求档

    对于本社区网盘链接失效密码错误各种报错请在反馈板块反馈报错发帖,您的支持,是我们发展的最大动力;投诉建议

    回复

    使用道具 举报

    您需要登录后才可以回帖 登录 | 立即注册 微信登录

    本版积分规则

    关注0

    粉丝0

    帖子30176

    发布主题
    阅读排行更多+
    关闭

    站长推荐上一条 /1 下一条

    收藏帖子 返回列表 这是一个自定义按钮
    音乐分享,音乐下载。
    微信公众号
    微信号:hires_
    意见反馈:admin@maomicd.com

    加入我们的官方QQ群和微信群

    Powered by Discuz! X3.4 Archiver|手机版|小黑屋|捌零音乐论坛 ( 苏ICP备20015413号 )|( 苏公网安备 32030502000272号) 繁體

    GMT+8, 2021-5-6 09:43