自购原抓音乐圈:只有自购、合购、原抓级高解析(hires、sacd、dsd)正版音乐资源分享!【点我打开
极速无线网卡:千兆无线网卡、服务器网卡、USB接口台式机笔记本网卡 硬盘代考无损音乐!【点我打开
广告

[流行音乐] Ariana Grande • iHeartRadio Music Festival [2016, Pop, HDTV, 1080i]

[复制链接]
韬199435 发表于 2021-4-13 15:31:15 | 显示全部楼层 |阅读模式 打印 上一主题 下一主题
Ariana Grande

feed
Жанр: Pop
Продолжительность: 00:24:33
Год выпуска: 2016
Качество: HDTV
Разрешение видео/развертка: 1080i
Контейнер: TS
Видео кодек: H.264
Аудио кодек: MP2
Видео: MPEG4 Video (H264) 1920x1080 29.97fps 33.3 Mb/s
Аудио: MPEG Audio 48000Hz stereo 384kbps
Треклист
Into You
Be Alright
Everyday
Break Free
Side to Side
Dangerous Woman

Отчёт MediaInfo / BDInfo

General
ID                             : 1 (0x1)
Complete name                  : F:\Ariana Grande - iHeartRadio Music Festival 2016.ts
Format                         : MPEG-TS
File size                      : 6.05 GiB
Duration                       : 24 min 33 s
Overall bit rate mode          : Variable
Overall bit rate               : 35.3 Mb/s
Video
ID                             : 513 (0x201)
Menu ID                        : 1 (0x1)
Format                         : AVC
Format/Info                    : Advanced Video Codec
Format profile                 : Main@L4.1
Format settings                : CABAC / 3 Ref Frames
Format settings, CABAC         : Yes
Format settings, Reference fra : 3 frames
Codec ID                       : 27
Duration                       : 24 min 33 s
Bit rate mode                  : Variable
Bit rate                       : 33.3 Mb/s
Width                          : 1 920 pixels
Height                         : 1 080 pixels
Display aspect ratio           : 16:9
Frame rate                     : 29.970 (30000/1001) FPS
Color space                    : YUV
Chroma subsampling             : 4:2:0
Bit depth                      : 8 bits
Scan type                      : MBAFF
Bits/(Pixel*Frame)             : 0.536
Stream size                    : 5.68 GiB (94%)
Color range                    : Limited
Color primaries                : BT.709
Transfer characteristics       : BT.709
Matrix coefficients            : BT.709
Audio
ID                             : 514 (0x202)
Menu ID                        : 1 (0x1)
Format                         : MPEG Audio
Format version                 : Version 1
Format profile                 : Layer 2
Codec ID                       : 3
Duration                       : 24 min 33 s
Bit rate mode                  : Constant
Bit rate                       : 384 kb/s
Channel(s)                     : 2 channels
Sampling rate                  : 48.0 kHz
Frame rate                     : 41.667 FPS (1152 SPF)
Compression mode               : Lossy
Stream size                    : 67.4 MiB (1%)
Language                       : English


Скриншоты












Мои раздачи ®
https://rutracker.org/forum/https://rutracker.net/forum/tracker.php?rid=9539252

5 дней на раздаче!


                                                                                       
                       
                       
                       
                       
                       
                                磁力下载:(论坛代下载服务)
                                                               
                                       
游客,本主题需向作者支付 7音乐币 才能浏览,金币充值, 免回复、免金币,直接查看内容请开通VIP支付

                                               
  • 6.05 GB
  • 温馨提示

    记得善用社区搜索功能,那里可能会有你想要的资源;论坛站内搜索

    如果你有什么需要的资源可以去资源求档发帖,求助社区的网友,我们会在第一时间给你回复哦;资源求档

    对于本社区网盘链接失效密码错误各种报错请在反馈板块反馈报错发帖,您的支持,是我们发展的最大动力;投诉建议

    回复

    使用道具 举报

    您需要登录后才可以回帖 登录 | 立即注册 微信登录

    本版积分规则

    关注0

    粉丝0

    帖子30176

    发布主题
    阅读排行更多+
    关闭

    站长推荐上一条 /1 下一条

    收藏帖子 返回列表 这是一个自定义按钮
    音乐分享,音乐下载。
    微信公众号
    微信号:hires_
    意见反馈:admin@maomicd.com

    加入我们的官方QQ群和微信群

    Powered by Discuz! X3.4 Archiver|手机版|小黑屋|捌零音乐论坛 ( 苏ICP备20015413号 )|( 苏公网安备 32030502000272号) 繁體

    GMT+8, 2021-5-9 07:26