自购原抓音乐圈:只有自购、合购、原抓级高解析(hires、sacd、dsd)正版音乐资源分享!【点我打开
极速无线网卡:千兆无线网卡、服务器网卡、USB接口台式机笔记本网卡 硬盘代考无损音乐!【点我打开
广告

[流行音乐] Lana Del Rey - West Coast [2014, Pop, HDTV 1080i]

[复制链接]
韬199435 发表于 2021-4-13 15:31:15 | 显示全部楼层 |阅读模式 打印 上一主题 下一主题
Lana Del Rey - West Coast
Жанр: pop
Продолжительность: 00:04:25
Год выпуска: 2014
Качество: HDTV 1080i
Контейнер: TS
Видео кодек: H.264
Аудио кодек: AC3
Видео: H.264; 1920x1080; 6 424 Kbps ; 25.000 fps
Аудио: AC-3; 384 Kbps; 48.0 KHz; 6 ch
Аудио 2: AC-3; 256 Kbps; 48.0 KHz; 2 ch

Отчёт MediaInfo

Complete name                            : Lana Del Rey - West Coast.ts
Format                                   : MPEG-TS
File size                                : 236 MiB
Duration                                 : 4mn 25s
Overall bit rate mode                    : Variable
Overall bit rate                         : 7 438 Kbps
Video
ID                                       : 170 (0xAA)
Menu ID                                  : 9310 (0x245E)
Format                                   : AVC
Format/Info                              : Advanced Video Codec
Format profile                           : High@L4.0
Format settings, CABAC                   : Yes
Format settings, ReFrames                : 4 frames
Format settings, GOP                     : M=8, N=24
Codec ID                                 : 27
Duration                                 : 4mn 25s
Bit rate                                 : 6 424 Kbps
Width                                    : 1 920 pixels
Height                                   : 1 080 pixels
Display aspect ratio                     : 16:9
Frame rate                               : 25.000 fps
Color space                              : YUV
Chroma subsampling                       : 4:2:0
Bit depth                                : 8 bits
Scan type                                : MBAFF
Bits/(Pixel*Frame)                       : 0.124
Stream size                              : 204 MiB (86%)
Encryption                               : Seca Mediaguard 1/2
Color primaries                          : BT.709
Transfer characteristics                 : BT.709
Matrix coefficients                      : BT.709
Audio #1
ID                                       : 122 (0x7A)
Menu ID                                  : 9310 (0x245E)
Format                                   : AC-3
Format/Info                              : Audio Coding 3
Mode extension                           : CM (complete main)
Format settings, Endianness              : Big
Codec ID                                 : 6
Duration                                 : 4mn 26s
Bit rate mode                            : Constant
Bit rate                                 : 384 Kbps
Channel(s)                               : 6 channels
Channel positions                        : Front: L C R, Side: L R, LFE
Sampling rate                            : 48.0 KHz
Bit depth                                : 16 bits
Compression mode                         : Lossy
Delay relative to video                  : 25ms
Stream size                              : 12.2 MiB (5%)
Language                                 : French
Encryption                               : Seca Mediaguard 1/2
Audio #2
ID                                       : 123 (0x7B)
Menu ID                                  : 9310 (0x245E)
Format                                   : AC-3
Format/Info                              : Audio Coding 3
Format profile                           : Dolby Digital
Mode extension                           : CM (complete main)
Format settings, Endianness              : Big
Codec ID                                 : 6
Duration                                 : 4mn 26s
Bit rate mode                            : Constant
Bit rate                                 : 256 Kbps
Channel(s)                               : 2 channels
Channel positions                        : Front: L R
Sampling rate                            : 48.0 KHz
Bit depth                                : 16 bits
Compression mode                         : Lossy
Delay relative to video                  : 5ms
Stream size                              : 8.12 MiB (3%)
Language                                 : English
Encryption                               : Seca Mediaguard 1/2
Text #1
ID                                       : 43 (0x2B)-858
Menu ID                                  : 9310 (0x245E)
Format                                   : Teletext Subtitle
Language                                 : English
Text #2
ID                                       : 43 (0x2B)-859
Menu ID                                  : 9310 (0x245E)
Format                                   : Teletext Subtitle
Language                                 : French
Menu
ID                                       : 1289 (0x509)
Menu ID                                  : 9310 (0x245E)
Duration                                 : 4mn 25s
List                                     : 170 (0xAA) (AVC) / 122 (0x7A) (AC-3, French) / 123 (0x7B) (AC-3, English) / 43 (0x2B) ()
Language                                 :  / French / English


Скриншоты






                                                                                       
                       
                       
                       
                       
                       
                                磁力下载:
                                                               
                                       
游客,本主题需向作者支付 7音乐币 才能浏览,金币充值, 免回复、免金币,直接查看内容请开通VIP支付

                                               
  • 235.8 MB
  • 温馨提示

    记得善用社区搜索功能,那里可能会有你想要的资源;论坛站内搜索

    如果你有什么需要的资源可以去资源求档发帖,求助社区的网友,我们会在第一时间给你回复哦;资源求档

    对于本社区网盘链接失效密码错误各种报错请在反馈板块反馈报错发帖,您的支持,是我们发展的最大动力;投诉建议

    回复

    使用道具 举报

    您需要登录后才可以回帖 登录 | 立即注册 微信登录

    本版积分规则

    关注0

    粉丝0

    帖子30176

    发布主题
    阅读排行更多+
    关闭

    站长推荐上一条 /1 下一条

    收藏帖子 返回列表 这是一个自定义按钮
    音乐分享,音乐下载。
    微信公众号
    微信号:hires_
    意见反馈:admin@maomicd.com

    加入我们的官方QQ群和微信群

    Powered by Discuz! X3.4 Archiver|手机版|小黑屋|捌零音乐论坛 ( 苏ICP备20015413号 )|( 苏公网安备 32030502000272号) 繁體

    GMT+8, 2021-5-7 01:00