自购原抓音乐圈:只有自购、合购、原抓级高解析(hires、sacd、dsd)正版音乐资源分享!【点我打开
极速无线网卡:千兆无线网卡、服务器网卡、USB接口台式机笔记本网卡 硬盘代考无损音乐!【点我打开
广告

[流行音乐] Adrian - Adriano Celentano / Адриано Челентано (28 ноября 2019) [2019, Pop, Canale 5 HD, HDTV, 1080i]

[复制链接]
如果有神 发表于 2021-4-13 15:31:15 | 显示全部楼层 |阅读模式 打印 上一主题 下一主题
Adrian - Adriano Celentano / Адриано Челентано. Эфир от 28 октября 2019г
Дата/Год выпуска: 28 ноября 2019
Жанр: Pop
Страна/Место проведения: Italy
Язык комментариев: Итальянский
Продолжительность: 01:10:45
Автор записи: J SilverОписание:
Adrian è una serie televisiva d'animazione del 2019, ideata e scritta da Adriano Celentano. Tra poco "Adrian", diretta su Canale 5.Дополнительно:
В раздачу включены только музыкальные выступления. Анимационный фильм в раздачу не включён.Качество: HDTV
Разрешение видео/развертка: 1080i
Контейнер: TS
Видео кодек: H.264
Аудио кодек: AC-3, MPEG 2
Видео: AVC | H.264 |1920 x 1080i | 8255 kb/s | 25 fps interlaced
Аудио 1: AC-3 | 48000 hz | 192 kb/s | 2.0
Аудио 2: MPEG 2 | 48000 hz | 128 kb/s | 2.0 | stereo
Треклист

01. Mondo In Mi7 (Live) - Adriano Celentano
02. Shake, Rattle And Roll (Live) - Adriano Celentano
03. «L’emozione non ha voce» (Live) - Adriano Celentano
04. Un Bimbo Sul Leone (Live) Morgan & Adriano Celentano
05. Conto Su Di Te (Live) - Morgan
06. Un Alberto Di Trenta Piani (Live) - Adriano Celentano
07. ??? Х.З. Надо уточнить название
08. Impazzio Per Te (Live) - Morgan

Скриншоты









Отчёт MediaInfo

Формат                                   : MPEG-TS
Размер файла                             : 4,46 Гбайт
Продолжительность                        : 1 ч. 10 м.
Режим общего битрейта                    : Переменный
Общий поток                              : 9025 Кбит/сек
Видео
Идентификатор                            : 1210 (0x4BA)
Идентификатор меню                       : 122 (0x7A)
Формат                                   : AVC
Формат/Информация                        : Advanced Video Codec
Профиль формата                          : High@L4
Настройки формата                        : CABAC / 4 Ref Frames
Параметр CABAC формата                   : Да
Параметр RefFrames формата               : 4 кадра
Идентификатор кодека                     : 27
Продолжительность                        : 1 ч. 10 м.
Битрейт                                  : 8255 Кбит/сек
Ширина                                   : 1920 пикселей
Высота                                   : 1080 пикселей
Соотношение сторон                       : 16:9
Частота кадров                           : 25,000 кадров/сек
Стандарт вещания                         : Component
Цветовое пространство                    : YUV
Субдискретизация насыщенности            : 4:2:0
Битовая глубина                          : 8 бит
Тип развёртки                            : Чересстрочная
Метод сохранения типа развёртки          : Раздельные поля
Порядок развёртки                        : Верхнее поле первое
Бит/(Пиксели*Кадры)                      : 0.159
Размер потока                            : 4,08 Гбайт (91%)
Цветовой диапазон                        : Limited
Основные цвета                           : BT.709
Характеристики трансфера                 : BT.709
Коэффициенты матрицы                     : BT.709
Аудио #1
Идентификатор                            : 1211 (0x4BB)
Идентификатор меню                       : 122 (0x7A)
Формат                                   : AC-3
Формат/Информация                        : Audio Coding 3
Коммерческое название                    : Dolby Digital
Идентификатор кодека                     : 6
Продолжительность                        : 1 ч. 10 м.
Вид битрейта                             : Постоянный
Битрейт                                  : 192 Кбит/сек
Каналы                                   : 2 канала
ChannelLayout                            : L R
Частота                                  : 48,0 КГц
Частота кадров                           : 31,250 кадров/сек (1536 SPF)
Метод сжатия                             : С потерями
Задержка видео                           : -120 мс.
Размер потока                            : 97,2 Мбайт (2%)
Язык                                     : Italian
ServiceKind/String                       : Complete Main
Аудио #2
Идентификатор                            : 1212 (0x4BC)
Идентификатор меню                       : 122 (0x7A)
Формат                                   : MPEG Audio
Версия формата                           : Version 1
Профиль формата                          : Layer 2
Идентификатор кодека                     : 3
Продолжительность                        : 1 ч. 10 м.
Вид битрейта                             : Постоянный
Битрейт                                  : 128 Кбит/сек
Каналы                                   : 2 канала
Частота                                  : 48,0 КГц
Частота кадров                           : 41,667 кадра/сек (1152 SPF)
Метод сжатия                             : С потерями
Задержка видео                           : -120 мс.
Размер потока                            : 64,8 Мбайт (1%)
Язык                                     : English
Текст
Идентификатор                            : 1213 (0x4BD)-777
Идентификатор меню                       : 122 (0x7A)
Формат                                   : Teletext Subtitle
Язык                                     : Italian
Прочее
Идентификатор                            : 1213 (0x4BD)-100
Идентификатор меню                       : 122 (0x7A)
Формат                                   : Teletext
Язык                                     : Italian

                                                                                       
                       
                       
                       
                       
                       
                                磁力下载:
                                                               
                                       
游客,本主题需向作者支付 7音乐币 才能浏览,金币充值, 免回复、免金币,直接查看内容请开通VIP支付

                                               
  • 4.46 GB
  • 温馨提示

    记得善用社区搜索功能,那里可能会有你想要的资源;论坛站内搜索

    如果你有什么需要的资源可以去资源求档发帖,求助社区的网友,我们会在第一时间给你回复哦;资源求档

    对于本社区网盘链接失效密码错误各种报错请在反馈板块反馈报错发帖,您的支持,是我们发展的最大动力;投诉建议

    回复

    使用道具 举报

    您需要登录后才可以回帖 登录 | 立即注册 微信登录

    本版积分规则

    发布主题
    阅读排行更多+
    关闭

    站长推荐上一条 /1 下一条

    收藏帖子 返回列表 这是一个自定义按钮
    音乐分享,音乐下载。
    微信公众号
    微信号:hires_
    意见反馈:admin@maomicd.com

    加入我们的官方QQ群和微信群

    Powered by Discuz! X3.4 Archiver|手机版|小黑屋|捌零音乐论坛 ( 苏ICP备20015413号 )|( 苏公网安备 32030502000272号) 繁體

    GMT+8, 2021-5-7 00:21