自购原抓音乐圈:只有自购、合购、原抓级高解析(hires、sacd、dsd)正版音乐资源分享!【点我打开
极速无线网卡:千兆无线网卡、服务器网卡、USB接口台式机笔记本网卡 硬盘代考无损音乐!【点我打开
广告

[流行音乐] Culture Club - Live at Wembley: World Tour 2016 [2017, Pop, New Wave, BDRip, 1080p]

[复制链接]
全球采集 发表于 2021-4-13 15:31:15 | 显示全部楼层 |阅读模式 打印 上一主题 下一主题
Culture Club - Live at Wembley: World Tour 2016
Жанр: Pop, New Wave
Продолжительность: 01:27:22
Год выпуска: 2017
Треклист:
1 Introduction
2 Church Of The Poison Mind
3 It's A Miracle
4 I'll Tumble 4 Ya
5 Move Away
6 Everything I Own
7 Black Money
8 Time (Clock Of The Heart)
9 Like I Used To
10 Different Man
11 Miss Me Blind
12 Do You Really Want To Hurt Me
13 Victims
14 The War Song
15 Karma Chameleon
16 Bang A Gong (Get It On)
17 Credits
Качество: BDRip
Разрешение видео/развертка: 1080p
Контейнер: MKV
Видео кодек: H.264
Аудио кодек: PCM
Видео: AVC, 1920x960 (2.000), 23.976 fps, 9 130 Kbps
Аудио#1: DTS, 48.0 KHz, 6 ch, 1 510 Kbps
Аудио#2: FLAC, 48.0 KHz, 2 ch, 1 744 kbps
MediaInfo / x264Log

x264Log

[Information] [17.02.2018 2:20:36] Standard error stream
-[Information] [17.02.2018 2:21:04] raw [info]: 1920x960p 1:1 @ 24000/1001 fps (cfr)
-[Information] [17.02.2018 2:21:04] x264 [info]: using SAR=1/1
-[Information] [17.02.2018 2:21:04] x264 [info]: using cpu capabilities: MMX2 SSE2Fast SSSE3 SSE4.2 AVX
-[Information] [17.02.2018 2:21:04] x264 [info]: profile High, level 4.1
-[Information] [17.02.2018 18:19:31] x264 [info]: frame I:852   Avg QP:18.14  size:171178
-[Information] [17.02.2018 18:19:31] x264 [info]: frame P:38552 Avg QP:21.60  size: 69918
-[Information] [17.02.2018 18:19:31] x264 [info]: frame B:86286 Avg QP:22.93  size: 36401
-[Information] [17.02.2018 18:19:31] x264 [info]: consecutive B-frames:  5.6%  7.3% 23.5% 41.4%  8.5% 11.5%  2.0%  0.3%
-[Information] [17.02.2018 18:19:31] x264 [info]: mb I  I16..4: 22.0% 56.0% 22.1%
-[Information] [17.02.2018 18:19:31] x264 [info]: mb P  I16..4:  6.1% 14.8%  2.7%  P16..4: 30.1% 29.1%  6.7%  1.2%  0.1%    skip: 9.2%
-[Information] [17.02.2018 18:19:31] x264 [info]: mb B  I16..4:  0.8%  2.6%  0.2%  B16..8: 43.3% 13.3%  1.7%  direct: 9.8%  skip:28.4%  L0:45.5% L1:46.8% BI: 7.7%
-[Information] [17.02.2018 18:19:31] x264 [info]: 8x8 transform intra:64.1% inter:63.7%
-[Information] [17.02.2018 18:19:31] x264 [info]: direct mvs  spatial:95.8% temporal:4.2%
-[Information] [17.02.2018 18:19:31] x264 [info]: coded y,uvDC,uvAC intra: 65.3% 70.2% 38.2% inter: 30.0% 41.6% 4.1%
-[Information] [17.02.2018 18:19:31] x264 [info]: i16 v,h,dc,p: 30% 20% 13% 38%
-[Information] [17.02.2018 18:19:31] x264 [info]: i8 v,h,dc,ddl,ddr,vr,hd,vl,hu:  7%  6% 14% 11% 14% 13% 13% 11% 12%
-[Information] [17.02.2018 18:19:31] x264 [info]: i4 v,h,dc,ddl,ddr,vr,hd,vl,hu: 13%  9% 19%  7% 11% 10% 11%  9% 12%
-[Information] [17.02.2018 18:19:31] x264 [info]: i8c dc,h,v,p: 30% 32% 21% 18%
-[Information] [17.02.2018 18:19:31] x264 [info]: Weighted P-Frames: Y:18.7% UV:16.2%
-[Information] [17.02.2018 18:19:31] x264 [info]: ref P L0: 60.3%  9.4% 18.7%  9.6%  1.7%  0.2%
-[Information] [17.02.2018 18:19:31] x264 [info]: ref B L0: 86.5% 11.2%  2.3%
-[Information] [17.02.2018 18:19:31] x264 [info]: ref B L1: 95.8%  4.2%
-[Information] [17.02.2018 18:19:31] x264 [info]: kb/s:9129.08
-[Information] [17.02.2018 18:19:31] encoded 125690 frames, 2.19 fps, 9129.08 kb/s


General
Unique ID                   : 245542828739004468881152849626031664708 (0xB8B9D42264ACE26E82325496174F2E44)
Complete name               : G:\Culture Club - Live At Wembley.2016.BDRip1080p.mkv
Format                      : Matroska
Format version              : Version 2
File size                   : 7.56 GiB
Duration                    : 1 h 27 min
Overall bit rate mode       : Variable
Overall bit rate            : 12.4 Mb/s
Movie name                  : Culture Club - Live At Wembley.2016.BDRip1080p @ rutracker.org
Encoded date                : UTC 2018-02-17 22:51:25
Writing application         : mkvmerge v9.8.0 ('Kuglblids') 64bit
Writing library             : libebml v1.3.4 + libmatroska v1.4.5
Video
ID                          : 1
Format                      : AVC
Format/Info                 : Advanced Video Codec
Format profile              : High@L4.1
Format settings             : CABAC / 4 Ref Frames
Format settings, CABAC      : Yes
Format settings, ReFrames   : 4 frames
Codec ID                    : V_MPEG4/ISO/AVC
Duration                    : 1 h 27 min
Bit rate                    : 9 130 kb/s
Width                       : 1 920 pixels
Height                      : 960 pixels
Display aspect ratio        : 2.000
Frame rate mode             : Constant
Frame rate                  : 23.976 (24000/1001) FPS
Color space                 : YUV
Chroma subsampling          : 4:2:0
Bit depth                   : 8 bits
Scan type                   : Progressive
Bits/(Pixel*Frame)          : 0.207
Stream size                 : 5.57 GiB (74%)
Title                       : anbelk27 @ rutracker.org
Writing library             : x264 core 152 r2851 ba24899
Encoding settings           : cabac=1 / ref=4 / deblock=1:-1:-1 / analyse=0x3:0x133 / me=umh / subme=11 / psy=1 / psy_rd=1.15:0.10 / mixed_ref=1 / me_range=32 / chroma_me=1 / trellis=2 / 8x8dct=1 / cqm=0 / deadzone=21,11 / fast_pskip=1 / chroma_qp_offset=-3 / threads=6 / lookahead_threads=1 / sliced_threads=0 / nr=0 / decimate=1 / interlaced=0 / bluray_compat=0 / constrained_intra=0 / bframes=7 / b_pyramid=2 / b_adapt=2 / b_bias=0 / direct=3 / weightb=1 / open_gop=0 / weightp=2 / keyint=240 / keyint_min=23 / scenecut=50 / intra_refresh=0 / rc_lookahead=80 / rc=2pass / mbtree=1 / bitrate=9130 / ratetol=1.0 / qcomp=0.60 / qpmin=0 / qpmax=69 / qpstep=4 / cplxblur=20.0 / qblur=0.5 / vbv_maxrate=50000 / vbv_bufsize=62500 / nal_hrd=none / filler=0 / ip_ratio=1.40 / aq=1:1.00
Default                     : Yes
Forced                      : No
Audio #1
ID                          : 2
Format                      : DTS
Format/Info                 : Digital Theater Systems
Codec ID                    : A_DTS
Duration                    : 1 h 27 min
Bit rate mode               : Constant
Bit rate                    : 1 509 kb/s
Channel(s)                  : 6 channels
Channel positions           : Front: L C R, Side: L R, LFE
Sampling rate               : 48.0 kHz
Frame rate                  : 93.750 FPS (512 SPF)
Bit depth                   : 24 bits
Compression mode            : Lossy
Stream size                 : 943 MiB (12%)
Title                       : DTS 5.1 @ 24 bit
Default                     : Yes
Forced                      : No
Audio #2
ID                          : 3
Format                      : FLAC
Format/Info                 : Free Lossless Audio Codec
Codec ID                    : A_FLAC
Duration                    : 1 h 27 min
Bit rate mode               : Variable
Bit rate                    : 1 744 kb/s
Channel(s)                  : 2 channels
Channel positions           : Front: L R
Sampling rate               : 48.0 kHz
Frame rate                  : 11.719 FPS (4096 SPF)
Bit depth                   : 24 bits
Stream size                 : 1.06 GiB (14%)
Title                       : FLAC 2.0 @ 24 bit
Writing library             : libFLAC 1.2.1 (UTC 2007-09-17)
Default                     : No
Forced                      : No
Menu
00:00:00.000                : en: Intro
00:02:19.681                : en:01. Church Of The Poison Mind
00:07:20.941                : en:02.  It’s A Miracle
00:11:14.174                : en:03.  I’ll Tumble For Ya
00:15:00.316                : en:04.  Move Away
00:18:59.555                : en:05.  Everything I Own
00:24:10.532                : en:06.  Black Money
00:31:53.495                : en:07.  Time (Clock Of The Heart)
00:37:04.806                : en:08.  Like I Used To
00:42:12.196                : en:09.  Different Man
00:47:17.168                : en:10.  Miss Me Blind
00:52:53.754                : en:11.  Do You Really Want To Hurt Me
00:58:47.107                : en:12.  Victims
01:04:50.804                : en:13.  The War Song
01:10:18.423                : en:14.  Karma Chameleon
01:15:10.423                : en:15.  Bang A Gong
01:25:02.014                : en:Credits

Скриншоты











                                                                                       
                       
                       
                       
                       
                       
                                磁力下载:
                                                               
                                       
游客,本主题需向作者支付 7音乐币 才能浏览,金币充值, 免回复、免金币,直接查看内容请开通VIP支付

                                               
  • 7.56 GB
  • 温馨提示

    记得善用社区搜索功能,那里可能会有你想要的资源;论坛站内搜索

    如果你有什么需要的资源可以去资源求档发帖,求助社区的网友,我们会在第一时间给你回复哦;资源求档

    对于本社区网盘链接失效密码错误各种报错请在反馈板块反馈报错发帖,您的支持,是我们发展的最大动力;投诉建议

    回复

    使用道具 举报

    您需要登录后才可以回帖 登录 | 立即注册 微信登录

    本版积分规则

    关注0

    粉丝14

    帖子86506

    发布主题
    阅读排行更多+
    关闭

    站长推荐上一条 /1 下一条

    收藏帖子 返回列表 这是一个自定义按钮
    音乐分享,音乐下载。
    微信公众号
    微信号:hires_
    意见反馈:admin@maomicd.com

    加入我们的官方QQ群和微信群

    Powered by Discuz! X3.4 Archiver|手机版|小黑屋|捌零音乐论坛 ( 苏ICP备20015413号 )|( 苏公网安备 32030502000272号) 繁體

    GMT+8, 2021-5-6 08:56