自购原抓音乐圈:只有自购、合购、原抓级高解析(hires、sacd、dsd)正版音乐资源分享!【点我打开
极速无线网卡:千兆无线网卡、服务器网卡、USB接口台式机笔记本网卡 硬盘代考无损音乐!【点我打开
广告

[流行音乐] Mika ★ Sinfonia Pop [2016, Simfo Pop, Blu-ray, 1080i]

[复制链接]
如果有神 发表于 2021-4-13 15:31:15 | 显示全部楼层 |阅读模式 打印 上一主题 下一主题
Mika
Sinfonia Pop
Жанр: Simfo Pop
Продолжительность: 01:33:50+00:10:16+00:04:31
Год выпуска: 2016
Filmed in the elegant surroundings of the 19th century Teatro Sociale in Como, Italy, this amazing show features MIKA performing all his best-loved songs accompanied by a full orchestra conducted by Simon Leclerc. The show is a perfect fusion of pop and orchestral and includes tracks from his most recent album, the critically acclaimed 'No Place In Heaven', alongside hits from across his hugely successful career. As ever, MIKA is a charming and amiable host and is clearly in his element interacting with the orchestra and conductor Simon Leclerc. This is a magical performance captured in beautiful surroundings and not to be missed.

Треклист
01. Overture
02. Underwater
03. Boum Boum Boum
04. Rain
05. Last Party
06. Overrated
07. Any Other World
08. Love You When I’m Drunk
09. Ordinary Man
10. Heroes
11. Toy Boy
12. Grace Kelly
13. Over My Shoulder
14. Good Guys
15. Make You Happy
16. Happy Ending
17. Origin Of Love
18. Relax, Take It Easy
19. Elle Me Dit
Interviews with Mika and Simon Leclerc
Качество: Blu-ray
Разрешение видео/развертка: 1080i
Контейнер: BDMV
Видео кодек: H.264
Аудио кодек: PCM, DTS-HD
Видео: MPEG-4 AVC Video / 27982 kbps / 1080i / 29,970 fps / 16:9 / High Profile 4.1
Аудио 1: English / LPCM Audio / 2.0 / 48 kHz / 2304 kbps / 24-bit
Аудио 2: English / DTS-HD Master Audio / 5.1 / 48 kHz / 3867 kbps / 24-bit
Отчёт MediaInfo / BDInfo

Disc Title:     Mika - Sinfonia Pop 2016 Blu-ray
Disc Size:      29 099 269 872 bytes
Protection:     AACS
BD-Java:        No
BDInfo:         0.5.8
Notes:
BDINFO HOME:
  Cinema Squid
    http://www.cinemasquid.com/blu-ray/tools/bdinfo
INCLUDES FORUMS REPORT FOR:
  AVS Forum Blu-ray Audio and Video Specifications Thread
    http://www.avsforum.com/avs-vb/showthread.php?t=1155731
********************
PLAYLIST: 00000.MPLS
********************

Код:

                                                                                Total   Video
Title                                                           Codec   Length  Movie Size      Disc Size       Bitrate Bitrate Main Audio Track                          Secondary Audio Track
-----                                                           ------  ------- --------------  --------------  ------- ------- ------------------                        ---------------------
00000.MPLS                                                      AVC     1:33:50 25 282 320 384  29 099 269 872  35,92   27,98   LPCM 2.0 2304Kbps (48kHz/24-bit)          DTS-HD Master 5.1 3867Kbps (48kHz/24-bit)

Код:
DISC INFO:
Disc Title:     Mika - Sinfonia Pop 2016 Blu-ray
Disc Size:      29 099 269 872 bytes
Protection:     AACS
BD-Java:        No
BDInfo:         0.5.8
PLAYLIST REPORT:
Name:                   00000.MPLS
Length:                 1:33:50.024 (h:m:s.ms)
Size:                   25 282 320 384 bytes
Total Bitrate:          35,92 Mbps
VIDEO:
Codec                   Bitrate             Description
-----                   -------             -----------
MPEG-4 AVC Video        27982 kbps          1080i / 29,970 fps / 16:9 / High Profile 4.1
AUDIO:
Codec                           Language        Bitrate         Description
-----                           --------        -------         -----------
LPCM Audio                      English         2304 kbps       2.0 / 48 kHz / 2304 kbps / 24-bit
DTS-HD Master Audio             English         3867 kbps       5.1 / 48 kHz / 3867 kbps / 24-bit (DTS Core: 5.1 / 48 kHz / 768 kbps / 24-bit)
SUBTITLES:
Codec                           Language        Bitrate         Description
-----                           --------        -------         -----------
Presentation Graphics           English         1,273 kbps
Presentation Graphics           German          1,441 kbps
Presentation Graphics           French          1,284 kbps
Presentation Graphics           Italian         1,256 kbps
FILES:
Name            Time In         Length          Size            Total Bitrate
----            -------         ------          ----            -------------
00000.M2TS      0:00:00.000     1:33:50.024     25 282 320 384  35 925
CHAPTERS:
Number          Time In         Length          Avg Video Rate  Max 1-Sec Rate  Max 1-Sec Time  Max 5-Sec Rate  Max 5-Sec Time  Max 10Sec Rate  Max 10Sec Time  Avg Frame Size  Max Frame Size  Max Frame Time
------          -------         ------          --------------  --------------  --------------  --------------  --------------  --------------  --------------  --------------  --------------  --------------
1               0:00:00.000     0:04:04.243     27 583 kbps     51 707 kbps     00:00:17.283    37 772 kbps     00:03:33.379    34 827 kbps     00:02:19.372    115 029 bytes   506 755 bytes   00:03:49.262
2               0:04:04.243     0:03:48.027     28 647 kbps     54 690 kbps     00:04:11.251    36 596 kbps     00:05:47.847    34 885 kbps     00:05:07.740    119 483 bytes   512 170 bytes   00:05:58.624
3               0:07:52.271     0:03:43.122     28 039 kbps     49 599 kbps     00:09:55.995    36 327 kbps     00:10:24.991    34 678 kbps     00:09:23.629    116 945 bytes   435 318 bytes   00:09:56.028
4               0:11:35.394     0:04:18.091     29 138 kbps     53 514 kbps     00:13:00.780    37 533 kbps     00:15:01.300    34 744 kbps     00:14:13.452    121 532 bytes   643 635 bytes   00:15:13.245
5               0:15:53.485     0:04:10.783     25 496 kbps     53 442 kbps     00:16:38.797    37 568 kbps     00:17:00.686    33 816 kbps     00:16:57.349    106 340 bytes   460 010 bytes   00:16:44.203
6               0:20:04.269     0:06:10.036     28 133 kbps     56 289 kbps     00:23:06.918    37 693 kbps     00:23:03.682    34 887 kbps     00:24:49.588    117 338 bytes   596 606 bytes   00:23:16.061
7               0:26:14.306     0:04:36.175     28 162 kbps     57 346 kbps     00:27:23.008    37 597 kbps     00:27:22.774    34 820 kbps     00:30:39.571    117 460 bytes   567 647 bytes   00:27:25.543
8               0:30:50.481     0:03:28.141     30 826 kbps     56 988 kbps     00:33:49.594    37 720 kbps     00:33:49.594    34 798 kbps     00:31:20.211    128 570 bytes   651 454 bytes   00:32:17.702
9               0:34:18.623     0:04:42.949     26 493 kbps     46 139 kbps     00:36:55.446    37 575 kbps     00:35:45.409    34 782 kbps     00:37:35.886    110 496 bytes   521 810 bytes   00:37:50.968
10              0:39:01.572     0:04:46.386     26 880 kbps     50 173 kbps     00:43:35.346    37 212 kbps     00:43:34.445    33 748 kbps     00:43:01.178    112 112 bytes   456 639 bytes   00:39:36.607
11              0:43:47.958     0:04:12.785     29 314 kbps     47 270 kbps     00:47:37.321    37 746 kbps     00:46:13.003    34 741 kbps     00:47:36.019    122 263 bytes   587 032 bytes   00:45:17.481
12              0:48:00.744     0:03:14.961     30 809 kbps     51 609 kbps     00:51:04.528    37 709 kbps     00:49:26.530    34 803 kbps     00:49:26.530    128 500 bytes   723 778 bytes   00:48:02.479
13              0:51:15.705     0:05:01.634     25 545 kbps     52 661 kbps     00:52:07.624    37 429 kbps     00:52:55.172    34 706 kbps     00:52:55.005    106 544 bytes   548 249 bytes   00:53:02.812
14              0:56:17.340     0:04:11.351     27 359 kbps     49 347 kbps     00:58:51.327    37 363 kbps     00:58:14.390    33 833 kbps     00:58:49.926    114 111 bytes   490 147 bytes   01:00:24.087
15              1:00:28.691     0:05:16.449     28 181 kbps     49 698 kbps     01:02:22.638    37 584 kbps     01:02:22.572    34 868 kbps     01:04:22.024    117 538 bytes   632 160 bytes   01:01:30.953
16              1:05:45.141     0:05:54.454     26 891 kbps     57 623 kbps     01:10:29.058    37 567 kbps     01:08:51.360    34 743 kbps     01:11:19.174    112 157 bytes   570 625 bytes   01:09:02.505
17              1:11:39.595     0:05:02.435     29 113 kbps     49 255 kbps     01:12:31.313    37 713 kbps     01:15:35.898    34 818 kbps     01:15:35.898    121 427 bytes   614 695 bytes   01:15:00.796
18              1:16:42.030     0:02:59.445     28 426 kbps     53 357 kbps     01:19:26.328    37 707 kbps     01:19:25.894    34 742 kbps     01:18:40.315    118 558 bytes   509 816 bytes   01:19:27.329
19              1:19:41.476     0:03:56.669     30 064 kbps     55 669 kbps     01:22:42.724    37 729 kbps     01:22:42.590    34 787 kbps     01:22:42.590    125 391 bytes   571 649 bytes   01:20:29.524
20              1:23:38.146     0:04:15.088     29 157 kbps     47 331 kbps     01:25:11.072    37 586 kbps     01:26:52.540    34 821 kbps     01:26:52.407    121 609 bytes   576 527 bytes   01:27:44.726
21              1:27:53.234     0:05:56.789     26 338 kbps     55 307 kbps     01:31:12.200    37 528 kbps     01:29:46.614    34 854 kbps     01:30:07.735    109 863 bytes   640 642 bytes   01:31:23.744
STREAM DIAGNOSTICS:
File            PID             Type            Codec           Language                Seconds                 Bitrate                 Bytes           Packets
----            ---             ----            -----           --------                --------------          --------------          -------------   -----
00000.M2TS      4113 (0x1011)   0x1B            AVC                                     5629,924                27 983                  19 692 765 256  107 124 511
00000.M2TS      4352 (0x1100)   0x80            LPCM            eng (English)           5629,924                2 310                   1 625 952 664   9 008 048
00000.M2TS      4353 (0x1101)   0x86            DTS-HD MA       eng (English)           5629,924                3 867                   2 721 624 312   15 336 317
00000.M2TS      4608 (0x1200)   0x90            PGS             eng (English)           5629,924                1                       895 755         5 148
00000.M2TS      4609 (0x1201)   0x90            PGS             deu (German)            5629,924                1                       1 014 009       5 791
00000.M2TS      4610 (0x1202)   0x90            PGS             fra (French)            5629,924                1                       903 849         5 207
00000.M2TS      4611 (0x1203)   0x90            PGS             ita (Italian)           5629,924                1                       884 220         5 109


QUICK SUMMARY:
Disc Title: Mika - Sinfonia Pop 2016 Blu-ray
Disc Size: 29 099 269 872 bytes
Protection: AACS
BD-Java: No
Playlist: 00000.MPLS
Size: 25 282 320 384 bytes
Length: 1:33:50.024
Total Bitrate: 35,92 Mbps
Video: MPEG-4 AVC Video / 27982 kbps / 1080i / 29,970 fps / 16:9 / High Profile 4.1
Audio: English / LPCM Audio / 2.0 / 48 kHz / 2304 kbps / 24-bit
Audio: English / DTS-HD Master Audio / 5.1 / 48 kHz / 3867 kbps / 24-bit (DTS Core: 5.1 / 48 kHz / 768 kbps / 24-bit)
Subtitle: English / 1,273 kbps
Subtitle: German / 1,441 kbps
Subtitle: French / 1,284 kbps
Subtitle: Italian / 1,256 kbps
********************
PLAYLIST: 00004.MPLS
********************

Код:

                                                                                Total   Video
Title                                                           Codec   Length  Movie Size      Disc Size       Bitrate Bitrate Main Audio Track                          Secondary Audio Track
-----                                                           ------  ------- --------------  --------------  ------- ------- ------------------                        ---------------------
00004.MPLS                                                      AVC     0:10:16 2 468 874 240   29 099 269 872  32,05   28,00   LPCM 2.0 2304Kbps (48kHz/24-bit)

Код:
DISC INFO:
Disc Title:     Mika - Sinfonia Pop 2016 Blu-ray
Disc Size:      29 099 269 872 bytes
Protection:     AACS
BD-Java:        No
BDInfo:         0.5.8
PLAYLIST REPORT:
Name:                   00004.MPLS
Length:                 0:10:16.182 (h:m:s.ms)
Size:                   2 468 874 240 bytes
Total Bitrate:          32,05 Mbps
VIDEO:
Codec                   Bitrate             Description
-----                   -------             -----------
MPEG-4 AVC Video        28000 kbps          1080i / 29,970 fps / 16:9 / High Profile 4.1
AUDIO:
Codec                           Language        Bitrate         Description
-----                           --------        -------         -----------
LPCM Audio                      English         2304 kbps       2.0 / 48 kHz / 2304 kbps / 24-bit
SUBTITLES:
Codec                           Language        Bitrate         Description
-----                           --------        -------         -----------
Presentation Graphics           English         70,925 kbps
Presentation Graphics           German          75,757 kbps
Presentation Graphics           French          64,175 kbps
Presentation Graphics           Italian         63,393 kbps
FILES:
Name            Time In         Length          Size            Total Bitrate
----            -------         ------          ----            -------------
00001.M2TS      0:00:00.000     0:10:16.182     2 468 874 240   32 054
CHAPTERS:
Number          Time In         Length          Avg Video Rate  Max 1-Sec Rate  Max 1-Sec Time  Max 5-Sec Rate  Max 5-Sec Time  Max 10Sec Rate  Max 10Sec Time  Avg Frame Size  Max Frame Size  Max Frame Time
------          -------         ------          --------------  --------------  --------------  --------------  --------------  --------------  --------------  --------------  --------------  --------------
1               0:00:00.000     0:10:16.182     28 000 kbps     43 879 kbps     00:10:01.968    37 319 kbps     00:00:12.145    34 750 kbps     00:00:12.145    116 785 bytes   592 414 bytes   00:00:52.452
STREAM DIAGNOSTICS:
File            PID             Type            Codec           Language                Seconds                 Bitrate                 Bytes           Packets
----            ---             ----            -----           --------                --------------          --------------          -------------   -----
00001.M2TS      4113 (0x1011)   0x1B            AVC                                     616,049                 28 006                  2 156 663 554   11 731 832
00001.M2TS      4352 (0x1100)   0x80            LPCM            eng (English)           616,049                 2 311                   177 954 228     985 896
00001.M2TS      4608 (0x1200)   0x90            PGS             eng (English)           616,049                 71                      5 462 813       31 118
00001.M2TS      4609 (0x1201)   0x90            PGS             deu (German)            616,049                 76                      5 835 050       33 127
00001.M2TS      4610 (0x1202)   0x90            PGS             fra (French)            616,049                 64                      4 942 932       28 232
00001.M2TS      4611 (0x1203)   0x90            PGS             ita (Italian)           616,049                 63                      4 882 699       27 869


QUICK SUMMARY:
Disc Title: Mika - Sinfonia Pop 2016 Blu-ray
Disc Size: 29 099 269 872 bytes
Protection: AACS
BD-Java: No
Playlist: 00004.MPLS
Size: 2 468 874 240 bytes
Length: 0:10:16.182
Total Bitrate: 32,05 Mbps
Video: MPEG-4 AVC Video / 28000 kbps / 1080i / 29,970 fps / 16:9 / High Profile 4.1
Audio: English / LPCM Audio / 2.0 / 48 kHz / 2304 kbps / 24-bit
Subtitle: English / 70,925 kbps
Subtitle: German / 75,757 kbps
Subtitle: French / 64,175 kbps
Subtitle: Italian / 63,393 kbps
********************
PLAYLIST: 00005.MPLS
********************

Код:

                                                                                Total   Video
Title                                                           Codec   Length  Movie Size      Disc Size       Bitrate Bitrate Main Audio Track                          Secondary Audio Track
-----                                                           ------  ------- --------------  --------------  ------- ------- ------------------                        ---------------------
00005.MPLS                                                      AVC     0:04:31 1 083 672 576   29 099 269 872  31,97   27,98   LPCM 2.0 2304Kbps (48kHz/24-bit)

Код:
DISC INFO:
Disc Title:     Mika - Sinfonia Pop 2016 Blu-ray
Disc Size:      29 099 269 872 bytes
Protection:     AACS
BD-Java:        No
BDInfo:         0.5.8
PLAYLIST REPORT:
Name:                   00005.MPLS
Length:                 0:04:31.204 (h:m:s.ms)
Size:                   1 083 672 576 bytes
Total Bitrate:          31,97 Mbps
VIDEO:
Codec                   Bitrate             Description
-----                   -------             -----------
MPEG-4 AVC Video        27977 kbps          1080i / 29,970 fps / 16:9 / High Profile 4.1
AUDIO:
Codec                           Language        Bitrate         Description
-----                           --------        -------         -----------
LPCM Audio                      English         2304 kbps       2.0 / 48 kHz / 2304 kbps / 24-bit
SUBTITLES:
Codec                           Language        Bitrate         Description
-----                           --------        -------         -----------
Presentation Graphics           English         53,449 kbps
Presentation Graphics           German          57,787 kbps
Presentation Graphics           French          54,712 kbps
Presentation Graphics           Italian         51,226 kbps
FILES:
Name            Time In         Length          Size            Total Bitrate
----            -------         ------          ----            -------------
00007.M2TS      0:00:00.000     0:04:31.204     1 083 672 576   31 966
CHAPTERS:
Number          Time In         Length          Avg Video Rate  Max 1-Sec Rate  Max 1-Sec Time  Max 5-Sec Rate  Max 5-Sec Time  Max 10Sec Rate  Max 10Sec Time  Avg Frame Size  Max Frame Size  Max Frame Time
------          -------         ------          --------------  --------------  --------------  --------------  --------------  --------------  --------------  --------------  --------------  --------------
1               0:00:00.000     0:04:31.204     27 977 kbps     49 492 kbps     00:04:17.123    37 366 kbps     00:04:16.923    34 756 kbps     00:04:16.923    116 686 bytes   563 242 bytes   00:00:34.167
STREAM DIAGNOSTICS:
File            PID             Type            Codec           Language                Seconds                 Bitrate                 Bytes           Packets
----            ---             ----            -----           --------                --------------          --------------          -------------   -----
00007.M2TS      4113 (0x1011)   0x1B            AVC                                     271,104                 27 987                  948 422 921     5 159 226
00007.M2TS      4352 (0x1100)   0x80            LPCM            eng (English)           271,104                 2 311                   78 324 004      433 928
00007.M2TS      4608 (0x1200)   0x90            PGS             eng (English)           271,104                 53                      1 811 963       10 337
00007.M2TS      4609 (0x1201)   0x90            PGS             deu (German)            271,104                 58                      1 959 025       11 110
00007.M2TS      4610 (0x1202)   0x90            PGS             fra (French)            271,104                 55                      1 854 761       10 549
00007.M2TS      4611 (0x1203)   0x90            PGS             ita (Italian)           271,104                 51                      1 736 587       9 859


QUICK SUMMARY:
Disc Title: Mika - Sinfonia Pop 2016 Blu-ray
Disc Size: 29 099 269 872 bytes
Protection: AACS
BD-Java: No
Playlist: 00005.MPLS
Size: 1 083 672 576 bytes
Length: 0:04:31.204
Total Bitrate: 31,97 Mbps
Video: MPEG-4 AVC Video / 27977 kbps / 1080i / 29,970 fps / 16:9 / High Profile 4.1
Audio: English / LPCM Audio / 2.0 / 48 kHz / 2304 kbps / 24-bit
Subtitle: English / 53,449 kbps
Subtitle: German / 57,787 kbps
Subtitle: French / 54,712 kbps
Subtitle: Italian / 51,226 kbps
********************
PLAYLIST: 00001.MPLS
********************

Код:

                                                                                Total   Video
Title                                                           Codec   Length  Movie Size      Disc Size       Bitrate Bitrate Main Audio Track                          Secondary Audio Track
-----                                                           ------  ------- --------------  --------------  ------- ------- ------------------                        ---------------------
00001.MPLS                                                      AVC     0:00:20 62 115 840      29 099 269 872  24,78   22,13   DTS-HD Master 5.1 1408Kbps (48kHz/16-bit)

Код:
DISC INFO:
Disc Title:     Mika - Sinfonia Pop 2016 Blu-ray
Disc Size:      29 099 269 872 bytes
Protection:     AACS
BD-Java:        No
BDInfo:         0.5.8
PLAYLIST REPORT:
Name:                   00001.MPLS
Length:                 0:00:20.053 (h:m:s.ms)
Size:                   62 115 840 bytes
Total Bitrate:          24,78 Mbps
VIDEO:
Codec                   Bitrate             Description
-----                   -------             -----------
MPEG-4 AVC Video        22126 kbps          1080i / 29,970 fps / 16:9 / High Profile 4.1
AUDIO:
Codec                           Language        Bitrate         Description
-----                           --------        -------         -----------
DTS-HD Master Audio             English         1408 kbps       5.1 / 48 kHz / 1408 kbps / 16-bit (DTS Core: 5.1 / 48 kHz / 768 kbps / 16-bit)
FILES:
Name            Time In         Length          Size            Total Bitrate
----            -------         ------          ----            -------------
00002.M2TS      0:00:00.000     0:00:20.053     62 115 840      24 780
CHAPTERS:
Number          Time In         Length          Avg Video Rate  Max 1-Sec Rate  Max 1-Sec Time  Max 5-Sec Rate  Max 5-Sec Time  Max 10Sec Rate  Max 10Sec Time  Avg Frame Size  Max Frame Size  Max Frame Time
------          -------         ------          --------------  --------------  --------------  --------------  --------------  --------------  --------------  --------------  --------------  --------------
1               0:00:00.000     0:00:20.053     22 126 kbps     52 645 kbps     00:00:06.005    39 888 kbps     00:00:04.671    37 346 kbps     00:00:04.904    92 283 bytes    592 215 bytes   00:00:08.308
STREAM DIAGNOSTICS:
File            PID             Type            Codec           Language                Seconds                 Bitrate                 Bytes           Packets
----            ---             ----            -----           --------                --------------          --------------          -------------   -----
00002.M2TS      4113 (0x1011)   0x1B            AVC                                     19,953                  22 237                  55 462 199      301 754
00002.M2TS      4352 (0x1100)   0x86            DTS-HD MA       eng (English)           19,953                  1 415                   3 529 376       21 076


QUICK SUMMARY:
Disc Title: Mika - Sinfonia Pop 2016 Blu-ray
Disc Size: 29 099 269 872 bytes
Protection: AACS
BD-Java: No
Playlist: 00001.MPLS
Size: 62 115 840 bytes
Length: 0:00:20.053
Total Bitrate: 24,78 Mbps
Video: MPEG-4 AVC Video / 22126 kbps / 1080i / 29,970 fps / 16:9 / High Profile 4.1
Audio: English / DTS-HD Master Audio / 5.1 / 48 kHz / 1408 kbps / 16-bit (DTS Core: 5.1 / 48 kHz / 768 kbps / 16-bit)
********************
PLAYLIST: 00002.MPLS
********************

Код:

                                                                                Total   Video
Title                                                           Codec   Length  Movie Size      Disc Size       Bitrate Bitrate Main Audio Track                          Secondary Audio Track
-----                                                           ------  ------- --------------  --------------  ------- ------- ------------------                        ---------------------
00002.MPLS                                                      MPEG-2  0:00:20 23 316 480      29 099 269 872  9,32    8,85

Код:
DISC INFO:
Disc Title:     Mika - Sinfonia Pop 2016 Blu-ray
Disc Size:      29 099 269 872 bytes
Protection:     AACS
BD-Java:        No
BDInfo:         0.5.8
PLAYLIST REPORT:
Name:                   00002.MPLS
Length:                 0:00:20.019 (h:m:s.ms)
Size:                   23 316 480 bytes
Total Bitrate:          9,32 Mbps
VIDEO:
Codec                   Bitrate             Description
-----                   -------             -----------
MPEG-2 Video            8851 kbps           1080i / 29,970 fps / 16:9
FILES:
Name            Time In         Length          Size            Total Bitrate
----            -------         ------          ----            -------------
00003.M2TS      0:00:00.000     0:00:10.009     12 152 832      9 713
00004.M2TS      0:00:10.009     0:00:10.009     11 163 648      8 922
CHAPTERS:
Number          Time In         Length          Avg Video Rate  Max 1-Sec Rate  Max 1-Sec Time  Max 5-Sec Rate  Max 5-Sec Time  Max 10Sec Rate  Max 10Sec Time  Avg Frame Size  Max Frame Size  Max Frame Time
------          -------         ------          --------------  --------------  --------------  --------------  --------------  --------------  --------------  --------------  --------------  --------------
1               0:00:00.000     0:00:20.019     8 851 kbps      10 631 kbps     00:00:09.008    9 747 kbps      00:00:05.004    9 227 kbps      00:00:00.000    36 918 bytes    342 493 bytes   00:00:01.034
STREAM DIAGNOSTICS:
File            PID             Type            Codec           Language                Seconds                 Bitrate                 Bytes           Packets
----            ---             ----            -----           --------                --------------          --------------          -------------   -----
00003.M2TS      4113 (0x1011)   0x02            MPEG-2                                  9,910                   9 323                   11 548 869      62 943
00004.M2TS      4113 (0x1011)   0x02            MPEG-2                                  9,910                   8 559                   10 601 862      57 787


QUICK SUMMARY:
Disc Title: Mika - Sinfonia Pop 2016 Blu-ray
Disc Size: 29 099 269 872 bytes
Protection: AACS
BD-Java: No
Playlist: 00002.MPLS
Size: 23 316 480 bytes
Length: 0:00:20.019
Total Bitrate: 9,32 Mbps
Video: MPEG-2 Video / 8851 kbps / 1080i / 29,970 fps / 16:9


Скриншоты




















Мои раздачи ®
https://rutracker.org/forum/https://rutracker.net/forum/tracker.php?rid=9539252


                                                                                       
                       
                       
                       
                       
                       
                                磁力下载:(论坛代下载服务)
                                                               
                                       
游客,本主题需向作者支付 7音乐币 才能浏览,金币充值, 免回复、免金币,直接查看内容请开通VIP支付

                                               
  • 27.1 GB
  • 温馨提示

    记得善用社区搜索功能,那里可能会有你想要的资源;论坛站内搜索

    如果你有什么需要的资源可以去资源求档发帖,求助社区的网友,我们会在第一时间给你回复哦;资源求档

    对于本社区网盘链接失效密码错误各种报错请在反馈板块反馈报错发帖,您的支持,是我们发展的最大动力;投诉建议

    回复

    使用道具 举报

    您需要登录后才可以回帖 登录 | 立即注册 微信登录

    本版积分规则

    发布主题
    阅读排行更多+
    关闭

    站长推荐上一条 /1 下一条

    收藏帖子 返回列表 这是一个自定义按钮
    音乐分享,音乐下载。
    微信公众号
    微信号:hires_
    意见反馈:admin@maomicd.com

    加入我们的官方QQ群和微信群

    Powered by Discuz! X3.4 Archiver|手机版|小黑屋|捌零音乐论坛 ( 苏ICP备20015413号 )|( 苏公网安备 32030502000272号) 繁體

    GMT+8, 2021-5-10 06:46