自购原抓音乐圈:只有自购、合购、原抓级高解析(hires、sacd、dsd)正版音乐资源分享!【点我打开
极速无线网卡:千兆无线网卡、服务器网卡、USB接口台式机笔记本网卡 硬盘代考无损音乐!【点我打开
广告

[流行音乐] TWICE (트와이스) - Видеография [2015-2020, K-Pop, Kpop, WEB-DL, HDTV, 1080p]

[复制链接]
全球采集 发表于 2021-4-13 15:31:15 | 显示全部楼层 |阅读模式 打印 上一主题 下一主题
TWICE (트와이스) - Видеография
Жанр: K-pop
Продолжительность: 02:19:15
Количество видео: 35
Год выпуска: 2015-2020
Описание: Видеография TWICE (кор. 트와이스) — южнокорейской гёрл-группы, образованной компанией JYP Entertainment и дебютировавшей 20 октября 2015 года.
Credits: 4sashi, ZARD, jpfiles.
Качество: Web-DL, HDTV
Разрешение видео/развертка: 1080p
Контейнер: MP4, MPEG-TS
Видео кодек: AVC, MPEG-2
Аудио кодек: AAC
ОБНОВЛЕНИЕ 15.10.2020:
добавлены:
-- MORE & MORE,
-- 「Fanfare」;
заменены на более лучшие рипы:
-- 「SIGNAL -Japanese ver.-」,
-- 「TT -Japanese ver.-」,
-- 「BRAND NEW GIRL」,
-- 「Be as ONE」.
Под номерами идут в хрон. порядке музыкальные видео TWICE, которые выходили на youtube-каналах 'jypentertainment' и 'TWICE JAPAN OFFICIAL YouTube Channel' (исключение: 「Be as ONE」).
В папке other находятся несколько музыкальных видео, которые не выходили на этих двух youtube-каналах.

Скриншоты и данные

01. Like OOH-AHH.mp4 | 2015.10.20
Продолжительность: 04:31
Видео: MPEG4 Video (H264) 1920x1080 23.976fps 21009kbps
Аудио: AAC 48000Hz stereo 317kbps
MediaInfo

General
Complete name                  : T:\MVs\01. Like OOH-AHH.mp4
Format                         : MPEG-4
Format profile                 : Base Media / Version 2
Codec ID                       : mp42 (mp42/mp41)
File size                      : 692 MiB
Duration                       : 4 min 31 s
Overall bit rate mode          : Variable
Overall bit rate               : 21.4 Mb/s
Encoded date                   : UTC 2015-10-19 12:22:51
Tagged date                    : UTC 2015-10-19 12:23:01
©TIM                           : 00:00:00:00
©TSC                           : 24000
©TSZ                           : 1001
Video
ID                             : 1
Format                         : AVC
Format/Info                    : Advanced Video Codec
Format profile                 : Main@L4.1
Format settings                : CABAC / 3 Ref Frames
Format settings, CABAC         : Yes
Format settings, RefFrames     : 3 frames
Codec ID                       : avc1
Codec ID/Info                  : Advanced Video Coding
Duration                       : 4 min 31 s
Bit rate                       : 21.0 Mb/s
Width                          : 1 920 pixels
Height                         : 1 080 pixels
Display aspect ratio           : 16:9
Frame rate mode                : Variable
Frame rate                     : 23.976 (24000/1001) FPS
Minimum frame rate             : 23.976 FPS
Maximum frame rate             : 24.000 FPS
Standard                       : NTSC
Color space                    : YUV
Chroma subsampling             : 4:2:0
Bit depth                      : 8 bits
Scan type                      : Progressive
Bits/(Pixel*Frame)             : 0.423
Stream size                    : 680 MiB (98%)
Language                       : English
Encoded date                   : UTC 2015-10-19 12:22:51
Tagged date                    : UTC 2015-10-19 12:22:51
Color range                    : Limited
Color primaries                : BT.709
Transfer characteristics       : BT.709
Matrix coefficients            : BT.709
Audio
ID                             : 2
Format                         : AAC
Format/Info                    : Advanced Audio Codec
Format profile                 : LC
Codec ID                       : mp4a-40-2
Duration                       : 4 min 31 s
Source duration                : 4 min 31 s
Bit rate mode                  : Variable
Bit rate                       : 317 kb/s
Maximum bit rate               : 408 kb/s
Channel(s)                     : 2 channels
Channel positions              : Front: L R
Sampling rate                  : 48.0 kHz
Frame rate                     : 46.875 FPS (1024 SPF)
Compression mode               : Lossy
Stream size                    : 10.3 MiB (1%)
Source stream size             : 10.3 MiB (1%)
Language                       : English
Encoded date                   : UTC 2015-10-19 12:22:51
Tagged date                    : UTC 2015-10-19 12:22:51


Скриншоты





Скринлист




02. CHEER UP.mp4 | 2016.04.25
Продолжительность: 04:00
Видео: MPEG4 Video (H264) 1920x1080 23.976fps 20959kbps
Аудио: AAC 48000Hz stereo 317kbps
MediaInfo

General
Complete name                  : T:\MVs\02. CHEER UP.mp4
Format                         : MPEG-4
Format profile                 : Base Media / Version 2
Codec ID                       : mp42 (mp42/mp41)
File size                      : 613 MiB
Duration                       : 4 min 0 s
Overall bit rate mode          : Variable
Overall bit rate               : 21.4 Mb/s
Encoded date                   : UTC 2016-04-23 00:49:27
Tagged date                    : UTC 2016-04-23 00:49:34
©TIM                           : 00:00:00:00
©TSC                           : 24000
©TSZ                           : 1001
Video
ID                             : 1
Format                         : AVC
Format/Info                    : Advanced Video Codec
Format profile                 : Main@L4.1
Format settings                : CABAC / 3 Ref Frames
Format settings, CABAC         : Yes
Format settings, RefFrames     : 3 frames
Codec ID                       : avc1
Codec ID/Info                  : Advanced Video Coding
Duration                       : 4 min 0 s
Bit rate                       : 21.0 Mb/s
Width                          : 1 920 pixels
Height                         : 1 080 pixels
Display aspect ratio           : 16:9
Frame rate mode                : Constant
Frame rate                     : 23.976 (24000/1001) FPS
Standard                       : NTSC
Color space                    : YUV
Chroma subsampling             : 4:2:0
Bit depth                      : 8 bits
Scan type                      : Progressive
Bits/(Pixel*Frame)             : 0.422
Stream size                    : 602 MiB (98%)
Language                       : English
Encoded date                   : UTC 2016-04-23 00:49:27
Tagged date                    : UTC 2016-04-23 00:49:27
Color range                    : Limited
Color primaries                : BT.709
Transfer characteristics       : BT.709
Matrix coefficients            : BT.709
Audio
ID                             : 2
Format                         : AAC
Format/Info                    : Advanced Audio Codec
Format profile                 : LC
Codec ID                       : mp4a-40-2
Duration                       : 4 min 0 s
Source duration                : 4 min 0 s
Bit rate mode                  : Variable
Bit rate                       : 317 kb/s
Maximum bit rate               : 424 kb/s
Channel(s)                     : 2 channels
Channel positions              : Front: L R
Sampling rate                  : 48.0 kHz
Frame rate                     : 46.875 FPS (1024 SPF)
Compression mode               : Lossy
Stream size                    : 9.11 MiB (1%)
Source stream size             : 9.11 MiB (1%)
Language                       : English
Encoded date                   : UTC 2016-04-23 00:49:27
Tagged date                    : UTC 2016-04-23 00:49:27


Скриншоты





Скринлист




03. TT.mp4 | 2016.10.24
Продолжительность: 04:13
Видео: MPEG4 Video (H264) 1920x1080 23.976fps 26500kbps
Аудио: AAC 48000Hz stereo 317kbps
MediaInfo

General
Complete name                  : T:\MVs\03. TT.mp4
Format                         : MPEG-4
Format profile                 : Base Media / Version 2
Codec ID                       : mp42 (mp42/mp41)
File size                      : 811 MiB
Duration                       : 4 min 13 s
Overall bit rate mode          : Variable
Overall bit rate               : 26.8 Mb/s
Encoded date                   : UTC 2016-10-22 07:16:22
Tagged date                    : UTC 2016-10-22 07:16:32
©TIM                           : 00:00:00:00
©TSC                           : 24000
©TSZ                           : 1001
Video
ID                             : 1
Format                         : AVC
Format/Info                    : Advanced Video Codec
Format profile                 : Main@L4.1
Format settings                : CABAC / 3 Ref Frames
Format settings, CABAC         : Yes
Format settings, RefFrames     : 3 frames
Codec ID                       : avc1
Codec ID/Info                  : Advanced Video Coding
Duration                       : 4 min 13 s
Bit rate                       : 26.5 Mb/s
Width                          : 1 920 pixels
Height                         : 1 080 pixels
Display aspect ratio           : 16:9
Frame rate mode                : Constant
Frame rate                     : 23.976 (24000/1001) FPS
Standard                       : NTSC
Color space                    : YUV
Chroma subsampling             : 4:2:0
Bit depth                      : 8 bits
Scan type                      : Progressive
Bits/(Pixel*Frame)             : 0.533
Stream size                    : 801 MiB (99%)
Language                       : English
Encoded date                   : UTC 2016-10-22 07:16:22
Tagged date                    : UTC 2016-10-22 07:16:22
Color range                    : Limited
Color primaries                : BT.709
Transfer characteristics       : BT.709
Matrix coefficients            : BT.709
Audio
ID                             : 2
Format                         : AAC
Format/Info                    : Advanced Audio Codec
Format profile                 : LC
Codec ID                       : mp4a-40-2
Duration                       : 4 min 13 s
Source duration                : 4 min 13 s
Bit rate mode                  : Variable
Bit rate                       : 317 kb/s
Maximum bit rate               : 414 kb/s
Channel(s)                     : 2 channels
Channel positions              : Front: L R
Sampling rate                  : 48.0 kHz
Frame rate                     : 46.875 FPS (1024 SPF)
Compression mode               : Lossy
Stream size                    : 9.59 MiB (1%)
Source stream size             : 9.60 MiB (1%)
Language                       : English
Encoded date                   : UTC 2016-10-22 07:16:22
Tagged date                    : UTC 2016-10-22 07:16:22


Скриншоты





Скринлист




04. KNOCK KNOCK.mp4 | 2017.02.20
Продолжительность: 04:00
Видео: MPEG4 Video (H264) 1920x1080 23.976fps 16658kbps
Аудио: AAC 48000Hz stereo 317kbps
MediaInfo

General
Complete name                  : T:\MVs\04. KNOCK KNOCK.mp4
Format                         : MPEG-4
Format profile                 : Base Media / Version 2
Codec ID                       : mp42 (mp42/mp41)
File size                      : 486 MiB
Duration                       : 4 min 0 s
Overall bit rate mode          : Variable
Overall bit rate               : 17.0 Mb/s
Encoded date                   : UTC 2017-02-17 11:56:36
Tagged date                    : UTC 2017-02-17 11:56:39
©TIM                           : 00:00:00:00
©TSC                           : 24000
©TSZ                           : 1001
Video
ID                             : 1
Format                         : AVC
Format/Info                    : Advanced Video Codec
Format profile                 : Main@L4.1
Format settings                : CABAC / 3 Ref Frames
Format settings, CABAC         : Yes
Format settings, RefFrames     : 3 frames
Codec ID                       : avc1
Codec ID/Info                  : Advanced Video Coding
Duration                       : 4 min 0 s
Bit rate                       : 16.7 Mb/s
Width                          : 1 920 pixels
Height                         : 1 080 pixels
Display aspect ratio           : 16:9
Frame rate mode                : Constant
Frame rate                     : 23.976 (24000/1001) FPS
Standard                       : NTSC
Color space                    : YUV
Chroma subsampling             : 4:2:0
Bit depth                      : 8 bits
Scan type                      : Progressive
Bits/(Pixel*Frame)             : 0.335
Stream size                    : 477 MiB (98%)
Language                       : English
Encoded date                   : UTC 2017-02-17 11:56:36
Tagged date                    : UTC 2017-02-17 11:56:36
Color range                    : Limited
Color primaries                : BT.709
Transfer characteristics       : BT.709
Matrix coefficients            : BT.709
Audio
ID                             : 2
Format                         : AAC
Format/Info                    : Advanced Audio Codec
Format profile                 : LC
Codec ID                       : mp4a-40-2
Duration                       : 4 min 0 s
Source duration                : 4 min 0 s
Bit rate mode                  : Variable
Bit rate                       : 317 kb/s
Maximum bit rate               : 409 kb/s
Channel(s)                     : 2 channels
Channel positions              : Front: L R
Sampling rate                  : 48.0 kHz
Frame rate                     : 46.875 FPS (1024 SPF)
Compression mode               : Lossy
Stream size                    : 9.08 MiB (2%)
Source stream size             : 9.08 MiB (2%)
Language                       : English
Encoded date                   : UTC 2017-02-17 11:56:36
Tagged date                    : UTC 2017-02-17 11:56:36


Скриншоты





Скринлист




05. SIGNAL.mp4 | 2017.05.15
Продолжительность: 04:18
Видео: MPEG4 Video (H264) 1920x1080 23.976fps 20990kbps
Аудио: AAC 48000Hz stereo 317kbps
MediaInfo

General
Complete name                  : T:\MVs\05. SIGNAL.mp4
Format                         : MPEG-4
Format profile                 : Base Media / Version 2
Codec ID                       : mp42 (mp42/mp41)
File size                      : 656 MiB
Duration                       : 4 min 18 s
Overall bit rate mode          : Variable
Overall bit rate               : 21.3 Mb/s
Encoded date                   : UTC 2017-05-15 03:01:54
Tagged date                    : UTC 2017-05-15 03:01:58
©TIM                           : 00:00:00:00
©TSC                           : 24000
©TSZ                           : 1001
Video
ID                             : 1
Format                         : AVC
Format/Info                    : Advanced Video Codec
Format profile                 : Main@L4.1
Format settings                : CABAC / 3 Ref Frames
Format settings, CABAC         : Yes
Format settings, RefFrames     : 3 frames
Codec ID                       : avc1
Codec ID/Info                  : Advanced Video Coding
Duration                       : 4 min 18 s
Bit rate                       : 21.0 Mb/s
Width                          : 1 920 pixels
Height                         : 1 080 pixels
Display aspect ratio           : 16:9
Frame rate mode                : Constant
Frame rate                     : 23.976 (24000/1001) FPS
Standard                       : NTSC
Color space                    : YUV
Chroma subsampling             : 4:2:0
Bit depth                      : 8 bits
Scan type                      : Progressive
Bits/(Pixel*Frame)             : 0.422
Stream size                    : 646 MiB (98%)
Language                       : English
Encoded date                   : UTC 2017-05-15 03:01:54
Tagged date                    : UTC 2017-05-15 03:01:54
Color range                    : Limited
Color primaries                : BT.709
Transfer characteristics       : BT.709
Matrix coefficients            : BT.709
Audio
ID                             : 2
Format                         : AAC
Format/Info                    : Advanced Audio Codec
Format profile                 : LC
Codec ID                       : mp4a-40-2
Duration                       : 4 min 18 s
Source duration                : 4 min 18 s
Bit rate mode                  : Variable
Bit rate                       : 317 kb/s
Maximum bit rate               : 417 kb/s
Channel(s)                     : 2 channels
Channel positions              : Front: L R
Sampling rate                  : 48.0 kHz
Frame rate                     : 46.875 FPS (1024 SPF)
Compression mode               : Lossy
Stream size                    : 9.77 MiB (1%)
Source stream size             : 9.77 MiB (1%)
Language                       : English
Encoded date                   : UTC 2017-05-15 03:01:54
Tagged date                    : UTC 2017-05-15 03:01:54


Скриншоты





Скринлист




06. 「SIGNAL -Japanese ver.-」.ts | 2017.06.14
Продолжительность: 04:19
Видео: MPEG2 Video 1920x1080 29.97fps 20Mbps
Аудио: AAC 48000Hz stereo 192kbps
MediaInfo

General
ID                             : 1 (0x1)
Complete name                  : T:\MVs\06. 「SIGNAL -Japanese ver.-」.ts
Format                         : MPEG-TS
File size                      : 626 MiB
Duration                       : 4 min 19 s
Overall bit rate mode          : Variable
Overall bit rate               : 20.2 Mb/s
Video
ID                             : 256 (0x100)
Menu ID                        : 1 (0x1)
Format                         : MPEG Video
Format version                 : Version 2
Format profile                 : Main@High
Format settings                : CustomMatrix / BVOP
Format settings, BVOP          : Yes
Format settings, Matrix        : Custom
Format settings, GOP           : M=3, N=15
Format settings, picture struc : Frame
Codec ID                       : 2
Duration                       : 4 min 19 s
Bit rate mode                  : Variable
Maximum bit rate               : 24.0 Mb/s
Width                          : 1 920 pixels
Height                         : 1 080 pixels
Display aspect ratio           : 16:9
Frame rate                     : 29.970 (30000/1001) FPS
Color space                    : YUV
Chroma subsampling             : 4:2:0
Bit depth                      : 8 bits
Scan type                      : Interlaced
Scan order                     : Top Field First
Compression mode               : Lossy
Time code of first frame       : 12:08:29:10
Time code source               : Group of pictures header
GOP, Open/Closed               : Open
Color primaries                : BT.709
Transfer characteristics       : BT.709
Matrix coefficients            : BT.709
Audio
ID                             : 257 (0x101)
Menu ID                        : 1 (0x1)
Format                         : AAC LC
Format/Info                    : Advanced Audio Codec Low Complexity
Format version                 : Version 2
Muxing mode                    : ADTS
Codec ID                       : 15-2
Duration                       : 4 min 19 s
Bit rate mode                  : Variable
Channel(s)                     : 2 channels
Channel layout                 : L R
Sampling rate                  : 48.0 kHz
Frame rate                     : 46.875 FPS (1024 SPF)
Compression mode               : Lossy
Delay relative to video        : -367 ms
Menu
ID                             : 4096 (0x1000)
Menu ID                        : 1 (0x1)
Duration                       : 4 min 19 s
List                           : 256 (0x100) (MPEG Video) / 257 (0x101) (AAC)
Service name                   : Service01
Service provider               : FFmpeg
Service type                   : digital television


Скриншоты





Скринлист




07. 「TT -Japanese ver.-」.ts | 2017.06.21
Продолжительность: 04:13
Видео: MPEG2 Video 1920x1080 29.97fps 20Mbps
Аудио: AAC 48000Hz stereo 192kbps
MediaInfo

General
ID                             : 1 (0x1)
Complete name                  : T:\MVs\07. 「TT -Japanese ver.-」.ts
Format                         : MPEG-TS
File size                      : 601 MiB
Duration                       : 4 min 12 s
Overall bit rate mode          : Variable
Overall bit rate               : 20.0 Mb/s
Video
ID                             : 256 (0x100)
Menu ID                        : 1 (0x1)
Format                         : MPEG Video
Format version                 : Version 2
Format profile                 : Main@High
Format settings                : CustomMatrix / BVOP
Format settings, BVOP          : Yes
Format settings, Matrix        : Custom
Format settings, GOP           : Variable
Codec ID                       : 2
Duration                       : 4 min 12 s
Bit rate mode                  : Variable
Maximum bit rate               : 24.0 Mb/s
Width                          : 1 920 pixels
Height                         : 1 080 pixels
Display aspect ratio           : 16:9
Frame rate                     : 29.970 (30000/1001) FPS
Color space                    : YUV
Chroma subsampling             : 4:2:0
Bit depth                      : 8 bits
Compression mode               : Lossy
Time code of first frame       : 12:04:17:21
Time code source               : Group of pictures header
GOP, Open/Closed               : Open
Color primaries                : BT.709
Transfer characteristics       : BT.709
Matrix coefficients            : BT.709
Audio
ID                             : 257 (0x101)
Menu ID                        : 1 (0x1)
Format                         : AAC LC
Format/Info                    : Advanced Audio Codec Low Complexity
Format version                 : Version 2
Muxing mode                    : ADTS
Codec ID                       : 15-2
Duration                       : 4 min 12 s
Bit rate mode                  : Variable
Channel(s)                     : 2 channels
Channel layout                 : L R
Sampling rate                  : 48.0 kHz
Frame rate                     : 46.875 FPS (1024 SPF)
Compression mode               : Lossy
Delay relative to video        : -471 ms
Menu
ID                             : 4096 (0x1000)
Menu ID                        : 1 (0x1)
Duration                       : 4 min 12 s
List                           : 256 (0x100) (MPEG Video) / 257 (0x101) (AAC)
Service name                   : Service01
Service provider               : FFmpeg
Service type                   : digital television


Скриншоты





Скринлист




08. 「One More Time」.mp4 | 2017.10.06
Продолжительность: 03:01
Видео: MPEG4 Video (H264) 1920x1080 23.976fps 8158kbps
Аудио: AAC 48000Hz stereo 160kbps
MediaInfo

General
Complete name                  : T:\MVs\08. 「One More Time」.mp4
Format                         : MPEG-4
Format profile                 : Base Media / Version 2
Codec ID                       : mp42 (isom/iso2/avc1/mp41)
File size                      : 180 MiB
Duration                       : 3 min 1 s
Overall bit rate mode          : Variable
Overall bit rate               : 8 325 kb/s
Encoded date                   : UTC 2018-02-01 06:21:58
Tagged date                    : UTC 2018-02-01 06:21:58
Writing application            : HandBrake 1.0.7 2017040900
Video
ID                             : 1
Format                         : AVC
Format/Info                    : Advanced Video Codec
Format profile                 : Main@L4
Format settings                : CABAC / 4 Ref Frames
Format settings, CABAC         : Yes
Format settings, ReFrames      : 4 frames
Codec ID                       : avc1
Codec ID/Info                  : Advanced Video Coding
Duration                       : 3 min 1 s
Bit rate                       : 8 159 kb/s
Width                          : 1 920 pixels
Height                         : 1 080 pixels
Display aspect ratio           : 16:9
Frame rate mode                : Variable
Frame rate                     : 23.976 (24000/1001) FPS
Minimum frame rate             : 23.974 FPS
Maximum frame rate             : 23.981 FPS
Color space                    : YUV
Chroma subsampling             : 4:2:0
Bit depth                      : 8 bits
Scan type                      : Progressive
Bits/(Pixel*Frame)             : 0.164
Stream size                    : 176 MiB (98%)
Writing library                : x264 core 148 r2708 86b7198
Encoding settings              : cabac=1 / ref=2 / deblock=1:0:0 / analyse=0x1:0x111 / me=hex / subme=6 / psy=1 / psy_rd=1.00:0.00 / mixed_ref=1 / me_range=16 / chroma_me=1 / trellis=1 / 8x8dct=0 / cqm=0 / deadzone=21,11 / fast_pskip=1 / chroma_qp_offset=-2 / threads=34 / lookahead_threads=5 / sliced_threads=0 / nr=0 / decimate=1 / interlaced=0 / bluray_compat=0 / constrained_intra=0 / bframes=3 / b_pyramid=2 / b_adapt=1 / b_bias=0 / direct=1 / weightb=1 / open_gop=0 / weightp=1 / keyint=240 / keyint_min=24 / scenecut=40 / intra_refresh=0 / rc_lookahead=30 / rc=crf / mbtree=1 / crf=22.0 / qcomp=0.60 / qpmin=0 / qpmax=69 / qpstep=4 / vbv_maxrate=20000 / vbv_bufsize=25000 / crf_max=0.0 / nal_hrd=none / filler=0 / ip_ratio=1.40 / aq=1:1.00
Encoded date                   : UTC 2018-02-01 06:21:58
Tagged date                    : UTC 2018-02-01 06:21:58
Color range                    : Limited
Color primaries                : BT.601 NTSC
Transfer characteristics       : BT.709
Matrix coefficients            : BT.601
Audio
ID                             : 2
Format                         : AAC
Format/Info                    : Advanced Audio Codec
Format profile                 : LC
Codec ID                       : mp4a-40-2
Duration                       : 3 min 1 s
Bit rate mode                  : Variable
Bit rate                       : 160 kb/s
Channel(s)                     : 2 channels
Channel positions              : Front: L R
Sampling rate                  : 48.0 kHz
Frame rate                     : 46.875 FPS (1024 SPF)
Compression mode               : Lossy
Stream size                    : 3.47 MiB (2%)
Title                          : Stereo / Stereo
Language                       : English
Default                        : Yes
Alternate group                : 1
Encoded date                   : UTC 2018-02-01 06:21:58
Tagged date                    : UTC 2018-02-01 06:21:58


Скриншоты





Скринлист




09. LIKEY.mp4 | 2017.10.30
Продолжительность: 03:41
Видео: MPEG4 Video (H264) 1920x1080 23.976fps 20610kbps
Аудио: AAC 48000Hz stereo 317kbps
MediaInfo

General
Complete name                  : T:\MVs\09. LIKEY.mp4
Format                         : MPEG-4
Format profile                 : Base Media / Version 2
Codec ID                       : mp42 (mp42/mp41)
File size                      : 553 MiB
Duration                       : 3 min 41 s
Overall bit rate mode          : Variable
Overall bit rate               : 20.9 Mb/s
Encoded date                   : UTC 2017-10-29 12:43:32
Tagged date                    : UTC 2017-10-29 12:43:36
©TIM                           : 00:00:00:00
©TSC                           : 24000
©TSZ                           : 1001
Video
ID                             : 1
Format                         : AVC
Format/Info                    : Advanced Video Codec
Format profile                 : Main@L4.1
Format settings                : CABAC / 3 Ref Frames
Format settings, CABAC         : Yes
Format settings, RefFrames     : 3 frames
Codec ID                       : avc1
Codec ID/Info                  : Advanced Video Coding
Duration                       : 3 min 41 s
Bit rate                       : 20.6 Mb/s
Width                          : 1 920 pixels
Height                         : 1 080 pixels
Display aspect ratio           : 16:9
Frame rate mode                : Constant
Frame rate                     : 23.976 (24000/1001) FPS
Standard                       : NTSC
Color space                    : YUV
Chroma subsampling             : 4:2:0
Bit depth                      : 8 bits
Scan type                      : Progressive
Bits/(Pixel*Frame)             : 0.415
Stream size                    : 544 MiB (98%)
Language                       : English
Encoded date                   : UTC 2017-10-29 12:43:32
Tagged date                    : UTC 2017-10-29 12:43:32
Color range                    : Limited
Color primaries                : BT.709
Transfer characteristics       : BT.709
Matrix coefficients            : BT.709
Audio
ID                             : 2
Format                         : AAC
Format/Info                    : Advanced Audio Codec
Format profile                 : LC
Codec ID                       : mp4a-40-2
Duration                       : 3 min 41 s
Source duration                : 3 min 41 s
Bit rate mode                  : Variable
Bit rate                       : 317 kb/s
Maximum bit rate               : 416 kb/s
Channel(s)                     : 2 channels
Channel positions              : Front: L R
Sampling rate                  : 48.0 kHz
Frame rate                     : 46.875 FPS (1024 SPF)
Compression mode               : Lossy
Stream size                    : 8.38 MiB (2%)
Source stream size             : 8.38 MiB (2%)
Language                       : English
Encoded date                   : UTC 2017-10-29 12:43:32
Tagged date                    : UTC 2017-10-29 12:43:32


Скриншоты





Скринлист




10. Heart Shaker.mp4 | 2017.12.11
Продолжительность: 03:12
Видео: MPEG4 Video (H264) 1920x1080 23.976fps 17782kbps
Аудио: AAC 48000Hz stereo 317kbps
MediaInfo

General
Complete name                  : T:\MVs\10. Heart Shaker.mp4
Format                         : MPEG-4
Format profile                 : Base Media / Version 2
Codec ID                       : mp42 (mp42/mp41)
File size                      : 415 MiB
Duration                       : 3 min 12 s
Overall bit rate mode          : Variable
Overall bit rate               : 18.1 Mb/s
Encoded date                   : UTC 2017-12-08 16:32:55
Tagged date                    : UTC 2017-12-08 16:32:57
©TIM                           : 00:00:00:00
©TSC                           : 24000
©TSZ                           : 1001
Video
ID                             : 1
Format                         : AVC
Format/Info                    : Advanced Video Codec
Format profile                 : Main@L4.1
Format settings                : CABAC / 3 Ref Frames
Format settings, CABAC         : Yes
Format settings, RefFrames     : 3 frames
Format settings, GOP           : M=4, N=23
Codec ID                       : avc1
Codec ID/Info                  : Advanced Video Coding
Duration                       : 3 min 12 s
Bit rate                       : 17.8 Mb/s
Width                          : 1 920 pixels
Height                         : 1 080 pixels
Display aspect ratio           : 16:9
Frame rate mode                : Constant
Frame rate                     : 23.976 (24000/1001) FPS
Standard                       : NTSC
Color space                    : YUV
Chroma subsampling             : 4:2:0
Bit depth                      : 8 bits
Scan type                      : Progressive
Bits/(Pixel*Frame)             : 0.358
Stream size                    : 408 MiB (98%)
Language                       : English
Encoded date                   : UTC 2017-12-08 16:32:55
Tagged date                    : UTC 2017-12-08 16:32:55
Color range                    : Limited
Color primaries                : BT.709
Transfer characteristics       : BT.709
Matrix coefficients            : BT.709
Audio
ID                             : 2
Format                         : AAC
Format/Info                    : Advanced Audio Codec
Format profile                 : LC
Codec ID                       : mp4a-40-2
Duration                       : 3 min 12 s
Source duration                : 3 min 12 s
Bit rate mode                  : Variable
Bit rate                       : 317 kb/s
Maximum bit rate               : 423 kb/s
Channel(s)                     : 2 channels
Channel positions              : Front: L R
Sampling rate                  : 48.0 kHz
Frame rate                     : 46.875 FPS (1024 SPF)
Compression mode               : Lossy
Stream size                    : 7.27 MiB (2%)
Source stream size             : 7.28 MiB (2%)
Language                       : English
Encoded date                   : UTC 2017-12-08 16:32:55
Tagged date                    : UTC 2017-12-08 16:32:55


Скриншоты





Скринлист




11. Merry & Happy.mp4 | 2017.12.22
Продолжительность: 03:28
Видео: MPEG4 Video (H264) 1920x1080 23.976fps 9902kbps
Аудио: AAC 48000Hz stereo 317kbps
MediaInfo

General
Complete name                  : T:\MVs\11. Merry & Happy.mp4
Format                         : MPEG-4
Format profile                 : Base Media / Version 2
Codec ID                       : mp42 (mp42/mp41)
File size                      : 254 MiB
Duration                       : 3 min 28 s
Overall bit rate mode          : Variable
Overall bit rate               : 10.2 Mb/s
Encoded date                   : UTC 2017-12-18 07:39:45
Tagged date                    : UTC 2017-12-18 07:40:06
©TIM                           : 00:00:00:00
©TSC                           : 24000
©TSZ                           : 1001
Video
ID                             : 1
Format                         : AVC
Format/Info                    : Advanced Video Codec
Format profile                 : Main@L4.1
Format settings                : CABAC / 4 Ref Frames
Format settings, CABAC         : Yes
Format settings, RefFrames     : 4 frames
Codec ID                       : avc1
Codec ID/Info                  : Advanced Video Coding
Duration                       : 3 min 28 s
Bit rate                       : 9 902 kb/s
Width                          : 1 920 pixels
Height                         : 1 080 pixels
Display aspect ratio           : 16:9
Frame rate mode                : Constant
Frame rate                     : 23.976 (24000/1001) FPS
Standard                       : NTSC
Color space                    : YUV
Chroma subsampling             : 4:2:0
Bit depth                      : 8 bits
Scan type                      : Progressive
Bits/(Pixel*Frame)             : 0.199
Stream size                    : 246 MiB (97%)
Language                       : English
Encoded date                   : UTC 2017-12-18 07:39:45
Tagged date                    : UTC 2017-12-18 07:39:45
Color range                    : Limited
Color primaries                : BT.709
Transfer characteristics       : BT.709
Matrix coefficients            : BT.709
Audio
ID                             : 2
Format                         : AAC
Format/Info                    : Advanced Audio Codec
Format profile                 : LC
Codec ID                       : mp4a-40-2
Duration                       : 3 min 28 s
Source duration                : 3 min 28 s
Bit rate mode                  : Variable
Bit rate                       : 317 kb/s
Maximum bit rate               : 464 kb/s
Channel(s)                     : 2 channels
Channel positions              : Front: L R
Sampling rate                  : 48.0 kHz
Frame rate                     : 46.875 FPS (1024 SPF)
Compression mode               : Lossy
Stream size                    : 7.89 MiB (3%)
Source stream size             : 7.89 MiB (3%)
Language                       : English
Encoded date                   : UTC 2017-12-18 07:39:45
Tagged date                    : UTC 2017-12-18 07:39:45


Скриншоты





Скринлист




12. 「Candy Pop」.mp4 | 2018.01.12
Продолжительность: 04:24
Видео: MPEG4 Video (H264) 1920x1080 23.976fps 6235kbps
Аудио: AAC 48000Hz stereo 154kbps
MediaInfo

General
Complete name                  : T:\MVs\12. 「Candy Pop」.mp4
Format                         : MPEG-4
Format profile                 : Base Media / Version 2
Codec ID                       : mp42 (isom/iso2/avc1/mp41)
File size                      : 202 MiB
Duration                       : 4 min 24 s
Overall bit rate mode          : Variable
Overall bit rate               : 6 396 kb/s
Encoded date                   : UTC 2018-02-01 06:31:41
Tagged date                    : UTC 2018-02-01 06:31:41
Writing application            : HandBrake 1.0.7 2017040900
Video
ID                             : 1
Format                         : AVC
Format/Info                    : Advanced Video Codec
Format profile                 : Main@L4
Format settings                : CABAC / 4 Ref Frames
Format settings, CABAC         : Yes
Format settings, ReFrames      : 4 frames
Codec ID                       : avc1
Codec ID/Info                  : Advanced Video Coding
Duration                       : 4 min 24 s
Bit rate                       : 6 235 kb/s
Width                          : 1 920 pixels
Height                         : 1 080 pixels
Display aspect ratio           : 16:9
Frame rate mode                : Variable
Frame rate                     : 23.976 (24000/1001) FPS
Minimum frame rate             : 23.974 FPS
Maximum frame rate             : 23.981 FPS
Color space                    : YUV
Chroma subsampling             : 4:2:0
Bit depth                      : 8 bits
Scan type                      : Progressive
Bits/(Pixel*Frame)             : 0.125
Stream size                    : 197 MiB (97%)
Writing library                : x264 core 148 r2708 86b7198
Encoding settings              : cabac=1 / ref=2 / deblock=1:0:0 / analyse=0x1:0x111 / me=hex / subme=6 / psy=1 / psy_rd=1.00:0.00 / mixed_ref=1 / me_range=16 / chroma_me=1 / trellis=1 / 8x8dct=0 / cqm=0 / deadzone=21,11 / fast_pskip=1 / chroma_qp_offset=-2 / threads=34 / lookahead_threads=5 / sliced_threads=0 / nr=0 / decimate=1 / interlaced=0 / bluray_compat=0 / constrained_intra=0 / bframes=3 / b_pyramid=2 / b_adapt=1 / b_bias=0 / direct=1 / weightb=1 / open_gop=0 / weightp=1 / keyint=240 / keyint_min=24 / scenecut=40 / intra_refresh=0 / rc_lookahead=30 / rc=crf / mbtree=1 / crf=22.0 / qcomp=0.60 / qpmin=0 / qpmax=69 / qpstep=4 / vbv_maxrate=20000 / vbv_bufsize=25000 / crf_max=0.0 / nal_hrd=none / filler=0 / ip_ratio=1.40 / aq=1:1.00
Encoded date                   : UTC 2018-02-01 06:31:41
Tagged date                    : UTC 2018-02-01 06:31:41
Color range                    : Limited
Color primaries                : BT.601 NTSC
Transfer characteristics       : BT.709
Matrix coefficients            : BT.601
Audio
ID                             : 2
Format                         : AAC
Format/Info                    : Advanced Audio Codec
Format profile                 : LC
Codec ID                       : mp4a-40-2
Duration                       : 4 min 24 s
Bit rate mode                  : Variable
Bit rate                       : 155 kb/s
Channel(s)                     : 2 channels
Channel positions              : Front: L R
Sampling rate                  : 48.0 kHz
Frame rate                     : 46.875 FPS (1024 SPF)
Compression mode               : Lossy
Stream size                    : 4.89 MiB (2%)
Title                          : Stereo / Stereo
Language                       : English
Default                        : Yes
Alternate group                : 1
Encoded date                   : UTC 2018-02-01 06:31:41
Tagged date                    : UTC 2018-02-01 06:31:41


Скриншоты





Скринлист




13. 「BRAND NEW GIRL」.ts | 2018.02.23
Продолжительность: 03:53
Видео: MPEG2 Video 1920x1080 29.97fps 20Mbps
Аудио: AAC 48000Hz stereo 192kbps
MediaInfo

General
ID                             : 1 (0x1)
Complete name                  : T:\MVs\13. 「BRAND NEW GIRL」.ts
Format                         : MPEG-TS
File size                      : 567 MiB
Duration                       : 3 min 53 s
Overall bit rate mode          : Variable
Overall bit rate               : 20.4 Mb/s
Video
ID                             : 256 (0x100)
Menu ID                        : 1 (0x1)
Format                         : MPEG Video
Format version                 : Version 2
Format profile                 : Main@High
Format settings                : CustomMatrix / BVOP
Format settings, BVOP          : Yes
Format settings, Matrix        : Custom
Format settings, GOP           : M=3, N=15
Format settings, picture struc : Frame
Codec ID                       : 2
Duration                       : 3 min 53 s
Bit rate mode                  : Variable
Maximum bit rate               : 24.0 Mb/s
Width                          : 1 920 pixels
Height                         : 1 080 pixels
Display aspect ratio           : 16:9
Frame rate                     : 29.970 (30000/1001) FPS
Color space                    : YUV
Chroma subsampling             : 4:2:0
Bit depth                      : 8 bits
Scan type                      : Interlaced
Scan order                     : Top Field First
Compression mode               : Lossy
Time code of first frame       : 12:20:15:09
Time code source               : Group of pictures header
GOP, Open/Closed               : Open
Color primaries                : BT.709
Transfer characteristics       : BT.709
Matrix coefficients            : BT.709
Audio
ID                             : 257 (0x101)
Menu ID                        : 1 (0x1)
Format                         : AAC LC
Format/Info                    : Advanced Audio Codec Low Complexity
Format version                 : Version 2
Muxing mode                    : ADTS
Codec ID                       : 15-2
Duration                       : 3 min 53 s
Bit rate mode                  : Variable
Channel(s)                     : 2 channels
Channel layout                 : L R
Sampling rate                  : 48.0 kHz
Frame rate                     : 46.875 FPS (1024 SPF)
Compression mode               : Lossy
Delay relative to video        : -500 ms
Menu
ID                             : 4096 (0x1000)
Menu ID                        : 1 (0x1)
Duration                       : 3 min 53 s
List                           : 256 (0x100) (MPEG Video) / 257 (0x101) (AAC)
Service name                   : Service01
Service provider               : FFmpeg
Service type                   : digital television


Скриншоты





Скринлист




14. What Is Love.mp4 | 2018.04.09
Продолжительность: 03:43
Видео: MPEG4 Video (H264) 1920x1080 23.976fps 20619kbps
Аудио: AAC 48000Hz stereo 317kbps
MediaInfo

General
Complete name                  : T:\MVs\14. What Is Love.mp4
Format                         : MPEG-4
Format profile                 : Base Media / Version 2
Codec ID                       : mp42 (mp42/mp41)
File size                      : 557 MiB
Duration                       : 3 min 43 s
Overall bit rate mode          : Variable
Overall bit rate               : 20.9 Mb/s
Encoded date                   : UTC 2018-04-08 11:00:24
Tagged date                    : UTC 2018-04-08 11:00:28
TIM                            : 00:00:00:00
TSC                            : 24000
TSZ                            : 1001
Video
ID                             : 1
Format                         : AVC
Format/Info                    : Advanced Video Codec
Format profile                 : Main@L4.1
Format settings                : CABAC / 4 Ref Frames
Format settings, CABAC         : Yes
Format settings, ReFrames      : 4 frames
Codec ID                       : avc1
Codec ID/Info                  : Advanced Video Coding
Duration                       : 3 min 43 s
Bit rate                       : 20.6 Mb/s
Width                          : 1 920 pixels
Height                         : 1 080 pixels
Display aspect ratio           : 16:9
Frame rate mode                : Constant
Frame rate                     : 23.976 (24000/1001) FPS
Standard                       : NTSC
Color space                    : YUV
Chroma subsampling             : 4:2:0
Bit depth                      : 8 bits
Scan type                      : Progressive
Bits/(Pixel*Frame)             : 0.415
Stream size                    : 549 MiB (98%)
Language                       : English
Encoded date                   : UTC 2018-04-08 11:00:24
Tagged date                    : UTC 2018-04-08 11:00:24
Color range                    : Limited
Color primaries                : BT.709
Transfer characteristics       : BT.709
Matrix coefficients            : BT.709
Audio
ID                             : 2
Format                         : AAC
Format/Info                    : Advanced Audio Codec
Format profile                 : LC
Codec ID                       : mp4a-40-2
Duration                       : 3 min 43 s
Source duration                : 3 min 43 s
Bit rate mode                  : Variable
Bit rate                       : 317 kb/s
Maximum bit rate               : 417 kb/s
Channel(s)                     : 2 channels
Channel positions              : Front: L R
Sampling rate                  : 48.0 kHz
Frame rate                     : 46.875 FPS (1024 SPF)
Compression mode               : Lossy
Stream size                    : 8.45 MiB (2%)
Source stream size             : 8.45 MiB (2%)
Language                       : English
Encoded date                   : UTC 2018-04-08 11:00:24
Tagged date                    : UTC 2018-04-08 11:00:24


Скриншоты





Скринлист




15. 「Wake Me Up」.mp4 | 2018.04.25
Продолжительность: 03:59
Видео: MPEG4 Video (H264) 1920x1080 23.976fps 49926kbps
Аудио: AAC 48000Hz stereo 317kbps
MediaInfo

General
Complete name                  : T:\MVs\15. 「Wake Me Up」.mp4
Format                         : MPEG-4
Format profile                 : Base Media / Version 2
Codec ID                       : mp42 (mp42/mp41)
File size                      : 1.40 GiB
Duration                       : 3 min 59 s
Overall bit rate mode          : Variable
Overall bit rate               : 50.2 Mb/s
Encoded date                   : UTC 2018-05-15 09:41:17
Tagged date                    : UTC 2018-05-15 09:41:41
TIM                            : 00:00:00:00
TSC                            : 24000
TSZ                            : 1001
Video
ID                             : 1
Format                         : AVC
Format/Info                    : Advanced Video Codec
Format profile                 : Main@L4.1
Format settings                : CABAC / 3 Ref Frames
Format settings, CABAC         : Yes
Format settings, ReFrames      : 3 frames
Codec ID                       : avc1
Codec ID/Info                  : Advanced Video Coding
Duration                       : 3 min 59 s
Bit rate                       : 49.9 Mb/s
Width                          : 1 920 pixels
Height                         : 1 080 pixels
Display aspect ratio           : 16:9
Frame rate mode                : Constant
Frame rate                     : 23.976 (24000/1001) FPS
Standard                       : NTSC
Color space                    : YUV
Chroma subsampling             : 4:2:0
Bit depth                      : 8 bits
Scan type                      : Progressive
Bits/(Pixel*Frame)             : 1.004
Stream size                    : 1.39 GiB (99%)
Language                       : English
Encoded date                   : UTC 2018-05-15 09:41:17
Tagged date                    : UTC 2018-05-15 09:41:17
Color range                    : Limited
Color primaries                : BT.709
Transfer characteristics       : BT.709
Matrix coefficients            : BT.709
Codec configuration box        : avcC
Audio
ID                             : 2
Format                         : AAC LC
Format/Info                    : Advanced Audio Codec Low Complexity
Codec ID                       : mp4a-40-2
Duration                       : 3 min 59 s
Source duration                : 3 min 59 s
Bit rate mode                  : Variable
Bit rate                       : 317 kb/s
Maximum bit rate               : 437 kb/s
Channel(s)                     : 2 channels
Channel layout                 : L R
Sampling rate                  : 48.0 kHz
Frame rate                     : 46.875 FPS (1024 SPF)
Compression mode               : Lossy
Stream size                    : 9.06 MiB (1%)
Source stream size             : 9.06 MiB (1%)
Language                       : English
Encoded date                   : UTC 2018-05-15 09:41:17
Tagged date                    : UTC 2018-05-15 09:41:17


Скриншоты





Скринлист




16. 「I Want You Back」.mp4 | 2018.06.15
Продолжительность: 03:53
Видео: MPEG4 Video (H264) 1920x1080 23.976fps 49875kbps
Аудио: AAC 48000Hz stereo 317kbps
MediaInfo

General
Complete name                  : T:\MVs\16. 「I Want You Back」.mp4
Format                         : MPEG-4
Format profile                 : Base Media / Version 2
Codec ID                       : mp42 (mp42/mp41)
File size                      : 1.36 GiB
Duration                       : 3 min 53 s
Overall bit rate mode          : Variable
Overall bit rate               : 50.2 Mb/s
Encoded date                   : UTC 2018-06-14 04:29:09
Tagged date                    : UTC 2018-06-14 04:29:34
TIM                            : 00:00:00:00
TSC                            : 24000
TSZ                            : 1001
Video
ID                             : 1
Format                         : AVC
Format/Info                    : Advanced Video Codec
Format profile                 : Main@L4.1
Format settings                : CABAC / 3 Ref Frames
Format settings, CABAC         : Yes
Format settings, ReFrames      : 3 frames
Format settings, GOP           : M=4, N=23
Codec ID                       : avc1
Codec ID/Info                  : Advanced Video Coding
Duration                       : 3 min 53 s
Bit rate                       : 49.9 Mb/s
Width                          : 1 920 pixels
Height                         : 1 080 pixels
Display aspect ratio           : 16:9
Frame rate mode                : Constant
Frame rate                     : 23.976 (24000/1001) FPS
Standard                       : NTSC
Color space                    : YUV
Chroma subsampling             : 4:2:0
Bit depth                      : 8 bits
Scan type                      : Progressive
Bits/(Pixel*Frame)             : 1.003
Stream size                    : 1.36 GiB (99%)
Language                       : English
Encoded date                   : UTC 2018-06-14 04:29:09
Tagged date                    : UTC 2018-06-14 04:29:09
Color range                    : Limited
Color primaries                : BT.709
Transfer characteristics       : BT.709
Matrix coefficients            : BT.709
Codec configuration box        : avcC
Audio
ID                             : 2
Format                         : AAC LC
Format/Info                    : Advanced Audio Codec Low Complexity
Codec ID                       : mp4a-40-2
Duration                       : 3 min 53 s
Source duration                : 3 min 53 s
Bit rate mode                  : Variable
Bit rate                       : 317 kb/s
Maximum bit rate               : 457 kb/s
Channel(s)                     : 2 channels
Channel layout                 : L R
Sampling rate                  : 48.0 kHz
Frame rate                     : 46.875 FPS (1024 SPF)
Compression mode               : Lossy
Stream size                    : 8.83 MiB (1%)
Source stream size             : 8.83 MiB (1%)
Language                       : English
Encoded date                   : UTC 2018-06-14 04:29:09
Tagged date                    : UTC 2018-06-14 04:29:09


Скриншоты





Скринлист




17. Dance The Night Away.mp4 | 2018.07.09
Продолжительность: 04:09
Видео: MPEG4 Video (H264) 1920x1080 23.976fps 20727kbps
Аудио: AAC 48000Hz stereo 317kbps
MediaInfo

General
Complete name                  : T:\MVs\17. Dance The Night Away.mp4
Format                         : MPEG-4
Format profile                 : Base Media / Version 2
Codec ID                       : mp42 (mp42/mp41)
File size                      : 625 MiB
Duration                       : 4 min 8 s
Overall bit rate mode          : Variable
Overall bit rate               : 21.1 Mb/s
Encoded date                   : UTC 2018-07-08 04:50:23
Tagged date                    : UTC 2018-07-08 04:50:28
TIM                            : 00:00:00:00
TSC                            : 24000
TSZ                            : 1001
Video
ID                             : 1
Format                         : AVC
Format/Info                    : Advanced Video Codec
Format profile                 : Main@L4.1
Format settings                : CABAC / 4 Ref Frames
Format settings, CABAC         : Yes
Format settings, ReFrames      : 4 frames
Codec ID                       : avc1
Codec ID/Info                  : Advanced Video Coding
Duration                       : 4 min 8 s
Bit rate                       : 20.7 Mb/s
Width                          : 1 920 pixels
Height                         : 1 080 pixels
Display aspect ratio           : 16:9
Frame rate mode                : Constant
Frame rate                     : 23.976 (24000/1001) FPS
Standard                       : NTSC
Color space                    : YUV
Chroma subsampling             : 4:2:0
Bit depth                      : 8 bits
Scan type                      : Progressive
Bits/(Pixel*Frame)             : 0.417
Stream size                    : 615 MiB (98%)
Language                       : English
Encoded date                   : UTC 2018-07-08 04:50:23
Tagged date                    : UTC 2018-07-08 04:50:23
Color range                    : Limited
Color primaries                : BT.709
Transfer characteristics       : BT.709
Matrix coefficients            : BT.709
Codec configuration box        : avcC
Audio
ID                             : 2
Format                         : AAC LC
Format/Info                    : Advanced Audio Codec Low Complexity
Codec ID                       : mp4a-40-2
Duration                       : 4 min 8 s
Source duration                : 4 min 9 s
Bit rate mode                  : Variable
Bit rate                       : 317 kb/s
Maximum bit rate               : 413 kb/s
Channel(s)                     : 2 channels
Channel layout                 : L R
Sampling rate                  : 48.0 kHz
Frame rate                     : 46.875 FPS (1024 SPF)
Compression mode               : Lossy
Stream size                    : 9.42 MiB (2%)
Source stream size             : 9.42 MiB (2%)
Language                       : English
Encoded date                   : UTC 2018-07-08 04:50:23
Tagged date                    : UTC 2018-07-08 04:50:23


Скриншоты





Скринлист




18. 「BDZ」.mp4 | 2018.08.17
Продолжительность: 06:14
Видео: MPEG4 Video (H264) 1920x1080 23.976fps 19819kbps
Аудио: AAC 48000Hz stereo 317kbps
MediaInfo

General
Complete name                  : T:\MVs\18. 「BDZ」.mp4
Format                         : MPEG-4
Format profile                 : Base Media / Version 2
Codec ID                       : mp42 (mp42/mp41)
File size                      : 897 MiB
Duration                       : 6 min 13 s
Overall bit rate mode          : Variable
Overall bit rate               : 20.1 Mb/s
Encoded date                   : UTC 2018-09-10 12:26:52
Tagged date                    : UTC 2018-09-10 12:26:59
TIM                            : 00:00:00:00
TSC                            : 24000
TSZ                            : 1001
Video
ID                             : 1
Format                         : AVC
Format/Info                    : Advanced Video Codec
Format profile                 : Main@L4.1
Format settings                : CABAC / 4 Ref Frames
Format settings, CABAC         : Yes
Format settings, ReFrames      : 4 frames
Codec ID                       : avc1
Codec ID/Info                  : Advanced Video Coding
Duration                       : 6 min 13 s
Bit rate                       : 19.8 Mb/s
Width                          : 1 920 pixels
Height                         : 1 080 pixels
Display aspect ratio           : 16:9
Frame rate mode                : Constant
Frame rate                     : 23.976 (24000/1001) FPS
Standard                       : NTSC
Color space                    : YUV
Chroma subsampling             : 4:2:0
Bit depth                      : 8 bits
Scan type                      : Progressive
Bits/(Pixel*Frame)             : 0.399
Stream size                    : 883 MiB (98%)
Language                       : English
Encoded date                   : UTC 2018-09-10 12:26:52
Tagged date                    : UTC 2018-09-10 12:26:52
Color range                    : Limited
Color primaries                : BT.709
Transfer characteristics       : BT.709
Matrix coefficients            : BT.709
Codec configuration box        : avcC
Audio
ID                             : 2
Format                         : AAC LC
Format/Info                    : Advanced Audio Codec Low Complexity
Codec ID                       : mp4a-40-2
Duration                       : 6 min 13 s
Source duration                : 6 min 13 s
Bit rate mode                  : Variable
Bit rate                       : 317 kb/s
Maximum bit rate               : 418 kb/s
Channel(s)                     : 2 channels
Channel layout                 : L R
Sampling rate                  : 48.0 kHz
Frame rate                     : 46.875 FPS (1024 SPF)
Compression mode               : Lossy
Stream size                    : 14.1 MiB (2%)
Source stream size             : 14.1 MiB (2%)
Language                       : English
Encoded date                   : UTC 2018-09-10 12:26:52
Tagged date                    : UTC 2018-09-10 12:26:52


Скриншоты





Скринлист




19. 「Be as ONE」.mp4 | 2018.xx.xx
Продолжительность: 03:49
Видео: MPEG4 Video (H264) 1920x1080 29.97fps 18302kbps
Аудио: AAC 48000Hz stereo 192kbps
MediaInfo

General
Complete name                  : T:\MVs\19. 「Be as ONE」.mp4
Format                         : MPEG-4
Format profile                 : Base Media
Codec ID                       : isom (isom/iso2/avc1/mp41)
File size                      : 507 MiB
Duration                       : 3 min 50 s
Overall bit rate mode          : Variable
Overall bit rate               : 18.5 Mb/s
Writing application            : Lavf58.41.100
Video
ID                             : 1
Format                         : AVC
Format/Info                    : Advanced Video Codec
Format profile                 : High@L4.1
Format settings                : CABAC / 4 Ref Frames
Format settings, CABAC         : Yes
Format settings, Reference fra : 4 frames
Codec ID                       : avc1
Codec ID/Info                  : Advanced Video Coding
Duration                       : 3 min 49 s
Source duration                : 3 min 49 s
Bit rate mode                  : Variable
Bit rate                       : 18.3 Mb/s
Maximum bit rate               : 40.0 Mb/s
Width                          : 1 920 pixels
Height                         : 1 080 pixels
Display aspect ratio           : 16:9
Frame rate mode                : Constant
Frame rate                     : 29.970 (30000/1001) FPS
Color space                    : YUV
Chroma subsampling             : 4:2:0
Bit depth                      : 8 bits
Scan type                      : MBAFF
Scan type, store method        : Interleaved fields
Scan order                     : Top Field First
Bits/(Pixel*Frame)             : 0.294
Stream size                    : 501 MiB (99%)
Source stream size             : 501 MiB (99%)
mdhd_Duration                  : 229629
Codec configuration box        : avcC
Audio
ID                             : 2
Format                         : AAC LC
Format/Info                    : Advanced Audio Codec Low Complexity
Codec ID                       : mp4a-40-2
Duration                       : 3 min 50 s
Bit rate mode                  : Constant
Bit rate                       : 192 kb/s
Channel(s)                     : 2 channels
Channel layout                 : L R
Sampling rate                  : 48.0 kHz
Frame rate                     : 46.875 FPS (1024 SPF)
Compression mode               : Lossy
Stream size                    : 5.29 MiB (1%)
Default                        : Yes
Alternate group                : 1


Скриншоты





Скринлист




20. 「STAY BY MY SIDE」.mp4 | 2018.10.22
Продолжительность: 04:13
Видео: MPEG4 Video (H264) 1920x1080 29.97fps 9903kbps
Аудио: AAC 48000Hz stereo 128kbps
MediaInfo

General
Complete name                  : T:\MVs\20. 「STAY BY MY SIDE」.mp4
Format                         : MPEG-4
Format profile                 : Base Media
Codec ID                       : isom (isom/iso2/avc1/mp41)
File size                      : 303 MiB
Duration                       : 4 min 13 s
Overall bit rate mode          : Variable
Overall bit rate               : 10.0 Mb/s
Writing application            : Lavf58.22.100
Video
ID                             : 1
Format                         : AVC
Format/Info                    : Advanced Video Codec
Format profile                 : High@L4
Format settings                : CABAC / 2 Ref Frames
Format settings, CABAC         : Yes
Format settings, Reference fra : 2 frames
Format settings, GOP           : M=2, N=30
Codec ID                       : avc1
Codec ID/Info                  : Advanced Video Coding
Duration                       : 4 min 13 s
Bit rate mode                  : Variable
Bit rate                       : 9 904 kb/s
Maximum bit rate               : 768 kb/s
Width                          : 1 920 pixels
Height                         : 1 080 pixels
Display aspect ratio           : 16:9
Frame rate mode                : Constant
Frame rate                     : 29.970 (30000/1001) FPS
Color space                    : YUV
Chroma subsampling             : 4:2:0
Bit depth                      : 8 bits
Scan type                      : Progressive
Bits/(Pixel*Frame)             : 0.159
Stream size                    : 299 MiB (99%)
Title                          : Core Media Video
Color range                    : Limited
Color primaries                : BT.709
Transfer characteristics       : BT.709
Matrix coefficients            : BT.709
Codec configuration box        : avcC
Audio
ID                             : 2
Format                         : AAC LC
Format/Info                    : Advanced Audio Codec Low Complexity
Codec ID                       : mp4a-40-2
Duration                       : 4 min 13 s
Bit rate mode                  : Constant
Bit rate                       : 128 kb/s
Channel(s)                     : 2 channels
Channel layout                 : L R
Sampling rate                  : 48.0 kHz
Frame rate                     : 46.875 FPS (1024 SPF)
Compression mode               : Lossy
Stream size                    : 3.88 MiB (1%)
Language                       : Japanese
Default                        : Yes
Alternate group                : 1


Скриншоты





Скринлист




21. YES or YES.mp4 | 2018.11.05
Продолжительность: 04:29
Видео: MPEG4 Video (H264) 1920x1080 23.976fps 20687kbps
Аудио: AAC 48000Hz stereo 317kbps
MediaInfo

General
Complete name                  : T:\MVs\21. YES or YES.mp4
Format                         : MPEG-4
Format profile                 : Base Media / Version 2
Codec ID                       : mp42 (mp42/mp41)
File size                      : 673 MiB
Duration                       : 4 min 28 s
Overall bit rate mode          : Variable
Overall bit rate               : 21.0 Mb/s
Encoded date                   : UTC 2018-11-04 10:49:31
Tagged date                    : UTC 2018-11-04 10:49:36
TIM                            : 00:00:00:00
TSC                            : 24000
TSZ                            : 1001
Video
ID                             : 1
Format                         : AVC
Format/Info                    : Advanced Video Codec
Format profile                 : Main@L4.1
Format settings                : CABAC / 4 Ref Frames
Format settings, CABAC         : Yes
Format settings, Reference fra : 4 frames
Format settings, GOP           : M=4, N=23
Codec ID                       : avc1
Codec ID/Info                  : Advanced Video Coding
Duration                       : 4 min 28 s
Bit rate                       : 20.7 Mb/s
Width                          : 1 920 pixels
Height                         : 1 080 pixels
Display aspect ratio           : 16:9
Frame rate mode                : Constant
Frame rate                     : 23.976 (24000/1001) FPS
Standard                       : NTSC
Color space                    : YUV
Chroma subsampling             : 4:2:0
Bit depth                      : 8 bits
Scan type                      : Progressive
Bits/(Pixel*Frame)             : 0.416
Stream size                    : 663 MiB (98%)
Language                       : English
Encoded date                   : UTC 2018-11-04 10:49:31
Tagged date                    : UTC 2018-11-04 10:49:31
Color range                    : Limited
Color primaries                : BT.709
Transfer characteristics       : BT.709
Matrix coefficients            : BT.709
Codec configuration box        : avcC
Audio
ID                             : 2
Format                         : AAC LC
Format/Info                    : Advanced Audio Codec Low Complexity
Codec ID                       : mp4a-40-2
Duration                       : 4 min 28 s
Source duration                : 4 min 28 s
Bit rate mode                  : Variable
Bit rate                       : 317 kb/s
Maximum bit rate               : 411 kb/s
Channel(s)                     : 2 channels
Channel layout                 : L R
Sampling rate                  : 48.0 kHz
Frame rate                     : 46.875 FPS (1024 SPF)
Compression mode               : Lossy
Stream size                    : 10.2 MiB (2%)
Source stream size             : 10.2 MiB (2%)
Language                       : English
Encoded date                   : UTC 2018-11-04 10:49:31
Tagged date                    : UTC 2018-11-04 10:49:31


Скриншоты





Скринлист




22. The Best Thing I Ever Did.mp4 | 2018.12.12
Продолжительность: 03:33
Видео: MPEG4 Video (H264) 1920x1080 24fps 20018kbps
Аудио: AAC 48000Hz stereo 250kbps
MediaInfo

General
Complete name                  : T:\MVs\22. The Best Thing I Ever Did.mp4
Format                         : MPEG-4
Format profile                 : Base Media / Version 2
Codec ID                       : mp42 (mp41/mp42/isom)
File size                      : 516 MiB
Duration                       : 3 min 33 s
Overall bit rate mode          : Variable
Overall bit rate               : 20.3 Mb/s
Movie name                     : TWICE_MV_181129_ver_B_COLOR
Movie_More                     : This video is about TWICE_MV_181129_ver_B_COLOR
Performer                      : AhnYo Seop
Encoded date                   : UTC 2018-12-07 10:10:18
Tagged date                    : UTC 2018-12-07 10:12:55
thmb                           : ÿØÿà
Video
ID                             : 2
Format                         : AVC
Format/Info                    : Advanced Video Codec
Format profile                 : High@L4
Format settings                : CABAC / 2 Ref Frames
Format settings, CABAC         : Yes
Format settings, Reference fra : 2 frames
Format settings, GOP           : M=1, N=30
Codec ID                       : avc1
Codec ID/Info                  : Advanced Video Coding
Duration                       : 3 min 33 s
Bit rate mode                  : Variable
Bit rate                       : 20.0 Mb/s
Maximum bit rate               : 768 kb/s
Width                          : 1 920 pixels
Height                         : 1 080 pixels
Display aspect ratio           : 16:9
Frame rate mode                : Constant
Frame rate                     : 24.000 FPS
Color space                    : YUV
Chroma subsampling             : 4:2:0
Bit depth                      : 8 bits
Scan type                      : Progressive
Bits/(Pixel*Frame)             : 0.402
Stream size                    : 509 MiB (99%)
Title                          : Core Media Video
Encoded date                   : UTC 2018-12-07 10:10:18
Tagged date                    : UTC 2018-12-07 10:12:55
Color range                    : Limited
Color primaries                : BT.709
Transfer characteristics       : BT.709
Matrix coefficients            : BT.709
Codec configuration box        : avcC
Audio
ID                             : 1
Format                         : AAC LC
Format/Info                    : Advanced Audio Codec Low Complexity
Codec ID                       : mp4a-40-2
Duration                       : 3 min 33 s
Source duration                : 3 min 33 s
Bit rate mode                  : Constant
Bit rate                       : 256 kb/s
Channel(s)                     : 2 channels
Channel layout                 : L R
Sampling rate                  : 48.0 kHz
Frame rate                     : 46.875 FPS (1024 SPF)
Compression mode               : Lossy
Stream size                    : 6.37 MiB (1%)
Source stream size             : 6.37 MiB (1%)
Title                          : Core Media Audio
Language                       : English
Encoded date                   : UTC 2018-12-07 10:10:18
Tagged date                    : UTC 2018-12-07 10:12:55


Скриншоты





Скринлист




23. 「LIKEY -Japanese ver.-」.ts | 2019.01.11
Продолжительность: 03:40
Видео: MPEG2 Video 1920x1080 29.97fps 20.1Mbps
Аудио: AAC 48000Hz stereo 192kbps
MediaInfo

General
ID                             : 1 (0x1)
Complete name                  : T:\MVs\23. 「LIKEY -Japanese ver.-」.ts
Format                         : MPEG-TS
File size                      : 532 MiB
Duration                       : 3 min 39 s
Overall bit rate mode          : Variable
Overall bit rate               : 20.3 Mb/s
Video
ID                             : 256 (0x100)
Menu ID                        : 1 (0x1)
Format                         : MPEG Video
Format version                 : Version 2
Format profile                 : Main@High
Format settings                : CustomMatrix / BVOP
Format settings, BVOP          : Yes
Format settings, Matrix        : Custom
Format settings, GOP           : M=3, N=15
Format settings, picture struc : Frame
Codec ID                       : 2
Duration                       : 3 min 39 s
Bit rate mode                  : Variable
Maximum bit rate               : 24.0 Mb/s
Width                          : 1 920 pixels
Height                         : 1 080 pixels
Display aspect ratio           : 16:9
Frame rate                     : 29.970 (30000/1001) FPS
Color space                    : YUV
Chroma subsampling             : 4:2:0
Bit depth                      : 8 bits
Scan type                      : Interlaced
Scan order                     : Top Field First
Compression mode               : Lossy
Time code of first frame       : 12:42:33:06
Time code source               : Group of pictures header
GOP, Open/Closed               : Open
Color primaries                : BT.709
Transfer characteristics       : BT.709
Matrix coefficients            : BT.709
Audio
ID                             : 257 (0x101)
Menu ID                        : 1 (0x1)
Format                         : AAC LC
Format/Info                    : Advanced Audio Codec Low Complexity
Format version                 : Version 2
Muxing mode                    : ADTS
Codec ID                       : 15-2
Duration                       : 3 min 39 s
Bit rate mode                  : Variable
Channel(s)                     : 2 channels
Channel layout                 : L R
Sampling rate                  : 48.0 kHz
Frame rate                     : 46.875 FPS (1024 SPF)
Compression mode               : Lossy
Delay relative to video        : -325 ms
Menu
ID                             : 4096 (0x1000)
Menu ID                        : 1 (0x1)
Duration                       : 3 min 39 s
List                           : 256 (0x100) (MPEG Video) / 257 (0x101) (AAC)
Service name                   : Service01
Service provider               : FFmpeg
Service type                   : digital television


Скриншоты





Скринлист




24. 「What Is Love -Japanese ver.-」.ts | 2019.02.08
Продолжительность: 03:41
Видео: MPEG2 Video 1920x1080 29.97fps 20.0Mbps
Аудио: AAC 48000Hz stereo 192kbps
MediaInfo

General
ID                             : 1 (0x1)
Complete name                  : T:\MVs\24. 「What Is Love -Japanese ver.-」.ts
Format                         : MPEG-TS
File size                      : 532 MiB
Duration                       : 3 min 40 s
Overall bit rate mode          : Variable
Overall bit rate               : 20.2 Mb/s
Video
ID                             : 256 (0x100)
Menu ID                        : 1 (0x1)
Format                         : MPEG Video
Format version                 : Version 2
Format profile                 : Main@High
Format settings                : CustomMatrix / BVOP
Format settings, BVOP          : Yes
Format settings, Matrix        : Custom
Format settings, GOP           : Variable
Codec ID                       : 2
Duration                       : 3 min 40 s
Bit rate mode                  : Variable
Maximum bit rate               : 24.0 Mb/s
Width                          : 1 920 pixels
Height                         : 1 080 pixels
Display aspect ratio           : 16:9
Frame rate                     : 29.970 (30000/1001) FPS
Color space                    : YUV
Chroma subsampling             : 4:2:0
Bit depth                      : 8 bits
Compression mode               : Lossy
Time code of first frame       : 12:49:26:18
Time code source               : Group of pictures header
GOP, Open/Closed               : Open
Color primaries                : BT.709
Transfer characteristics       : BT.709
Matrix coefficients            : BT.709
Audio
ID                             : 257 (0x101)
Menu ID                        : 1 (0x1)
Format                         : AAC LC
Format/Info                    : Advanced Audio Codec Low Complexity
Format version                 : Version 2
Muxing mode                    : ADTS
Codec ID                       : 15-2
Duration                       : 3 min 40 s
Bit rate mode                  : Variable
Channel(s)                     : 2 channels
Channel layout                 : L R
Sampling rate                  : 48.0 kHz
Frame rate                     : 46.875 FPS (1024 SPF)
Compression mode               : Lossy
Delay relative to video        : -250 ms
Menu
ID                             : 4096 (0x1000)
Menu ID                        : 1 (0x1)
Duration                       : 3 min 40 s
List                           : 256 (0x100) (MPEG Video) / 257 (0x101) (AAC)
Service name                   : Service01
Service provider               : FFmpeg
Service type                   : digital television


Скриншоты





Скринлист




25. FANCY.mp4 | 2019.04.22
Продолжительность: 03:39
Видео: MPEG4 Video (H264) 1920x1080 23.976fps 19020kbps
Аудио: AAC 48000Hz stereo 317kbps
MediaInfo

General
Complete name                  : T:\MVs\25. FANCY.mp4
Format                         : MPEG-4
Format profile                 : Base Media
Codec ID                       : isom (isom/iso2/avc1/mp41)
File size                      : 504 MiB
Duration                       : 3 min 38 s
Overall bit rate               : 19.3 Mb/s
Writing application            : Lavf57.66.102
Video
ID                             : 1
Format                         : AVC
Format/Info                    : Advanced Video Codec
Format profile                 : Main@L5.1
Format settings                : CABAC / 16 Ref Frames
Format settings, CABAC         : Yes
Format settings, Reference fra : 16 frames
Codec ID                       : avc1
Codec ID/Info                  : Advanced Video Coding
Duration                       : 3 min 38 s
Bit rate                       : 19.0 Mb/s
Width                          : 1 920 pixels
Height                         : 1 080 pixels
Display aspect ratio           : 16:9
Frame rate mode                : Constant
Frame rate                     : 23.976 (24000/1001) FPS
Color space                    : YUV
Chroma subsampling             : 4:2:0
Bit depth                      : 8 bits
Scan type                      : Progressive
Bits/(Pixel*Frame)             : 0.382
Stream size                    : 496 MiB (98%)
Writing library                : x264 core 148 r2762 90a61ec
Encoding settings              : cabac=1 / ref=16 / deblock=1:-1:-1 / analyse=0x1:0x131 / me=umh / subme=10 / psy=1 / psy_rd=1.00:0.15 / mixed_ref=1 / me_range=24 / chroma_me=1 / trellis=2 / 8x8dct=0 / cqm=0 / deadzone=21,11 / fast_pskip=1 / chroma_qp_offset=-3 / threads=6 / lookahead_threads=1 / sliced_threads=0 / nr=0 / decimate=1 / interlaced=0 / bluray_compat=0 / constrained_intra=0 / bframes=8 / b_pyramid=2 / b_adapt=2 / b_bias=0 / direct=3 / weightb=1 / open_gop=0 / weightp=2 / keyint=250 / keyint_min=23 / scenecut=40 / intra_refresh=0 / rc_lookahead=60 / rc=2pass / mbtree=1 / bitrate=19000 / ratetol=1.0 / qcomp=0.60 / qpmin=0 / qpmax=69 / qpstep=4 / cplxblur=20.0 / qblur=0.5 / ip_ratio=1.40 / aq=1:1.00
Language                       : English
Codec configuration box        : avcC
Audio
ID                             : 2
Format                         : AAC LC
Format/Info                    : Advanced Audio Codec Low Complexity
Codec ID                       : mp4a-40-2
Duration                       : 3 min 38 s
Duration_LastFrame             : -10 ms
Bit rate mode                  : Constant
Bit rate                       : 317 kb/s
Channel(s)                     : 2 channels
Channel layout                 : L R
Sampling rate                  : 48.0 kHz
Frame rate                     : 46.875 FPS (1024 SPF)
Compression mode               : Lossy
Stream size                    : 8.27 MiB (2%)
Language                       : English
Default                        : Yes
Alternate group                : 1


Скриншоты





Скринлист




26. 「HAPPY HAPPY」.mp4 | 2019.06.12
Продолжительность: 03:27
Видео: MPEG4 Video (H264) 1920x1080 23.976fps 20788kbps
Аудио: AAC 48000Hz stereo 317kbps
MediaInfo

General
Complete name                  : T:\MVs\26. 「HAPPY HAPPY」.mp4
Format                         : MPEG-4
Format profile                 : Base Media / Version 2
Codec ID                       : mp42 (mp42/mp41)
File size                      : 521 MiB
Duration                       : 3 min 26 s
Overall bit rate mode          : Variable
Overall bit rate               : 21.1 Mb/s
Encoded date                   : UTC 2019-07-15 11:03:37
Tagged date                    : UTC 2019-07-15 11:17:13
TIM                            : 00:00:00:00
TSC                            : 24000
TSZ                            : 1001
Video
ID                             : 1
Format                         : AVC
Format/Info                    : Advanced Video Codec
Format profile                 : Main@L4.1
Format settings                : CABAC / 4 Ref Frames
Format settings, CABAC         : Yes
Format settings, Reference fra : 4 frames
Format settings, GOP           : M=4, N=23
Codec ID                       : avc1
Codec ID/Info                  : Advanced Video Coding
Duration                       : 3 min 26 s
Bit rate                       : 20.8 Mb/s
Width                          : 1 920 pixels
Height                         : 1 080 pixels
Display aspect ratio           : 16:9
Frame rate mode                : Constant
Frame rate                     : 23.976 (24000/1001) FPS
Color space                    : YUV
Chroma subsampling             : 4:2:0
Bit depth                      : 8 bits
Scan type                      : Progressive
Bits/(Pixel*Frame)             : 0.418
Stream size                    : 513 MiB (98%)
Language                       : English
Encoded date                   : UTC 2019-07-15 11:03:38
Tagged date                    : UTC 2019-07-15 11:03:38
Color range                    : Limited
Color primaries                : BT.709
Transfer characteristics       : BT.709
Matrix coefficients            : BT.709
Codec configuration box        : avcC
Audio
ID                             : 2
Format                         : AAC LC
Format/Info                    : Advanced Audio Codec Low Complexity
Codec ID                       : mp4a-40-2
Duration                       : 3 min 26 s
Source duration                : 3 min 26 s
Bit rate mode                  : Variable
Bit rate                       : 317 kb/s
Maximum bit rate               : 408 kb/s
Channel(s)                     : 2 channels
Channel layout                 : L R
Sampling rate                  : 48.0 kHz
Frame rate                     : 46.875 FPS (1024 SPF)
Compression mode               : Lossy
Stream size                    : 7.83 MiB (2%)
Source stream size             : 7.83 MiB (2%)
Language                       : English
Encoded date                   : UTC 2019-07-15 11:03:38
Tagged date                    : UTC 2019-07-15 11:03:38


Скриншоты





Скринлист




27. 「Breakthrough」.mp4 | 2019.06.12
Продолжительность: 03:38
Видео: MPEG4 Video (H264) 1920x1080 23.976fps 36600kbps
Аудио: AAC 48000Hz stereo 317kbps
MediaInfo

General
Complete name                  : T:\MVs\27. 「Breakthrough」.mp4
Format                         : MPEG-4
Format profile                 : Base Media / Version 2
Codec ID                       : mp42 (mp42/mp41)
File size                      : 958 MiB
Duration                       : 3 min 37 s
Overall bit rate mode          : Variable
Overall bit rate               : 36.9 Mb/s
Encoded date                   : UTC 2019-07-22 05:55:45
Tagged date                    : UTC 2019-07-22 06:19:24
TIM                            : 00:00:00:00
TSC                            : 24000
TSZ                            : 1001
Video
ID                             : 1
Format                         : AVC
Format/Info                    : Advanced Video Codec
Format profile                 : Main@L4.1
Format settings                : CABAC / 4 Ref Frames
Format settings, CABAC         : Yes
Format settings, Reference fra : 4 frames
Format settings, GOP           : M=4, N=23
Codec ID                       : avc1
Codec ID/Info                  : Advanced Video Coding
Duration                       : 3 min 37 s
Source duration                : 3 min 37 s
Bit rate                       : 36.6 Mb/s
Width                          : 1 920 pixels
Height                         : 1 080 pixels
Display aspect ratio           : 16:9
Frame rate mode                : Constant
Frame rate                     : 23.976 (24000/1001) FPS
Color space                    : YUV
Chroma subsampling             : 4:2:0
Bit depth                      : 8 bits
Scan type                      : Progressive
Bits/(Pixel*Frame)             : 0.736
Stream size                    : 950 MiB (99%)
Source stream size             : 950 MiB (99%)
Language                       : English
Encoded date                   : UTC 2019-07-22 05:55:46
Tagged date                    : UTC 2019-07-22 05:55:46
Color range                    : Limited
Color primaries                : BT.709
Transfer characteristics       : BT.709
Matrix coefficients            : BT.709
Codec configuration box        : avcC
Audio
ID                             : 2
Format                         : AAC LC
Format/Info                    : Advanced Audio Codec Low Complexity
Codec ID                       : mp4a-40-2
Duration                       : 3 min 37 s
Source duration                : 3 min 37 s
Bit rate mode                  : Variable
Bit rate                       : 317 kb/s
Maximum bit rate               : 408 kb/s
Channel(s)                     : 2 channels
Channel layout                 : L R
Sampling rate                  : 48.0 kHz
Frame rate                     : 46.875 FPS (1024 SPF)
Compression mode               : Lossy
Stream size                    : 8.23 MiB (1%)
Source stream size             : 8.24 MiB (1%)
Language                       : English
Encoded date                   : UTC 2019-07-22 05:55:46
Tagged date                    : UTC 2019-07-22 05:55:46


Скриншоты





Скринлист




Продолжение в посте ниже.                                                                                       
                       
                       
                       
                       
                       
                                磁力下载:
                                                               
                                       
游客,本主题需向作者支付 7音乐币 才能浏览,金币充值, 免回复、免金币,直接查看内容请开通VIP支付

                                               
  • 22.25 GB
  • 温馨提示

    记得善用社区搜索功能,那里可能会有你想要的资源;论坛站内搜索

    如果你有什么需要的资源可以去资源求档发帖,求助社区的网友,我们会在第一时间给你回复哦;资源求档

    对于本社区网盘链接失效密码错误各种报错请在反馈板块反馈报错发帖,您的支持,是我们发展的最大动力;投诉建议

    回复

    使用道具 举报

    您需要登录后才可以回帖 登录 | 立即注册 微信登录

    本版积分规则

    关注0

    粉丝14

    帖子86506

    发布主题
    阅读排行更多+
    关闭

    站长推荐上一条 /1 下一条

    收藏帖子 返回列表 这是一个自定义按钮
    音乐分享,音乐下载。
    微信公众号
    微信号:hires_
    意见反馈:admin@maomicd.com

    加入我们的官方QQ群和微信群

    Powered by Discuz! X3.4 Archiver|手机版|小黑屋|捌零音乐论坛 ( 苏ICP备20015413号 )|( 苏公网安备 32030502000272号) 繁體

    GMT+8, 2021-5-6 08:19