自购原抓音乐圈:只有自购、合购、原抓级高解析(hires、sacd、dsd)正版音乐资源分享!【点我打开
极速无线网卡:千兆无线网卡、服务器网卡、USB接口台式机笔记本网卡 硬盘代考无损音乐!【点我打开
广告

[流行音乐] Mylene Farmer 2019 - Le Film [2019, Pop, Blu-ray, 1080i]

[复制链接]
韬199435 发表于 2021-4-13 15:31:14 | 显示全部楼层 |阅读模式 打印 上一主题 下一主题
Mylene Farmer 2019 - Le Film
Жанр: Pop
Продолжительность: 02:08:01
Год выпуска: 2019
Описание: После шестилетнего перерыва Милен Фармер триумфально вернулась на сцену, дав серию концертов в знаменитом парижском La Defense Arena — самом большом зале Европы. В программу вошли как уже любимые публикой хиты, так и песни из нового альбома.
Треклист:
01. Coming from the Vortex
02. Interstellaires
03. Sans logique
04. Rolling Stone
05. Pourvu qu'elles soient douces
06. Stolen Car
07. Des larmes
08. California
09. M'effondre
10. L'âme-stram-gram
11. Hard Hip Hop
12. Un jour ou l'autre
13. Ainsi soit je...
14. Innamoramento
15. Sans contrefaçon
16. Histoires de fesses
17. Sentimentale
18. Désenchantée
19. Rêver
20. Je te rends ton amour
21. Fuck Them All / C'est dans l'air
22. L'horloge
23. Générique de fin
Качество: Blu-ray
Разрешение видео/развертка: 1080i
Контейнер: BDMV
Видео: MPEG-4 AVC Video / 27997 kbps / 1080i / 25 fps / 16:9 / High Profile 4.1
Аудио: French / LPCM Audio / 2.0 / 96 kHz / 4608 kbps / 24-bit
Аудио 2: French / DTS-HD Master Audio / 7.1 / 96 kHz / 10192 kbps / 24-bit (DTS Core: 5.1 / 48 kHz / 1509 kbps / 24-bit)
Отчёт BDInfo

Disc Title:     Mylène Farmer 2019
Disc Label:     MF19
Disc Size:      44,075,363,927 bytes
Protection:     AACS
Extras:         50Hz Content
BDInfo:         0.7.5.5
Notes:
BDINFO HOME:
  Cinema Squid (old)
    http://www.cinemasquid.com/blu-ray/tools/bdinfo
  UniqProject GitHub (new)
   https://github.com/UniqProject/BDInfo
INCLUDES FORUMS REPORT FOR:
  AVS Forum Blu-ray Audio and Video Specifications Thread
    http://www.avsforum.com/avs-vb/showthread.php?t=1155731
********************
PLAYLIST: 00000.MPLS
********************

Код:

                                                                                Total   Video
Title                                                           Codec   Length  Movie Size      Disc Size       Bitrate Bitrate Main Audio Track                          Secondary Audio Track
-----                                                           ------  ------- --------------  --------------  ------- ------- ------------------                        ---------------------
00000.MPLS                                                      AVC     2:08:01 43,283,085,312  44,075,363,927  45.08   28.00   LPCM 2.0 4608Kbps (96kHz/24-bit)          DTS-HD Master 7.1 10192Kbps (96kHz/24-bit)

Код:
DISC INFO:
Disc Title:     Mylène Farmer 2019
Disc Label:     MF19
Disc Size:      44,075,363,927 bytes
Protection:     AACS
Extras:         50Hz Content
BDInfo:         0.7.5.5
PLAYLIST REPORT:
Name:                   00000.MPLS
Length:                 2:08:01.440 (h:m:s.ms)
Size:                   43,283,085,312 bytes
Total Bitrate:          45.08 Mbps
VIDEO:
Codec                   Bitrate             Description
-----                   -------             -----------
MPEG-4 AVC Video        27997 kbps          1080i / 25 fps / 16:9 / High Profile 4.1
AUDIO:
Codec                           Language        Bitrate         Description
-----                           --------        -------         -----------
LPCM Audio                      French          4608 kbps       2.0 / 96 kHz /  4608 kbps / 24-bit
DTS-HD Master Audio             French          10192 kbps      7.1 / 96 kHz / 10192 kbps / 24-bit (DTS Core: 5.1 / 48 kHz /  1509 kbps / 24-bit)
FILES:
Name            Time In         Length          Size            Total Bitrate
----            -------         ------          ----            -------------
00000.M2TS      0:00:00.000     2:08:01.440     43,283,085,312  45,078
CHAPTERS:
Number          Time In         Length          Avg Video Rate  Max 1-Sec Rate  Max 1-Sec Time  Max 5-Sec Rate  Max 5-Sec Time  Max 10Sec Rate  Max 10Sec Time  Avg Frame Size  Max Frame Size  Max Frame Time
------          -------         ------          --------------  --------------  --------------  --------------  --------------  --------------  --------------  --------------  --------------  --------------
1               0:00:00.000     0:09:01.400     25,871 kbps     41,372 kbps     00:01:09.640    33,256 kbps     00:01:30.360    31,490 kbps     00:04:25.320    129,338 bytes   676,401 bytes   00:00:36.000
2               0:09:01.400     0:03:45.320     29,048 kbps     42,638 kbps     00:11:12.160    31,710 kbps     00:11:08.040    31,178 kbps     00:11:06.480    145,238 bytes   620,298 bytes   00:11:39.000
3               0:12:46.720     0:03:50.600     27,789 kbps     43,721 kbps     00:15:28.640    32,050 kbps     00:14:03.000    31,512 kbps     00:15:43.960    138,968 bytes   705,240 bytes   00:15:44.000
4               0:16:37.320     0:03:46.439     29,527 kbps     37,692 kbps     00:17:16.960    31,383 kbps     00:20:13.480    30,991 kbps     00:19:04.960    147,637 bytes   699,466 bytes   00:20:05.000
5               0:20:23.760     0:05:34.319     29,544 kbps     39,970 kbps     00:22:37.960    32,407 kbps     00:21:03.320    31,290 kbps     00:21:04.800    147,703 bytes   685,629 bytes   00:25:47.000
6               0:25:58.080     0:03:38.960     29,698 kbps     38,036 kbps     00:26:03.000    31,231 kbps     00:28:34.440    30,876 kbps     00:26:16.960    148,518 bytes   594,820 bytes   00:29:31.000
7               0:29:37.040     0:04:33.960     29,740 kbps     40,346 kbps     00:30:47.640    31,342 kbps     00:31:33.920    30,963 kbps     00:32:06.960    148,702 bytes   575,221 bytes   00:30:48.000
8               0:34:11.000     0:06:09.600     28,992 kbps     38,818 kbps     00:37:26.960    31,714 kbps     00:36:46.960    31,081 kbps     00:38:17.480    144,958 bytes   663,285 bytes   00:40:02.000
9               0:40:20.600     0:03:36.559     29,433 kbps     41,909 kbps     00:43:13.640    31,380 kbps     00:43:13.800    30,983 kbps     00:42:13.960    147,164 bytes   672,363 bytes   00:41:45.000
10              0:43:57.160     0:04:04.720     29,763 kbps     43,108 kbps     00:47:22.160    31,650 kbps     00:44:02.520    31,284 kbps     00:47:13.160    148,789 bytes   678,142 bytes   00:45:25.000
11              0:48:01.880     0:03:47.159     29,558 kbps     43,196 kbps     00:50:17.359    32,347 kbps     00:50:15.520    31,278 kbps     00:51:06.319    147,816 bytes   671,138 bytes   00:50:30.000
12              0:51:49.040     0:05:29.239     29,971 kbps     39,880 kbps     00:51:57.640    31,473 kbps     00:51:57.520    30,858 kbps     00:51:57.640    149,856 bytes   644,786 bytes   00:53:08.000
13              0:57:18.280     0:06:35.560     29,064 kbps     35,601 kbps     01:02:44.160    31,539 kbps     01:03:32.160    31,026 kbps     01:02:20.960    145,318 bytes   691,792 bytes   01:00:36.000
14              1:03:53.840     0:06:47.079     29,594 kbps     38,473 kbps     01:10:10.320    31,440 kbps     01:10:10.200    31,040 kbps     01:10:04.800    147,971 bytes   665,480 bytes   01:07:55.000
15              1:10:40.920     0:06:59.119     29,458 kbps     40,915 kbps     01:14:46.960    32,207 kbps     01:14:43.040    31,085 kbps     01:14:41.960    147,290 bytes   686,377 bytes   01:15:45.000
16              1:17:40.040     0:03:25.560     29,707 kbps     39,356 kbps     01:20:21.960    32,038 kbps     01:20:06.160    31,032 kbps     01:20:27.800    148,536 bytes   710,110 bytes   01:18:33.000
17              1:21:05.600     0:03:16.559     28,776 kbps     38,760 kbps     01:21:54.960    32,205 kbps     01:21:50.800    31,207 kbps     01:21:57.960    143,881 bytes   687,851 bytes   01:23:45.000
18              1:24:22.160     0:12:09.160     26,777 kbps     41,897 kbps     01:25:39.960    32,318 kbps     01:35:15.160    31,440 kbps     01:31:54.960    133,884 bytes   701,788 bytes   01:29:23.000
19              1:36:31.320     0:06:53.599     27,767 kbps     38,979 kbps     01:43:21.320    31,607 kbps     01:41:30.280    30,875 kbps     01:39:49.960    138,836 bytes   645,123 bytes   01:43:12.000
20              1:43:24.920     0:05:29.119     26,711 kbps     38,940 kbps     01:46:10.800    31,526 kbps     01:44:44.440    31,252 kbps     01:46:56.800    133,553 bytes   664,636 bytes   01:46:28.000
21              1:48:54.040     0:06:48.720     26,819 kbps     40,991 kbps     01:50:13.640    32,201 kbps     01:54:25.160    31,128 kbps     01:53:31.640    134,093 bytes   807,334 bytes   01:54:38.000
22              1:55:42.760     0:07:39.439     25,119 kbps     36,202 kbps     02:01:28.000    31,425 kbps     02:01:26.000    31,057 kbps     02:02:21.160    125,596 bytes   649,652 bytes   01:56:11.000
23              2:03:22.200     0:04:39.240     21,394 kbps     38,589 kbps     02:06:32.960    31,428 kbps     02:03:54.000    30,913 kbps     02:04:10.960    106,999 bytes   752,886 bytes   02:04:28.000
STREAM DIAGNOSTICS:
File            PID             Type            Codec           Language                Seconds                 Bitrate                 Bytes           Packets
----            ---             ----            -----           --------                --------------          --------------          -------------   -----
00000.M2TS      4113 (0x1011)   0x1B            AVC                                     7681.320                27,997                  26,882,187,657  146,211,697
00000.M2TS      4352 (0x1100)   0x80            LPCM            fra (French)            7681.320                4,614                   4,430,654,592   24,580,608
00000.M2TS      4353 (0x1101)   0x86            DTS-HD MA       fra (French)            7681.320                10,192                  9,785,681,052   54,383,069


QUICK SUMMARY:
Disc Title: Mylène Farmer 2019
Disc Label: MF19
Disc Size: 44,075,363,927 bytes
Protection: AACS
Playlist: 00000.MPLS
Size: 43,283,085,312 bytes
Length: 2:08:01.440
Total Bitrate: 45.08 Mbps
Video: MPEG-4 AVC Video / 27997 kbps / 1080i / 25 fps / 16:9 / High Profile 4.1
Audio: French / LPCM Audio / 2.0 / 96 kHz /  4608 kbps / 24-bit
Audio: French / DTS-HD Master Audio / 7.1 / 96 kHz / 10192 kbps / 24-bit (DTS Core: 5.1 / 48 kHz /  1509 kbps / 24-bit)
********************
PLAYLIST: 00006.MPLS
********************

Код:

                                                                                Total   Video
Title                                                           Codec   Length  Movie Size      Disc Size       Bitrate Bitrate Main Audio Track                          Secondary Audio Track
-----                                                           ------  ------- --------------  --------------  ------- ------- ------------------                        ---------------------
00006.MPLS                                                      AVC     2:08:01 43,283,085,312  44,075,363,927  45.08   28.00   LPCM 2.0 4608Kbps (96kHz/24-bit)          DTS-HD Master 7.1 10192Kbps (96kHz/24-bit)

Код:
DISC INFO:
Disc Title:     Mylène Farmer 2019
Disc Label:     MF19
Disc Size:      44,075,363,927 bytes
Protection:     AACS
Extras:         50Hz Content
BDInfo:         0.7.5.5
PLAYLIST REPORT:
Name:                   00006.MPLS
Length:                 2:08:01.440 (h:m:s.ms)
Size:                   43,283,085,312 bytes
Total Bitrate:          45.08 Mbps
VIDEO:
Codec                   Bitrate             Description
-----                   -------             -----------
MPEG-4 AVC Video        27997 kbps          1080i / 25 fps / 16:9 / High Profile 4.1
AUDIO:
Codec                           Language        Bitrate         Description
-----                           --------        -------         -----------
LPCM Audio                      French          4608 kbps       2.0 / 96 kHz /  4608 kbps / 24-bit
DTS-HD Master Audio             French          10192 kbps      7.1 / 96 kHz / 10192 kbps / 24-bit (DTS Core: 5.1 / 48 kHz /  1509 kbps / 24-bit)
FILES:
Name            Time In         Length          Size            Total Bitrate
----            -------         ------          ----            -------------
00000.M2TS      0:00:00.000     2:08:01.440     43,283,085,312  45,078
CHAPTERS:
Number          Time In         Length          Avg Video Rate  Max 1-Sec Rate  Max 1-Sec Time  Max 5-Sec Rate  Max 5-Sec Time  Max 10Sec Rate  Max 10Sec Time  Avg Frame Size  Max Frame Size  Max Frame Time
------          -------         ------          --------------  --------------  --------------  --------------  --------------  --------------  --------------  --------------  --------------  --------------
1               0:00:00.000     0:09:01.400     25,871 kbps     41,372 kbps     00:01:09.640    33,256 kbps     00:01:30.360    31,490 kbps     00:04:25.320    129,338 bytes   676,401 bytes   00:00:36.000
2               0:09:01.400     0:03:45.320     29,048 kbps     42,638 kbps     00:11:12.160    31,710 kbps     00:11:08.040    31,178 kbps     00:11:06.480    145,238 bytes   620,298 bytes   00:11:39.000
3               0:12:46.720     0:03:50.600     27,789 kbps     43,721 kbps     00:15:28.640    32,050 kbps     00:14:03.000    31,512 kbps     00:15:43.960    138,968 bytes   705,240 bytes   00:15:44.000
4               0:16:37.320     0:03:46.439     29,527 kbps     37,692 kbps     00:17:16.960    31,383 kbps     00:20:13.480    30,991 kbps     00:19:04.960    147,637 bytes   699,466 bytes   00:20:05.000
5               0:20:23.760     0:05:34.319     29,544 kbps     39,970 kbps     00:22:37.960    32,407 kbps     00:21:03.320    31,290 kbps     00:21:04.800    147,703 bytes   685,629 bytes   00:25:47.000
6               0:25:58.080     0:03:38.960     29,698 kbps     38,036 kbps     00:26:03.000    31,231 kbps     00:28:34.440    30,876 kbps     00:26:16.960    148,518 bytes   594,820 bytes   00:29:31.000
7               0:29:37.040     0:04:33.960     29,740 kbps     40,346 kbps     00:30:47.640    31,342 kbps     00:31:33.920    30,963 kbps     00:32:06.960    148,702 bytes   575,221 bytes   00:30:48.000
8               0:34:11.000     0:06:09.600     28,992 kbps     38,818 kbps     00:37:26.960    31,714 kbps     00:36:46.960    31,081 kbps     00:38:17.480    144,958 bytes   663,285 bytes   00:40:02.000
9               0:40:20.600     0:03:36.559     29,433 kbps     41,909 kbps     00:43:13.640    31,380 kbps     00:43:13.800    30,983 kbps     00:42:13.960    147,164 bytes   672,363 bytes   00:41:45.000
10              0:43:57.160     0:04:04.720     29,763 kbps     43,108 kbps     00:47:22.160    31,650 kbps     00:44:02.520    31,284 kbps     00:47:13.160    148,789 bytes   678,142 bytes   00:45:25.000
11              0:48:01.880     0:03:47.159     29,558 kbps     43,196 kbps     00:50:17.359    32,347 kbps     00:50:15.520    31,278 kbps     00:51:06.319    147,816 bytes   671,138 bytes   00:50:30.000
12              0:51:49.040     0:05:29.239     29,971 kbps     39,880 kbps     00:51:57.640    31,473 kbps     00:51:57.520    30,858 kbps     00:51:57.640    149,856 bytes   644,786 bytes   00:53:08.000
13              0:57:18.280     0:06:35.560     29,064 kbps     35,601 kbps     01:02:44.160    31,539 kbps     01:03:32.160    31,026 kbps     01:02:20.960    145,318 bytes   691,792 bytes   01:00:36.000
14              1:03:53.840     0:06:47.079     29,594 kbps     38,473 kbps     01:10:10.320    31,440 kbps     01:10:10.200    31,040 kbps     01:10:04.800    147,971 bytes   665,480 bytes   01:07:55.000
15              1:10:40.920     0:06:59.119     29,458 kbps     40,915 kbps     01:14:46.960    32,207 kbps     01:14:43.040    31,085 kbps     01:14:41.960    147,290 bytes   686,377 bytes   01:15:45.000
16              1:17:40.040     0:03:25.560     29,707 kbps     39,356 kbps     01:20:21.960    32,038 kbps     01:20:06.160    31,032 kbps     01:20:27.800    148,536 bytes   710,110 bytes   01:18:33.000
17              1:21:05.600     0:03:16.559     28,776 kbps     38,760 kbps     01:21:54.960    32,205 kbps     01:21:50.800    31,207 kbps     01:21:57.960    143,881 bytes   687,851 bytes   01:23:45.000
18              1:24:22.160     0:12:09.160     26,777 kbps     41,897 kbps     01:25:39.960    32,318 kbps     01:35:15.160    31,440 kbps     01:31:54.960    133,884 bytes   701,788 bytes   01:29:23.000
19              1:36:31.320     0:06:53.599     27,767 kbps     38,979 kbps     01:43:21.320    31,607 kbps     01:41:30.280    30,875 kbps     01:39:49.960    138,836 bytes   645,123 bytes   01:43:12.000
20              1:43:24.920     0:05:29.119     26,711 kbps     38,940 kbps     01:46:10.800    31,526 kbps     01:44:44.440    31,252 kbps     01:46:56.800    133,553 bytes   664,636 bytes   01:46:28.000
21              1:48:54.040     0:06:48.720     26,819 kbps     40,991 kbps     01:50:13.640    32,201 kbps     01:54:25.160    31,128 kbps     01:53:31.640    134,093 bytes   807,334 bytes   01:54:38.000
22              1:55:42.760     0:07:39.439     25,119 kbps     36,202 kbps     02:01:28.000    31,425 kbps     02:01:26.000    31,057 kbps     02:02:21.160    125,596 bytes   649,652 bytes   01:56:11.000
23              2:03:22.200     0:04:39.240     21,394 kbps     38,589 kbps     02:06:32.960    31,428 kbps     02:03:54.000    30,913 kbps     02:04:10.960    106,999 bytes   752,886 bytes   02:04:28.000
STREAM DIAGNOSTICS:
File            PID             Type            Codec           Language                Seconds                 Bitrate                 Bytes           Packets
----            ---             ----            -----           --------                --------------          --------------          -------------   -----
00000.M2TS      4113 (0x1011)   0x1B            AVC                                     7681.320                27,997                  26,882,187,657  146,211,697
00000.M2TS      4352 (0x1100)   0x80            LPCM            fra (French)            7681.320                4,614                   4,430,654,592   24,580,608
00000.M2TS      4353 (0x1101)   0x86            DTS-HD MA       fra (French)            7681.320                10,192                  9,785,681,052   54,383,069


QUICK SUMMARY:
Disc Title: Mylène Farmer 2019
Disc Label: MF19
Disc Size: 44,075,363,927 bytes
Protection: AACS
Playlist: 00006.MPLS
Size: 43,283,085,312 bytes
Length: 2:08:01.440
Total Bitrate: 45.08 Mbps
Video: MPEG-4 AVC Video / 27997 kbps / 1080i / 25 fps / 16:9 / High Profile 4.1
Audio: French / LPCM Audio / 2.0 / 96 kHz /  4608 kbps / 24-bit
Audio: French / DTS-HD Master Audio / 7.1 / 96 kHz / 10192 kbps / 24-bit (DTS Core: 5.1 / 48 kHz /  1509 kbps / 24-bit)
********************
PLAYLIST: 00003.MPLS
********************

Код:

                                                                                Total   Video
Title                                                           Codec   Length  Movie Size      Disc Size       Bitrate Bitrate Main Audio Track                          Secondary Audio Track
-----                                                           ------  ------- --------------  --------------  ------- ------- ------------------                        ---------------------
00003.MPLS                                                      AVC     0:01:15 175,509,504     44,075,363,927  18.71   16.06   DTS-HD Master 2.0 1658Kbps (48kHz/24-bit)

Код:
DISC INFO:
Disc Title:     Mylène Farmer 2019
Disc Label:     MF19
Disc Size:      44,075,363,927 bytes
Protection:     AACS
Extras:         50Hz Content
BDInfo:         0.7.5.5
PLAYLIST REPORT:
Name:                   00003.MPLS
Length:                 0:01:15.040 (h:m:s.ms)
Size:                   175,509,504 bytes
Total Bitrate:          18.71 Mbps
VIDEO:
Codec                   Bitrate             Description
-----                   -------             -----------
MPEG-4 AVC Video        16064 kbps          1080i / 25 fps / 16:9 / High Profile 4.1
AUDIO:
Codec                           Language        Bitrate         Description
-----                           --------        -------         -----------
DTS-HD Master Audio             French          1658 kbps       2.0 / 48 kHz /  1658 kbps / 24-bit (DTS Core: 2.0 / 48 kHz /   768 kbps / 24-bit)
FILES:
Name            Time In         Length          Size            Total Bitrate
----            -------         ------          ----            -------------
00003.M2TS      0:00:00.000     0:01:15.040     175,509,504     18,711
CHAPTERS:
Number          Time In         Length          Avg Video Rate  Max 1-Sec Rate  Max 1-Sec Time  Max 5-Sec Rate  Max 5-Sec Time  Max 10Sec Rate  Max 10Sec Time  Avg Frame Size  Max Frame Size  Max Frame Time
------          -------         ------          --------------  --------------  --------------  --------------  --------------  --------------  --------------  --------------  --------------  --------------
1               0:00:00.000     0:01:15.040     16,064 kbps     32,503 kbps     00:00:50.520    24,502 kbps     00:00:18.599    21,587 kbps     00:00:18.600    80,320 bytes    564,864 bytes   00:00:18.640
STREAM DIAGNOSTICS:
File            PID             Type            Codec           Language                Seconds                 Bitrate                 Bytes           Packets
----            ---             ----            -----           --------                --------------          --------------          -------------   -----
00003.M2TS      4113 (0x1011)   0x1B            AVC                                     74.880                  16,098                  150,680,818     820,073
00003.M2TS      4352 (0x1100)   0x86            DTS-HD MA       fra (French)            74.880                  1,662                   15,555,880      91,492


QUICK SUMMARY:
Disc Title: Mylène Farmer 2019
Disc Label: MF19
Disc Size: 44,075,363,927 bytes
Protection: AACS
Playlist: 00003.MPLS
Size: 175,509,504 bytes
Length: 0:01:15.040
Total Bitrate: 18.71 Mbps
Video: MPEG-4 AVC Video / 16064 kbps / 1080i / 25 fps / 16:9 / High Profile 4.1
Audio: French / DTS-HD Master Audio / 2.0 / 48 kHz /  1658 kbps / 24-bit (DTS Core: 2.0 / 48 kHz /   768 kbps / 24-bit)
********************
PLAYLIST: 00008.MPLS
********************

Код:

                                                                                Total   Video
Title                                                           Codec   Length  Movie Size      Disc Size       Bitrate Bitrate Main Audio Track                          Secondary Audio Track
-----                                                           ------  ------- --------------  --------------  ------- ------- ------------------                        ---------------------
00008.MPLS                                                      AVC     0:01:05 232,187,904     44,075,363,927  28.58   25.18   DTS-HD Master 2.0 1979Kbps (48kHz/24-bit)

Код:
DISC INFO:
Disc Title:     Mylène Farmer 2019
Disc Label:     MF19
Disc Size:      44,075,363,927 bytes
Protection:     AACS
Extras:         50Hz Content
BDInfo:         0.7.5.5
PLAYLIST REPORT:
Name:                   00008.MPLS
Length:                 0:01:05.000 (h:m:s.ms)
Size:                   232,187,904 bytes
Total Bitrate:          28.58 Mbps
VIDEO:
Codec                   Bitrate             Description
-----                   -------             -----------
MPEG-4 AVC Video        25179 kbps          1080i / 25 fps / 16:9 / High Profile 4.1
AUDIO:
Codec                           Language        Bitrate         Description
-----                           --------        -------         -----------
DTS-HD Master Audio             French          1979 kbps       2.0 / 48 kHz /  1979 kbps / 24-bit (DTS Core: 2.0 / 48 kHz /   768 kbps / 24-bit)
FILES:
Name            Time In         Length          Size            Total Bitrate
----            -------         ------          ----            -------------
00007.M2TS      0:00:00.000     0:01:05.000     232,187,904     28,577
CHAPTERS:
Number          Time In         Length          Avg Video Rate  Max 1-Sec Rate  Max 1-Sec Time  Max 5-Sec Rate  Max 5-Sec Time  Max 10Sec Rate  Max 10Sec Time  Avg Frame Size  Max Frame Size  Max Frame Time
------          -------         ------          --------------  --------------  --------------  --------------  --------------  --------------  --------------  --------------  --------------  --------------
1               0:00:00.000     0:01:05.000     25,179 kbps     40,494 kbps     00:00:11.320    32,042 kbps     00:00:11.119    31,272 kbps     00:00:11.320    125,896 bytes   657,434 bytes   00:00:14.000
STREAM DIAGNOSTICS:
File            PID             Type            Codec           Language                Seconds                 Bitrate                 Bytes           Packets
----            ---             ----            -----           --------                --------------          --------------          -------------   -----
00007.M2TS      4113 (0x1011)   0x1B            AVC                                     64.840                  25,241                  204,581,109     1,112,820
00007.M2TS      4352 (0x1100)   0x86            DTS-HD MA       fra (French)            64.840                  1,984                   16,083,212      94,274


QUICK SUMMARY:
Disc Title: Mylène Farmer 2019
Disc Label: MF19
Disc Size: 44,075,363,927 bytes
Protection: AACS
Playlist: 00008.MPLS
Size: 232,187,904 bytes
Length: 0:01:05.000
Total Bitrate: 28.58 Mbps
Video: MPEG-4 AVC Video / 25179 kbps / 1080i / 25 fps / 16:9 / High Profile 4.1
Audio: French / DTS-HD Master Audio / 2.0 / 48 kHz /  1979 kbps / 24-bit (DTS Core: 2.0 / 48 kHz /   768 kbps / 24-bit)
********************
PLAYLIST: 00010.MPLS
********************

Код:

                                                                                Total   Video
Title                                                           Codec   Length  Movie Size      Disc Size       Bitrate Bitrate Main Audio Track                          Secondary Audio Track
-----                                                           ------  ------- --------------  --------------  ------- ------- ------------------                        ---------------------
00010.MPLS                                                      AVC     0:01:05 232,187,904     44,075,363,927  28.58   25.18   DTS-HD Master 2.0 1979Kbps (48kHz/24-bit)

Код:
DISC INFO:
Disc Title:     Mylène Farmer 2019
Disc Label:     MF19
Disc Size:      44,075,363,927 bytes
Protection:     AACS
Extras:         50Hz Content
BDInfo:         0.7.5.5
PLAYLIST REPORT:
Name:                   00010.MPLS
Length:                 0:01:05.000 (h:m:s.ms)
Size:                   232,187,904 bytes
Total Bitrate:          28.58 Mbps
VIDEO:
Codec                   Bitrate             Description
-----                   -------             -----------
MPEG-4 AVC Video        25179 kbps          1080i / 25 fps / 16:9 / High Profile 4.1
AUDIO:
Codec                           Language        Bitrate         Description
-----                           --------        -------         -----------
DTS-HD Master Audio             French          1979 kbps       2.0 / 48 kHz /  1979 kbps / 24-bit (DTS Core: 2.0 / 48 kHz /   768 kbps / 24-bit)
FILES:
Name            Time In         Length          Size            Total Bitrate
----            -------         ------          ----            -------------
00007.M2TS      0:00:00.000     0:01:05.000     232,187,904     28,577
CHAPTERS:
Number          Time In         Length          Avg Video Rate  Max 1-Sec Rate  Max 1-Sec Time  Max 5-Sec Rate  Max 5-Sec Time  Max 10Sec Rate  Max 10Sec Time  Avg Frame Size  Max Frame Size  Max Frame Time
------          -------         ------          --------------  --------------  --------------  --------------  --------------  --------------  --------------  --------------  --------------  --------------
1               0:00:00.000     0:01:05.000     25,179 kbps     40,494 kbps     00:00:11.320    32,042 kbps     00:00:11.119    31,272 kbps     00:00:11.320    125,896 bytes   657,434 bytes   00:00:14.000
STREAM DIAGNOSTICS:
File            PID             Type            Codec           Language                Seconds                 Bitrate                 Bytes           Packets
----            ---             ----            -----           --------                --------------          --------------          -------------   -----
00007.M2TS      4113 (0x1011)   0x1B            AVC                                     64.840                  25,241                  204,581,109     1,112,820
00007.M2TS      4352 (0x1100)   0x86            DTS-HD MA       fra (French)            64.840                  1,984                   16,083,212      94,274


QUICK SUMMARY:
Disc Title: Mylène Farmer 2019
Disc Label: MF19
Disc Size: 44,075,363,927 bytes
Protection: AACS
Playlist: 00010.MPLS
Size: 232,187,904 bytes
Length: 0:01:05.000
Total Bitrate: 28.58 Mbps
Video: MPEG-4 AVC Video / 25179 kbps / 1080i / 25 fps / 16:9 / High Profile 4.1
Audio: French / DTS-HD Master Audio / 2.0 / 48 kHz /  1979 kbps / 24-bit (DTS Core: 2.0 / 48 kHz /   768 kbps / 24-bit)
********************
PLAYLIST: 00002.MPLS
********************

Код:

                                                                                Total   Video
Title                                                           Codec   Length  Movie Size      Disc Size       Bitrate Bitrate Main Audio Track                          Secondary Audio Track
-----                                                           ------  ------- --------------  --------------  ------- ------- ------------------                        ---------------------
00002.MPLS                                                      AVC     0:01:00 236,599,296     44,075,363,927  31.53   28.35   DTS-HD Master 2.0 1650Kbps (48kHz/24-bit)

Код:
DISC INFO:
Disc Title:     Mylène Farmer 2019
Disc Label:     MF19
Disc Size:      44,075,363,927 bytes
Protection:     AACS
Extras:         50Hz Content
BDInfo:         0.7.5.5
PLAYLIST REPORT:
Name:                   00002.MPLS
Length:                 0:01:00.040 (h:m:s.ms)
Size:                   236,599,296 bytes
Total Bitrate:          31.53 Mbps
VIDEO:
Codec                   Bitrate             Description
-----                   -------             -----------
MPEG-4 AVC Video        28354 kbps          1080i / 25 fps / 16:9 / High Profile 4.1
AUDIO:
Codec                           Language        Bitrate         Description
-----                           --------        -------         -----------
DTS-HD Master Audio             French          1650 kbps       2.0 / 48 kHz /  1650 kbps / 24-bit (DTS Core: 2.0 / 48 kHz /   768 kbps / 24-bit)
FILES:
Name            Time In         Length          Size            Total Bitrate
----            -------         ------          ----            -------------
00002.M2TS      0:00:00.000     0:01:00.040     236,599,296     31,526
CHAPTERS:
Number          Time In         Length          Avg Video Rate  Max 1-Sec Rate  Max 1-Sec Time  Max 5-Sec Rate  Max 5-Sec Time  Max 10Sec Rate  Max 10Sec Time  Avg Frame Size  Max Frame Size  Max Frame Time
------          -------         ------          --------------  --------------  --------------  --------------  --------------  --------------  --------------  --------------  --------------  --------------
1               0:00:00.000     0:01:00.040     28,354 kbps     49,023 kbps     00:00:47.360    37,839 kbps     00:00:46.679    33,856 kbps     00:00:39.920    141,772 bytes   612,749 bytes   00:00:41.240
STREAM DIAGNOSTICS:
File            PID             Type            Codec           Language                Seconds                 Bitrate                 Bytes           Packets
----            ---             ----            -----           --------                --------------          --------------          -------------   -----
00002.M2TS      4113 (0x1011)   0x1B            AVC                                     59.880                  28,430                  212,799,111     1,157,384
00002.M2TS      4352 (0x1100)   0x86            DTS-HD MA       fra (French)            59.880                  1,655                   12,385,924      72,872


QUICK SUMMARY:
Disc Title: Mylène Farmer 2019
Disc Label: MF19
Disc Size: 44,075,363,927 bytes
Protection: AACS
Playlist: 00002.MPLS
Size: 236,599,296 bytes
Length: 0:01:00.040
Total Bitrate: 31.53 Mbps
Video: MPEG-4 AVC Video / 28354 kbps / 1080i / 25 fps / 16:9 / High Profile 4.1
Audio: French / DTS-HD Master Audio / 2.0 / 48 kHz /  1650 kbps / 24-bit (DTS Core: 2.0 / 48 kHz /   768 kbps / 24-bit)
********************
PLAYLIST: 00007.MPLS
********************

Код:

                                                                                Total   Video
Title                                                           Codec   Length  Movie Size      Disc Size       Bitrate Bitrate Main Audio Track                          Secondary Audio Track
-----                                                           ------  ------- --------------  --------------  ------- ------- ------------------                        ---------------------
00007.MPLS                                                      AVC     0:00:41 139,886,592     44,075,363,927  27.11   23.95   DTS-HD Master 2.0 1837Kbps (48kHz/24-bit)

Код:
DISC INFO:
Disc Title:     Mylène Farmer 2019
Disc Label:     MF19
Disc Size:      44,075,363,927 bytes
Protection:     AACS
Extras:         50Hz Content
BDInfo:         0.7.5.5
PLAYLIST REPORT:
Name:                   00007.MPLS
Length:                 0:00:41.280 (h:m:s.ms)
Size:                   139,886,592 bytes
Total Bitrate:          27.11 Mbps
VIDEO:
Codec                   Bitrate             Description
-----                   -------             -----------
MPEG-4 AVC Video        23949 kbps          1080i / 25 fps / 16:9 / High Profile 4.1
AUDIO:
Codec                           Language        Bitrate         Description
-----                           --------        -------         -----------
DTS-HD Master Audio             French          1837 kbps       2.0 / 48 kHz /  1837 kbps / 24-bit (DTS Core: 2.0 / 48 kHz /   768 kbps / 24-bit)
FILES:
Name            Time In         Length          Size            Total Bitrate
----            -------         ------          ----            -------------
00006.M2TS      0:00:00.000     0:00:41.280     139,886,592     27,110
CHAPTERS:
Number          Time In         Length          Avg Video Rate  Max 1-Sec Rate  Max 1-Sec Time  Max 5-Sec Rate  Max 5-Sec Time  Max 10Sec Rate  Max 10Sec Time  Avg Frame Size  Max Frame Size  Max Frame Time
------          -------         ------          --------------  --------------  --------------  --------------  --------------  --------------  --------------  --------------  --------------  --------------
1               0:00:00.000     0:00:41.280     23,949 kbps     43,266 kbps     00:00:31.480    32,319 kbps     00:00:22.319    31,150 kbps     00:00:22.320    119,745 bytes   725,234 bytes   00:00:12.039
STREAM DIAGNOSTICS:
File            PID             Type            Codec           Language                Seconds                 Bitrate                 Bytes           Packets
----            ---             ----            -----           --------                --------------          --------------          -------------   -----
00006.M2TS      4113 (0x1011)   0x1B            AVC                                     41.160                  24,019                  123,577,336     672,206
00006.M2TS      4352 (0x1100)   0x86            DTS-HD MA       fra (French)            41.160                  1,842                   9,476,780       54,938


QUICK SUMMARY:
Disc Title: Mylène Farmer 2019
Disc Label: MF19
Disc Size: 44,075,363,927 bytes
Protection: AACS
Playlist: 00007.MPLS
Size: 139,886,592 bytes
Length: 0:00:41.280
Total Bitrate: 27.11 Mbps
Video: MPEG-4 AVC Video / 23949 kbps / 1080i / 25 fps / 16:9 / High Profile 4.1
Audio: French / DTS-HD Master Audio / 2.0 / 48 kHz /  1837 kbps / 24-bit (DTS Core: 2.0 / 48 kHz /   768 kbps / 24-bit)
********************
PLAYLIST: 00009.MPLS
********************

Код:

                                                                                Total   Video
Title                                                           Codec   Length  Movie Size      Disc Size       Bitrate Bitrate Main Audio Track                          Secondary Audio Track
-----                                                           ------  ------- --------------  --------------  ------- ------- ------------------                        ---------------------
00009.MPLS                                                      AVC     0:00:41 139,886,592     44,075,363,927  27.11   23.95   DTS-HD Master 2.0 1837Kbps (48kHz/24-bit)

Код:
DISC INFO:
Disc Title:     Mylène Farmer 2019
Disc Label:     MF19
Disc Size:      44,075,363,927 bytes
Protection:     AACS
Extras:         50Hz Content
BDInfo:         0.7.5.5
PLAYLIST REPORT:
Name:                   00009.MPLS
Length:                 0:00:41.280 (h:m:s.ms)
Size:                   139,886,592 bytes
Total Bitrate:          27.11 Mbps
VIDEO:
Codec                   Bitrate             Description
-----                   -------             -----------
MPEG-4 AVC Video        23949 kbps          1080i / 25 fps / 16:9 / High Profile 4.1
AUDIO:
Codec                           Language        Bitrate         Description
-----                           --------        -------         -----------
DTS-HD Master Audio             French          1837 kbps       2.0 / 48 kHz /  1837 kbps / 24-bit (DTS Core: 2.0 / 48 kHz /   768 kbps / 24-bit)
FILES:
Name            Time In         Length          Size            Total Bitrate
----            -------         ------          ----            -------------
00006.M2TS      0:00:00.000     0:00:41.280     139,886,592     27,110
CHAPTERS:
Number          Time In         Length          Avg Video Rate  Max 1-Sec Rate  Max 1-Sec Time  Max 5-Sec Rate  Max 5-Sec Time  Max 10Sec Rate  Max 10Sec Time  Avg Frame Size  Max Frame Size  Max Frame Time
------          -------         ------          --------------  --------------  --------------  --------------  --------------  --------------  --------------  --------------  --------------  --------------
1               0:00:00.000     0:00:41.280     23,949 kbps     43,266 kbps     00:00:31.480    32,319 kbps     00:00:22.319    31,150 kbps     00:00:22.320    119,745 bytes   725,234 bytes   00:00:12.039
STREAM DIAGNOSTICS:
File            PID             Type            Codec           Language                Seconds                 Bitrate                 Bytes           Packets
----            ---             ----            -----           --------                --------------          --------------          -------------   -----
00006.M2TS      4113 (0x1011)   0x1B            AVC                                     41.160                  24,019                  123,577,336     672,206
00006.M2TS      4352 (0x1100)   0x86            DTS-HD MA       fra (French)            41.160                  1,842                   9,476,780       54,938


QUICK SUMMARY:
Disc Title: Mylène Farmer 2019
Disc Label: MF19
Disc Size: 44,075,363,927 bytes
Protection: AACS
Playlist: 00009.MPLS
Size: 139,886,592 bytes
Length: 0:00:41.280
Total Bitrate: 27.11 Mbps
Video: MPEG-4 AVC Video / 23949 kbps / 1080i / 25 fps / 16:9 / High Profile 4.1
Audio: French / DTS-HD Master Audio / 2.0 / 48 kHz /  1837 kbps / 24-bit (DTS Core: 2.0 / 48 kHz /   768 kbps / 24-bit)


Скриншоты








                                                                                       
                       
                       
                       
                       
                       
                                磁力下载:(论坛代下载服务)
                                                               
                                       
游客,本主题需向作者支付 7音乐币 才能浏览,金币充值, 免回复、免金币,直接查看内容请开通VIP支付

                                               
  • 41.05 GB
  • 温馨提示

    记得善用社区搜索功能,那里可能会有你想要的资源;论坛站内搜索

    如果你有什么需要的资源可以去资源求档发帖,求助社区的网友,我们会在第一时间给你回复哦;资源求档

    对于本社区网盘链接失效密码错误各种报错请在反馈板块反馈报错发帖,您的支持,是我们发展的最大动力;投诉建议

    回复

    使用道具 举报

    您需要登录后才可以回帖 登录 | 立即注册 微信登录

    本版积分规则

    关注0

    粉丝0

    帖子30176

    发布主题
    阅读排行更多+
    关闭

    站长推荐上一条 /1 下一条

    收藏帖子 返回列表 这是一个自定义按钮
    音乐分享,音乐下载。
    微信公众号
    微信号:hires_
    意见反馈:admin@maomicd.com

    加入我们的官方QQ群和微信群

    Powered by Discuz! X3.4 Archiver|手机版|小黑屋|捌零音乐论坛 ( 苏ICP备20015413号 )|( 苏公网安备 32030502000272号) 繁體

    GMT+8, 2021-5-9 05:41