自购原抓音乐圈:只有自购、合购、原抓级高解析(hires、sacd、dsd)正版音乐资源分享!【点我打开
极速无线网卡:千兆无线网卡、服务器网卡、USB接口台式机笔记本网卡 硬盘代考无损音乐!【点我打开
广告

[流行音乐] Britney Spears – Live From Miami (The Onyx Hotel Tour) [2004, Pop, HDTV, 1080i]

[复制链接]
全球采集 发表于 2021-4-13 15:31:14 | 显示全部楼层 |阅读模式 打印 上一主题 下一主题
Britney Spears – Live From Miami (The Onyx Hotel Tour)
Жанр: Pop
Продолжительность: 1:31:53
Год выпуска: 2004
Описание:
1. "Toxic"
2. "Overprotected" Darkchild Remix
3. "Boys"
4. "Showdown"
5. "...Baby One More Time" Cabaret
6. "Oops!... I Did It Again" Cabaret
7. "(You Drive Me) Crazy" Cabaret
8. "Everytime"
9. "The Hook Up"
10. "I'm A Slave 4 U"
11. "Shadow"
12. "Touch Of My Hand"
13. "Breathe On Me"
14. "Outrageous"
15. "(I Got That) Boom Boom"
16. "Me Against The Music" Remix
Доп. информация: Рекомендуется смотреть в VLC media player. В настройках Видео-Устранение чересстрочности-Вкл.
Источник Звук исправлен путем вырезания 15 секундной заставки (в ней звук 2ch) в начале файла источника: 5.1 каналов, увеличена громкость.
Сэмпл
Качество: HDTV
Разрешение видео/развертка: 1080i
Контейнер: TS
Видео кодек: MPEG2
Аудио кодек: AC3
Видео: MPEG2 Video 1920*1080 (16:9), 14,2 Mbps, 29,970 fps
Аудио: AC3 384kbps 48000Hz 6ch
Отчёт MediaInfo

Общее
Идентификатор                            : 1 (0x1)
Формат                                   : MPEG-TS
Размер файла                             : 9,82 Гбайт
Продолжительность                        : 1 ч. 31 м.
Режим общего битрейта                    : Переменный
Общий поток                              : 15,3 Мбит/сек
Название фильма                          : Britney Spears Live From Miami
Ограничение по возрасту                  : R
Видео
Идентификатор                            : 17 (0x11)
Идентификатор меню                       : 1 (0x1)
Формат                                   : MPEG Video
Версия формата                           : Version 2
Профиль формата                          : Main@High
Параметр BVOP формата                    : Да
Параметр матрицы формата                 : Выборочная
Параметр GOP формата                     : Variable
Структура изображения                    : Frame
Идентификатор кодека                     : 2
Продолжительность                        : 1 ч. 31 м.
Вид битрейта                             : Переменный
Битрейт                                  : 14,2 Мбит/сек
Максимальный битрейт                     : 18,0 Мбит/сек
Ширина                                   : 1920 пикселей
Высота                                   : 1080 пикселей
Соотношение сторон                       : 16:9
Частота кадров                           : 29,970 (30000/1001) кадров/сек
Стандарт вещания                         : Component
Цветовое пространство                    : YUV
Субдискретизация насыщенности            : 4:2:0
Битовая глубина                          : 8 бит
Тип развёртки                            : Чересстрочная
Порядок развёртки                        : Нижнее поле первое
Метод сжатия                             : С потерями
Бит/(Пиксели*Кадры)                      : 0.228
Временной код первого кадра              : 00:00:00;00
Оригинал временного кода                 : Group of pictures header
GOP, открыто/закрыто                     : Открыто
Размер потока                            : 9,09 Гбайт (93%)
Основные цвета                           : BT.709
Характеристики трансфера                 : BT.709
Коэффициенты матрицы                     : BT.709
Аудио
Идентификатор                            : 20 (0x14)
Идентификатор меню                       : 1 (0x1)
Формат                                   : AC-3
Формат/Информация                        : Audio Coding 3
Расширение режима                        : CM (complete main)
Параметр Endianness формата              : Big
Идентификатор кодека                     : 129
Продолжительность                        : 1 ч. 31 м.
Вид битрейта                             : Постоянный
Битрейт                                  : 384 Кбит/сек
Каналы                                   : 6 каналов
Расположение каналов                     : Front: L C R, Side: L R, LFE
Частота                                  : 48,0 КГц
Частота кадров                           : 31,250 кадров/сек (1536 spf)
Метод сжатия                             : С потерями
Задержка видео                           : 27 мс.
Размер потока                            : 252 Мбайт (3%)
Язык                                     : English
Текст #1
Идентификатор                            : 17 (0x11)-CC1
Идентификатор меню                       : 1 (0x1)
Формат                                   : EIA-608
Режим смешивания                         : A/53 / DTVCC Transport
Режим смешивания, доп. информация        : Muxed in Video #1
Продолжительность                        : 1 ч. 31 м.
Вид битрейта                             : Постоянный
Размер потока                            : 0,00 байт (0%)
Текст #2
Идентификатор                            : 17 (0x11)-CC2
Идентификатор меню                       : 1 (0x1)
Формат                                   : EIA-608
Режим смешивания                         : A/53 / DTVCC Transport
Режим смешивания, доп. информация        : Muxed in Video #1
Продолжительность                        : 1 ч. 31 м.
Вид битрейта                             : Постоянный
Размер потока                            : 0,00 байт (0%)
Текст #3
Идентификатор                            : 17 (0x11)-CC3
Идентификатор меню                       : 1 (0x1)
Формат                                   : EIA-608
Режим смешивания                         : A/53 / DTVCC Transport
Режим смешивания, доп. информация        : Muxed in Video #1
Продолжительность                        : 1 ч. 31 м.
Вид битрейта                             : Постоянный
Размер потока                            : 0,00 байт (0%)
Текст #4
Идентификатор                            : 17 (0x11)-CC4
Идентификатор меню                       : 1 (0x1)
Формат                                   : EIA-608
Режим смешивания                         : A/53 / DTVCC Transport
Режим смешивания, доп. информация        : Muxed in Video #1
Продолжительность                        : 1 ч. 31 м.
Вид битрейта                             : Постоянный
Размер потока                            : 0,00 байт (0%)
Текст #5
Идентификатор                            : 17 (0x11)-1
Идентификатор меню                       : 1 (0x1)
Формат                                   : EIA-708
Режим смешивания                         : A/53 / DTVCC Transport
Режим смешивания, доп. информация        : Muxed in Video #1
Продолжительность                        : 1 ч. 31 м.
Вид битрейта                             : Постоянный
Размер потока                            : 0,00 байт (0%)
Текст #6
Идентификатор                            : 17 (0x11)-2
Идентификатор меню                       : 1 (0x1)
Формат                                   : EIA-708
Режим смешивания                         : A/53 / DTVCC Transport
Режим смешивания, доп. информация        : Muxed in Video #1
Продолжительность                        : 1 ч. 31 м.
Вид битрейта                             : Постоянный
Размер потока                            : 0,00 байт (0%)


Скриншоты









                                                                                       
                       
                       
                       
                       
                       
                                磁力下载:
                                                               
                                       
游客,本主题需向作者支付 7音乐币 才能浏览,金币充值, 免回复、免金币,直接查看内容请开通VIP支付

                                               
  • 9.82 GB
  • 温馨提示

    记得善用社区搜索功能,那里可能会有你想要的资源;论坛站内搜索

    如果你有什么需要的资源可以去资源求档发帖,求助社区的网友,我们会在第一时间给你回复哦;资源求档

    对于本社区网盘链接失效密码错误各种报错请在反馈板块反馈报错发帖,您的支持,是我们发展的最大动力;投诉建议

    回复

    使用道具 举报

    您需要登录后才可以回帖 登录 | 立即注册 微信登录

    本版积分规则

    关注0

    粉丝14

    帖子86506

    发布主题
    阅读排行更多+
    关闭

    站长推荐上一条 /1 下一条

    收藏帖子 返回列表 这是一个自定义按钮
    音乐分享,音乐下载。
    微信公众号
    微信号:hires_
    意见反馈:admin@maomicd.com

    加入我们的官方QQ群和微信群

    Powered by Discuz! X3.4 Archiver|手机版|小黑屋|捌零音乐论坛 ( 苏ICP备20015413号 )|( 苏公网安备 32030502000272号) 繁體

    GMT+8, 2021-5-7 01:03