自购原抓音乐圈:只有自购、合购、原抓级高解析(hires、sacd、dsd)正版音乐资源分享!【点我打开
极速无线网卡:千兆无线网卡、服务器网卡、USB接口台式机笔记本网卡 硬盘代考无损音乐!【点我打开
广告

[流行音乐] Tom Jones - Live on Soundstage [2017, Pop, Vocal, Rock'n'Roll, Pop Rock, BDRip, 1080p]

[复制链接]
10086 发表于 2021-4-13 15:31:14 | 显示全部楼层 |阅读模式 打印 上一主题 下一主题
Tom Jones - Live on Soundstage
Жанр: Pop, Vocal, Rock'n'Roll, Pop Rock
Продолжительность: 01:17:25
Год выпуска: 2017
Исполнители: Tom Jones with Alison Krauss and band
Треклист:
1. Tower of Song
2. God's Gonna Cut You Down
3. Strange Things Happening Every Day
4. Delilah
5. Take My Love (I Want to Give It All to You)
6. Opportunity to Cry (with Alison Krauss)
7. Raise a Ruckus (with Alison Krauss)
8. Elvis Presley Blues
9. Soul of a Man
10. If I Give My Soul
11. Burning Hell
12. Don't Knock
13. Didn't It Rain (with Alison Krauss)
14. Green, Green Grass of Home
15. Till My Back Ain't Got No Bone
16. Kiss
17. I Wish You Would
18. Thunderball
19. It's Not Unusual
20. What Good Am I?
Источник Tom Jones - Live on Soundstage [2017, Pop, Vocal, Rock'n'Roll, Pop Rock, Blu-ray, 1080i]
Качество: BDRip
Разрешение видео/развертка: 1080p
Контейнер: MKV
Видео кодек: H.264
Аудио кодек: DTS, FLAC
Видео: AVC, 1920x1080 (16:9), 29.970 fps, 14.0 Mbps
Аудио#1: DTS, 48.0 KHz, 6 ch, 1 510 Kbps
Аудио#2: FLAC, 48.0 KHz, 2 ch, 1 550 Kbps
MediaInfo / x264Log

x264Log

[Information] [21.08.2017 11:04:42] Standard error stream
-[Information] [21.08.2017 11:05:12] raw [info]: 1920x1080p 1:1 @ 30000/1001 fps (cfr)
-[Information] [21.08.2017 11:05:12] x264 [info]: using SAR=1/1
-[Information] [21.08.2017 11:05:12] x264 [info]: using cpu capabilities: MMX2 SSE2Fast SSSE3 SSE4.2 AVX
-[Information] [21.08.2017 11:05:12] x264 [info]: profile High, level 4.1
-[Information] [22.08.2017 3:22:14] x264 [info]: frame I:891   Avg QP:19.27  size:207790
-[Information] [22.08.2017 3:22:14] x264 [info]: frame P:33518 Avg QP:22.13  size: 93381
-[Information] [22.08.2017 3:22:14] x264 [info]: frame B:122779 Avg QP:23.57  size: 47737
-[Information] [22.08.2017 3:22:14] x264 [info]: consecutive B-frames:  0.9%  0.8%  3.6% 39.6% 17.1% 28.1%  5.7%  3.6%  0.4%
-[Information] [22.08.2017 3:22:14] x264 [info]: mb I  I16..4:  4.2% 82.3% 13.5%
-[Information] [22.08.2017 3:22:14] x264 [info]: mb P  I16..4:  0.9% 11.3%  1.1%  P16..4: 37.7% 36.9%  7.4%  0.7%  0.0%    skip: 3.9%
-[Information] [22.08.2017 3:22:14] x264 [info]: mb B  I16..4:  0.1%  1.9%  0.1%  B16..8: 49.0% 16.7%  1.8%  direct: 9.9%  skip:20.4%  L0:45.8% L1:45.9% BI: 8.3%
-[Information] [22.08.2017 3:22:14] x264 [info]: 8x8 transform intra:86.0% inter:69.2%
-[Information] [22.08.2017 3:22:14] x264 [info]: direct mvs  spatial:94.6% temporal:5.4%
-[Information] [22.08.2017 3:22:14] x264 [info]: coded y,uvDC,uvAC intra: 86.4% 70.0% 21.9% inter: 40.0% 38.0% 1.9%
-[Information] [22.08.2017 3:22:14] x264 [info]: i16 v,h,dc,p: 36% 17%  7% 40%
-[Information] [22.08.2017 3:22:14] x264 [info]: i8 v,h,dc,ddl,ddr,vr,hd,vl,hu:  8%  5%  5% 12% 16% 15% 14% 12% 13%
-[Information] [22.08.2017 3:22:14] x264 [info]: i4 v,h,dc,ddl,ddr,vr,hd,vl,hu: 11%  8%  4%  9% 14% 13% 14% 11% 16%
-[Information] [22.08.2017 3:22:14] x264 [info]: i8c dc,h,v,p: 26% 29% 24% 22%
-[Information] [22.08.2017 3:22:14] x264 [info]: Weighted P-Frames: Y:4.3% UV:3.0%
-[Information] [22.08.2017 3:22:14] x264 [info]: ref P L0: 50.3%  9.4% 27.0% 12.9%  0.4%  0.0%
-[Information] [22.08.2017 3:22:14] x264 [info]: ref B L0: 81.1% 15.4%  3.5%
-[Information] [22.08.2017 3:22:14] x264 [info]: ref B L1: 92.1%  7.9%
-[Information] [22.08.2017 3:22:14] x264 [info]: kb/s:13996.57
-[Information] [22.08.2017 3:22:14] encoded 157188 frames, 2.68 fps, 13996.57 kb/s

General
Unique ID                                : 218580033949322328607455645808909453856 (0xA470FBB71CAE07599C1E2718E48D8A20)
Complete name                            : G:\Tom Jones-Live on Soundstage.2017.BDRip1080p.mkv
Format                                   : Matroska
Format version                           : Version 2
File size                                : 10.4 GiB
Duration                                 : 1 h 27 min
Overall bit rate mode                    : Variable
Overall bit rate                         : 17.1 Mb/s
Movie name                               : Tom Jones-Live on Soundstage.2017.BDRip1080p @ rutracker.org
Encoded date                             : UTC 2017-08-22 06:01:18
Writing application                      : mkvmerge v9.8.0 ('Kuglblids') 64bit
Writing library                          : libebml v1.3.4 + libmatroska v1.4.5
Video
ID                                       : 1
Format                                   : AVC
Format/Info                              : Advanced Video Codec
Format profile                           : High@L4.1
Format settings, CABAC                   : Yes
Format settings, RefFrames               : 4 frames
Codec ID                                 : V_MPEG4/ISO/AVC
Duration                                 : 1 h 27 min
Bit rate                                 : 14.0 Mb/s
Width                                    : 1 920 pixels
Height                                   : 1 080 pixels
Display aspect ratio                     : 16:9
Frame rate mode                          : Constant
Frame rate                               : 29.970 (30000/1001) FPS
Color space                              : YUV
Chroma subsampling                       : 4:2:0
Bit depth                                : 8 bits
Scan type                                : Progressive
Bits/(Pixel*Frame)                       : 0.225
Stream size                              : 8.55 GiB (82%)
Title                                    : anbelk27 @ rutracker.org
Writing library                          : x264 core 148 r2744 b97ae06
Encoding settings                        : cabac=1 / ref=4 / deblock=1:-1:-1 / analyse=0x3:0x133 / me=umh / subme=11 / psy=1 / psy_rd=1.05:0.07 / mixed_ref=1 / me_range=32 / chroma_me=1 / trellis=2 / 8x8dct=1 / cqm=0 / deadzone=21,11 / fast_pskip=1 / chroma_qp_offset=-3 / threads=6 / lookahead_threads=1 / sliced_threads=0 / nr=0 / decimate=1 / interlaced=0 / bluray_compat=0 / constrained_intra=0 / bframes=8 / b_pyramid=2 / b_adapt=2 / b_bias=0 / direct=3 / weightb=1 / open_gop=0 / weightp=2 / keyint=300 / keyint_min=29 / scenecut=50 / intra_refresh=0 / rc_lookahead=60 / rc=2pass / mbtree=1 / bitrate=14000 / ratetol=1.0 / qcomp=0.60 / qpmin=0 / qpmax=69 / qpstep=4 / cplxblur=20.0 / qblur=0.5 / vbv_maxrate=50000 / vbv_bufsize=62500 / nal_hrd=none / filler=0 / ip_ratio=1.40 / aq=1:1.00
Default                                  : Yes
Forced                                   : No
Audio #1
ID                                       : 2
Format                                   : DTS
Format/Info                              : Digital Theater Systems
Mode                                     : 16
Format settings, Endianness              : Big
Codec ID                                 : A_DTS
Duration                                 : 1 h 27 min
Bit rate mode                            : Constant
Bit rate                                 : 1 509 kb/s
Channel(s)                               : 6 channels
Channel positions                        : Front: L C R, Side: L R, LFE
Sampling rate                            : 48.0 kHz
Frame rate                               : 93.750 FPS (512 SPF)
Bit depth                                : 24 bits
Compression mode                         : Lossy
Stream size                              : 943 MiB (9%)
Title                                    : DTS 5.1 @ 24 bit
Default                                  : Yes
Forced                                   : No
Audio #2
ID                                       : 3
Format                                   : FLAC
Format/Info                              : Free Lossless Audio Codec
Codec ID                                 : A_FLAC
Duration                                 : 1 h 27 min
Bit rate mode                            : Variable
Bit rate                                 : 1 550 kb/s
Channel(s)                               : 2 channels
Channel positions                        : Front: L R
Sampling rate                            : 48.0 kHz
Frame rate                               : 11.719 FPS (4096 SPF)
Bit depth                                : 24 bits
Stream size                              : 969 MiB (9%)
Title                                    : FLAC 2.0 @ 24 bit
Writing library                          : libFLAC 1.2.1 (UTC 2007-09-17)
Default                                  : No
Forced                                   : No
Menu
00:00:00.000                             : en:   Intro
00:00:40.240                             : en: 1. Tower of Song
00:05:35.402                             : en: 2. God's Gonna Cut You Down
00:10:45.311                             : en: 3. Strange Things Happening Every Day
00:15:32.632                             : en: 4. Delilah
00:20:09.308                             : en: 5. Take My Love (I Want to Give It All to You)
00:24:19.625                             : en: 6. Opportunity to Cry (with Alison Krauss)
00:27:07.793                             : en: 7. Raise a Ruckus (with Alison Krauss)
00:31:18.910                             : en: 8. Elvis Presley Blues
00:35:42.173                             : en: 9. Soul of a Man
00:39:58.463                             : en: 10. If I Give My Soul
00:43:59.103                             : en: 11. Burning Hell
00:47:55.740                             : en: 12. Don't Knock
00:50:41.772                             : en: 13. Didn't It Rain (with Alison Krauss)
00:55:07.371                             : en: 14. Green, Green Grass of Home
00:58:40.617                             : en: 15. Till My Back Ain't Got No Bone
01:03:07.317                             : en: 16. Kiss
01:08:18.661                             : en: 17. I Wish You Would
01:13:33.976                             : en: 18. Thunderball
01:16:58.714                             : en: 19. It's Not Unusual
01:21:22.945                             : en: 20. What Good Am I?
01:26:14.069                             : en:  Credits

Скриншоты











                                                                                       
                       
                       
                       
                       
                       
                                磁力下载:
                                                               
                                       
游客,本主题需向作者支付 7音乐币 才能浏览,金币充值, 免回复、免金币,直接查看内容请开通VIP支付

                                               
  • 10.42 GB
  • 温馨提示

    记得善用社区搜索功能,那里可能会有你想要的资源;论坛站内搜索

    如果你有什么需要的资源可以去资源求档发帖,求助社区的网友,我们会在第一时间给你回复哦;资源求档

    对于本社区网盘链接失效密码错误各种报错请在反馈板块反馈报错发帖,您的支持,是我们发展的最大动力;投诉建议

    回复

    使用道具 举报

    您需要登录后才可以回帖 登录 | 立即注册 微信登录

    本版积分规则

    关注0

    粉丝4

    帖子51182

    发布主题
    阅读排行更多+
    关闭

    站长推荐上一条 /1 下一条

    收藏帖子 返回列表 这是一个自定义按钮
    音乐分享,音乐下载。
    微信公众号
    微信号:hires_
    意见反馈:admin@maomicd.com

    加入我们的官方QQ群和微信群

    Powered by Discuz! X3.4 Archiver|手机版|小黑屋|捌零音乐论坛 ( 苏ICP备20015413号 )|( 苏公网安备 32030502000272号) 繁體

    GMT+8, 2021-5-6 09:22