自购原抓音乐圈:只有自购、合购、原抓级高解析(hires、sacd、dsd)正版音乐资源分享!【点我打开
极速无线网卡:千兆无线网卡、服务器网卡、USB接口台式机笔记本网卡 硬盘代考无损音乐!【点我打开
广告

[流行音乐] Sarah Brightman - Dreamchaser In Concert [2013, Pop, Classical, Crossover, Opera, BDRip 1080p]

[复制链接]
韬199435 发表于 2021-4-13 15:31:14 | 显示全部楼层 |阅读模式 打印 上一主题 下一主题
Sarah Brightman
Dreamchaser In Concert
Жанр: Pop, Classical, Crossover, Opera
Место и дата записи концерта: The George Lucas Stage, Elstree Studios, Borehamwood, Hertfordshire, UK – июнь 2013 г.
Продолжительность: 00:57:07
Release Group: WiKi
Треклист:
[01] Angel
[02] One Day Like This
[03] Eperdu
[04] Ave Maria
[05] Closer
[06] Glosoli
[07] Kaze No Torimichi
[08] Nessun Dorma
[09] A Song Of India
[10] Venus And Mars
[11] The Phantom Of The Opera
[12] Deliver Me
Качество: BDRip 1080p
Контейнер: MKV
Видеокодек: MPEG-4 AVC
Аудиокодек: DTS
Видео: | ~12500 kbps | 1920x1080 | 23.976 fps | 16:9 | MPEG-4 AVC
Аудио: | 5.1 | 48 kHz | 1509 kbps | 24-bit | DTS
MediaInfoXP

General
Unique ID                                : 223075931970058790180975460344097544686 (0xA7D2DC9A07DEC27CAF8B0954C47A19EE)
Complete name                            : E:\Sarah.Brightman.Dreamchaser.In.Concert.2013.1080p.BluRay.DTS.x264-WiKi.mkv
Format                                   : Matroska
Format version                           : Version 2
File size                                : 5.59 GiB
Duration                                 : 57mn 7s
Overall bit rate                         : 14.0 Mbps
Encoded date                             : UTC 2013-12-27 04:58:22
Writing application                      : mkvmerge v5.8.0 ('No Sleep / Pillow') built on Sep  2 2012 15:37:04
Writing library                          : libebml v1.2.3 + libmatroska v1.3.0
Video
ID                                       : 1
Format                                   : AVC
Format/Info                              : Advanced Video Codec
Format profile                           : High@L4.1
Format settings, CABAC                   : Yes
Format settings, ReFrames                : 4 frames
Codec ID                                 : V_MPEG4/ISO/AVC
Duration                                 : 57mn 7s
Bit rate                                 : 12.5 Mbps
Width                                    : 1 920 pixels
Height                                   : 1 080 pixels
Display aspect ratio                     : 16:9
Frame rate mode                          : Constant
Frame rate                               : 23.976 fps
Color space                              : YUV
Chroma subsampling                       : 4:2:0
Bit depth                                : 8 bits
Scan type                                : Progressive
Bits/(Pixel*Frame)                       : 0.251
Stream size                              : 4.88 GiB (87%)
Writing library                          : x264 core 136 r2348+704+51 d1baef6 tMod [8-bit@all X86_64]
Encoding settings                        : cabac=1 / ref=4 / deblock=1:-3:-3 / analyse=0x3:0x133 / me=umh / subme=11 / psy=1 / fade_compensate=0.00 / psy_rd=0.85:0.10 / mixed_ref=1 / me_range=64 / chroma_me=1 / trellis=2 / 8x8dct=1 / cqm=0 / deadzone=21,11 / fast_pskip=0 / chroma_qp_offset=-3 / threads=12 / lookahead_threads=2 / sliced_threads=0 / nr=0 / decimate=0 / interlaced=0 / bluray_compat=0 / constrained_intra=0 / fgo=0 / bframes=8 / b_pyramid=2 / b_adapt=2 / b_bias=0 / direct=3 / weightb=1 / open_gop=0 / weightp=2 / keyint=250 / keyint_min=23 / scenecut=40 / intra_refresh=0 / rc_lookahead=150 / rc=2pass / mbtree=0 / bitrate=12500 / ratetol=1.0 / qcomp=0.70 / qpmin=0:0:0 / qpmax=69:69:69 / qpstep=4 / cplxblur=20.0 / qblur=0.5 / vbv_maxrate=50000 / vbv_bufsize=50000 / nal_hrd=none / ip_ratio=1.40 / pb_ratio=1.30 / aq=1:0.75 / aq-sensitivity=10.00 / aq-factor=1.00:1.00:1.00 / aq2=0 / aq3=0
Language                                 : English
Default                                  : Yes
Forced                                   : No
Matrix coefficients                      : BT.709
Color range                              : Limited
Audio
ID                                       : 2
Format                                   : DTS
Format/Info                              : Digital Theater Systems
Mode                                     : 16
Format settings, Endianness              : Big
Codec ID                                 : A_DTS
Duration                                 : 57mn 7s
Bit rate mode                            : Constant
Bit rate                                 : 1 509 Kbps
Channel(s)                               : 6 channels
Channel positions                        : Front: L C R, Side: L R, LFE
Sampling rate                            : 48.0 KHz
Bit depth                                : 24 bits
Compression mode                         : Lossy
Stream size                              : 617 MiB (11%)
Language                                 : English
Default                                  : Yes
Forced                                   : No
Menu
00:00:00.000                             : :Angel
00:05:16.357                             : :One Day Like This
00:09:26.565                             : :Eperdu
00:14:41.881                             : :Ave Maria
00:20:47.120                             : :Closer
00:27:02.620                             : :Glossoli
00:33:12.991                             : :Kaze No Torimichi
00:37:30.331                             : :Nessun Dorma
00:41:02.459                             : :Song Of India
00:44:42.805                             : :Venus And Mars
00:49:20.582                             : :Phantom Of The Opera
00:54:27.764                             : :Deliver Me


Скриншоты





                                                                                       
                       
                       
                       
                       
                       
                                磁力下载:(论坛代下载服务)
                                                               
                                       
游客,本主题需向作者支付 7音乐币 才能浏览,金币充值, 免回复、免金币,直接查看内容请开通VIP支付

                                               
  • 5.59 GB
  • 温馨提示

    记得善用社区搜索功能,那里可能会有你想要的资源;论坛站内搜索

    如果你有什么需要的资源可以去资源求档发帖,求助社区的网友,我们会在第一时间给你回复哦;资源求档

    对于本社区网盘链接失效密码错误各种报错请在反馈板块反馈报错发帖,您的支持,是我们发展的最大动力;投诉建议

    回复

    使用道具 举报

    您需要登录后才可以回帖 登录 | 立即注册 微信登录

    本版积分规则

    关注0

    粉丝0

    帖子30176

    发布主题
    阅读排行更多+
    关闭

    站长推荐上一条 /1 下一条

    收藏帖子 返回列表 这是一个自定义按钮
    音乐分享,音乐下载。
    微信公众号
    微信号:hires_
    意见反馈:admin@maomicd.com

    加入我们的官方QQ群和微信群

    Powered by Discuz! X3.4 Archiver|手机版|小黑屋|捌零音乐论坛 ( 苏ICP备20015413号 )|( 苏公网安备 32030502000272号) 繁體

    GMT+8, 2021-5-9 06:52