自购原抓音乐圈:只有自购、合购、原抓级高解析(hires、sacd、dsd)正版音乐资源分享!【点我打开
极速无线网卡:千兆无线网卡、服务器网卡、USB接口台式机笔记本网卡 硬盘代考无损音乐!【点我打开
广告

[流行音乐] Bebe Rexha & Doja Cat • Baby, I'm Jealous (American Music Awards) [2020, Pop, HDTV, 720p]

[复制链接]
kayda 发表于 2021-4-13 15:31:13 | 显示全部楼层 |阅读模式 打印 上一主题 下一主题
Bebe Rexha & Doja Cat
Baby, I'm Jealous

feed
Жанр: Pop
Продолжительность: 00:03:17
Год выпуска: 2020
Качество: HDTV
Разрешение видео/развертка: 720p
Контейнер: MKV
Видео кодек: H.264
Аудио кодек: MP2
Видео: MPEG4 Video (H264) 1280x720 59.94fps 30.0 Mb/s
Аудио 1: MPEG Audio 48000Hz stereo 384kbps
Аудио 2: PCM 48000Hz 6ch 4608kbps
Отчёт MediaInfo / BDInfo

General
Unique ID                      : 127314210011099954777013965789488204165 (0x5FC7D32F4F46780B8B5538562B37C985)
Complete name                  : F:\15 Bebe Rexha & Doja Cat - Baby, I'm Jealous - American Music Awards S01E48 2020 720p HDTV Backhaul FLAC 5.1 H.264-TrollHD (1).mkv
Format                         : Matroska
Format version                 : Version 4
File size                      : 823 MiB
Duration                       : 3 min 17 s
Overall bit rate               : 35.0 Mb/s
Encoded date                   : UTC 2020-11-27 04:03:08
Writing application            : mkvmerge v51.0.0 ('I Wish') 64-bit
Writing library                : libebml v1.4.0 + libmatroska v1.6.2
Video
ID                             : 1
Format                         : AVC
Format/Info                    : Advanced Video Codec
Format profile                 : High@L4.1
Format settings                : CABAC / 6 Ref Frames
Format settings, CABAC         : Yes
Format settings, Reference fra : 6 frames
Format settings, GOP           : M=4, N=64
Codec ID                       : V_MPEG4/ISO/AVC
Duration                       : 3 min 17 s
Bit rate                       : 30.0 Mb/s
Width                          : 1 280 pixels
Height                         : 720 pixels
Display aspect ratio           : 16:9
Frame rate mode                : Constant
Frame rate                     : 59.940 (60000/1001) FPS
Color space                    : YUV
Chroma subsampling             : 4:2:0
Bit depth                      : 8 bits
Scan type                      : Progressive
Bits/(Pixel*Frame)             : 0.542
Stream size                    : 706 MiB (86%)
Default                        : Yes
Forced                         : No
Color range                    : Limited
Color primaries                : BT.709
Transfer characteristics       : BT.709
Matrix coefficients            : BT.709
Audio #1
ID                             : 2
Format                         : MPEG Audio
Format version                 : Version 1
Format profile                 : Layer 2
Format settings                : Dual mono
Codec ID                       : A_MPEG/L2
Codec ID/Hint                  : MP2
Duration                       : 3 min 17 s
Bit rate mode                  : Constant
Bit rate                       : 384 kb/s
Channel(s)                     : 2 channels
Sampling rate                  : 48.0 kHz
Frame rate                     : 41.667 FPS (1152 SPF)
Compression mode               : Lossy
Delay relative to video        : 70 ms
Stream size                    : 9.04 MiB (1%)
Language                       : English
Default                        : Yes
Forced                         : No
Audio #2
ID                             : 3
Format                         : PCM
Format settings                : Little / Signed
Codec ID                       : A_PCM/INT/LIT
Duration                       : 3 min 17 s
Bit rate mode                  : Constant
Bit rate                       : 4 608 kb/s
Channel(s)                     : 6 channels
Sampling rate                  : 48.0 kHz
Frame rate                     : 32.003 FPS (1500 SPF)
Bit depth                      : 16 bits
Stream size                    : 109 MiB (13%)
Default                        : No
Forced                         : No


Скриншоты







Мои раздачи ®
https://rutracker.org/forum/https://rutracker.net/forum/tracker.php?rid=9539252

5 дней на раздаче!


                                                                                       
                       
                       
                       
                       
                       
                                磁力下载:(论坛代下载服务)
                                                               
                                       
游客,本主题需向作者支付 7音乐币 才能浏览,金币充值, 免回复、免金币,直接查看内容请开通VIP支付

                                               
  • 823.3 MB
  • 温馨提示

    记得善用社区搜索功能,那里可能会有你想要的资源;论坛站内搜索

    如果你有什么需要的资源可以去资源求档发帖,求助社区的网友,我们会在第一时间给你回复哦;资源求档

    对于本社区网盘链接失效密码错误各种报错请在反馈板块反馈报错发帖,您的支持,是我们发展的最大动力;投诉建议

    回复

    使用道具 举报

    您需要登录后才可以回帖 登录 | 立即注册 微信登录

    本版积分规则

    关注0

    粉丝0

    帖子30073

    发布主题
    阅读排行更多+
    关闭

    站长推荐上一条 /1 下一条

    收藏帖子 返回列表 这是一个自定义按钮
    音乐分享,音乐下载。
    微信公众号
    微信号:hires_
    意见反馈:admin@maomicd.com

    加入我们的官方QQ群和微信群

    Powered by Discuz! X3.4 Archiver|手机版|小黑屋|捌零音乐论坛 ( 苏ICP备20015413号 )|( 苏公网安备 32030502000272号) 繁體

    GMT+8, 2021-5-8 23:38