自购原抓音乐圈:只有自购、合购、原抓级高解析(hires、sacd、dsd)正版音乐资源分享!【点我打开
极速无线网卡:千兆无线网卡、服务器网卡、USB接口台式机笔记本网卡 硬盘代考无损音乐!【点我打开
广告

[流行音乐] Bebe Rexha feat. Doja Cat • Baby, I'm Jealous (The Tonight Show Starring Jimmy Fallon) [2020, Pop, HDTV, 1080i]

[复制链接]
elmisy 发表于 2021-4-13 15:31:13 | 显示全部楼层 |阅读模式 打印 上一主题 下一主题
Bebe Rexha feat. Doja Cat
Baby, I'm Jealous



Жанр: Pop
Продолжительность: 00:03:06
Год выпуска: 2020
Качество: HDTV
Разрешение видео/развертка: 1080i
Контейнер: TS
Видео кодек: MPEG2
Аудио кодек: AC3
Видео: MPEG2 Video 1920x1080 29.97fps 11.8 Mb/s
Аудио: Dolby AC3 48000Hz stereo 384kbps
Отчёт MediaInfo / BDInfo

General
ID                             : 1 (0x1)
Complete name                  : G:\Bebe Rexha feat. Doja Cat - Baby, I'm Jealous 2020.ts
Format                         : MPEG-TS
File size                      : 285 MiB
Duration                       : 3 min 6 s
Overall bit rate mode          : Variable
Overall bit rate               : 12.8 Mb/s
Maximum Overall bit rate       : 35.5 Mb/s
Movie name                     : Tonight Show Jimmy Fallon
Law rating                     : TV-14 (L)
Video
ID                             : 4113 (0x1011)
Menu ID                        : 1 (0x1)
Format                         : MPEG Video
Format version                 : Version 2
Format profile                 : Main@High
Format settings                : CustomMatrix / BVOP
Format settings, BVOP          : Yes
Format settings, Matrix        : Custom
Format settings, GOP           : Variable
Format settings, picture struc : Frame
Codec ID                       : 2
Duration                       : 3 min 6 s
Bit rate mode                  : Variable
Bit rate                       : 11.8 Mb/s
Maximum bit rate               : 15.6 Mb/s
Width                          : 1 920 pixels
Height                         : 1 080 pixels
Display aspect ratio           : 16:9
Active Format Description      : Full frame 16:9 image
Frame rate                     : 29.970 (30000/1001) FPS
Color space                    : YUV
Chroma subsampling             : 4:2:0
Bit depth                      : 8 bits
Scan type                      : Interlaced
Scan order                     : Top Field First
Compression mode               : Lossy
Bits/(Pixel*Frame)             : 0.190
Time code of first frame       : 19:33:41;07
Time code source               : Group of pictures header
GOP, Open/Closed               : Open
Stream size                    : 263 MiB (92%)
Audio
ID                             : 4352 (0x1100)
Menu ID                        : 1 (0x1)
Format                         : AC-3
Format/Info                    : Audio Coding 3
Commercial name                : Dolby Digital
Codec ID                       : 129
Duration                       : 3 min 5 s
Bit rate mode                  : Constant
Bit rate                       : 384 kb/s
Channel(s)                     : 2 channels
Channel layout                 : L R
Sampling rate                  : 48.0 kHz
Frame rate                     : 31.250 FPS (1536 SPF)
Compression mode               : Lossy
Delay relative to video        : -33 ms
Stream size                    : 8.51 MiB (3%)
Service kind                   : Complete Main


Скриншоты







Мои раздачи ®
https://rutracker.org/forum/https://rutracker.net/forum/tracker.php?rid=9539252

5 дней на раздаче!


                                                                                       
                       
                       
                       
                       
                       
                                磁力下载:
                                                               
                                       
游客,本主题需向作者支付 7音乐币 才能浏览,金币充值, 免回复、免金币,直接查看内容请开通VIP支付

                                               
  • 285.2 MB
  • 温馨提示

    记得善用社区搜索功能,那里可能会有你想要的资源;论坛站内搜索

    如果你有什么需要的资源可以去资源求档发帖,求助社区的网友,我们会在第一时间给你回复哦;资源求档

    对于本社区网盘链接失效密码错误各种报错请在反馈板块反馈报错发帖,您的支持,是我们发展的最大动力;投诉建议

    回复

    使用道具 举报

    您需要登录后才可以回帖 登录 | 立即注册 微信登录

    本版积分规则

    关注0

    粉丝1

    帖子29564

    发布主题
    阅读排行更多+
    关闭

    站长推荐上一条 /1 下一条

    收藏帖子 返回列表 这是一个自定义按钮
    音乐分享,音乐下载。
    微信公众号
    微信号:hires_
    意见反馈:admin@maomicd.com

    加入我们的官方QQ群和微信群

    Powered by Discuz! X3.4 Archiver|手机版|小黑屋|捌零音乐论坛 ( 苏ICP备20015413号 )|( 苏公网安备 32030502000272号) 繁體

    GMT+8, 2021-5-6 23:54