自购原抓音乐圈:只有自购、合购、原抓级高解析(hires、sacd、dsd)正版音乐资源分享!【点我打开
极速无线网卡:千兆无线网卡、服务器网卡、USB接口台式机笔记本网卡 硬盘代考无损音乐!【点我打开
广告

[流行音乐] Ariana Grande, Miley Cyrus, Lana Del Rey • Don’t Call Me Angel [2019, Pop, Master, 1080p]

[复制链接]
10086 发表于 2021-4-13 15:31:13 | 显示全部楼层 |阅读模式 打印 上一主题 下一主题
Ariana Grande, Miley Cyrus, Lana Del Rey
Don’t Call Me Angel

Жанр: Pop
Продолжительность: 00:03:51
Год выпуска: 2019
Качество: Master
Разрешение видео/развертка: 1080p
Контейнер: MOV
Видео кодек: APCH
Аудио кодек: PCM
Видео: APCH 1920x1080 23.976fps 170 Mb/s
Аудио: PCM 48000Hz stereo 1536kbps
Отчёт MediaInfo / BDInfo

General
Complete name                  : E:\Ariana Grande, Miley Cyrus, Lana Del Rey - Don’t Call Me Angel.mov
Format                         : MPEG-4
Format profile                 : QuickTime
Codec ID                       : qt   2005.03 (qt  )
File size                      : 4.62 GiB
Duration                       : 3 min 51 s
Overall bit rate mode          : Variable
Overall bit rate               : 171 Mb/s
Encoded date                   : UTC 2019-09-04 18:24:40
Tagged date                    : UTC 2019-09-04 18:25:29
Writing library                : Apple QuickTime
TIM                            : 01:04:39:12
TSC                            : 24000
TSZ                            : 1001
Video
ID                             : 1
Format                         : ProRes
Format version                 : Version 0
Format profile                 : 422 HQ
Codec ID                       : apch
Duration                       : 3 min 51 s
Bit rate mode                  : Variable
Bit rate                       : 170 Mb/s
Width                          : 1 920 pixels
Height                         : 1 080 pixels
Display aspect ratio           : 16:9
Frame rate mode                : Constant
Frame rate                     : 23.976 (24000/1001) FPS
Color space                    : YUV
Chroma subsampling             : 4:2:2
Scan type                      : Progressive
Bits/(Pixel*Frame)             : 3.414
Stream size                    : 4.58 GiB (99%)
Writing library                : Apple
Language                       : English
Encoded date                   : UTC 2019-09-04 18:24:40
Tagged date                    : UTC 2019-09-04 18:24:40
Color primaries                : BT.709
Transfer characteristics       : BT.709
Matrix coefficients            : BT.709
Menus                          : 0
Audio
ID                             : 2
Format                         : PCM
Format settings                : Little / Signed
Codec ID                       : sowt
Duration                       : 3 min 51 s
Bit rate mode                  : Constant
Bit rate                       : 1 536 kb/s
Channel(s)                     : 2 channels
Channel layout                 : L R
Sampling rate                  : 48.0 kHz
Bit depth                      : 16 bits
Stream size                    : 42.4 MiB (1%)
Language                       : English
Encoded date                   : UTC 2019-09-04 18:24:40
Tagged date                    : UTC 2019-09-04 18:24:40
Menus                          : 0


Скриншоты












Мои раздачи ®
https://rutracker.org/forum/https://rutracker.net/forum/tracker.php?rid=9539252

5 дней на раздаче!


                                                                                       
                       
                       
                       
                       
                       
                                磁力下载:(论坛代下载服务)
                                                               
                                       
游客,本主题需向作者支付 7音乐币 才能浏览,金币充值, 免回复、免金币,直接查看内容请开通VIP支付

                                               
  • 4.62 GB
  • 温馨提示

    记得善用社区搜索功能,那里可能会有你想要的资源;论坛站内搜索

    如果你有什么需要的资源可以去资源求档发帖,求助社区的网友,我们会在第一时间给你回复哦;资源求档

    对于本社区网盘链接失效密码错误各种报错请在反馈板块反馈报错发帖,您的支持,是我们发展的最大动力;投诉建议

    回复

    使用道具 举报

    您需要登录后才可以回帖 登录 | 立即注册 微信登录

    本版积分规则

    关注0

    粉丝4

    帖子51182

    发布主题
    阅读排行更多+
    关闭

    站长推荐上一条 /1 下一条

    收藏帖子 返回列表 这是一个自定义按钮
    音乐分享,音乐下载。
    微信公众号
    微信号:hires_
    意见反馈:admin@maomicd.com

    加入我们的官方QQ群和微信群

    Powered by Discuz! X3.4 Archiver|手机版|小黑屋|捌零音乐论坛 ( 苏ICP备20015413号 )|( 苏公网安备 32030502000272号) 繁體

    GMT+8, 2021-5-9 05:44