自购原抓音乐圈:只有自购、合购、原抓级高解析(hires、sacd、dsd)正版音乐资源分享!【点我打开
极速无线网卡:千兆无线网卡、服务器网卡、USB接口台式机笔记本网卡 千兆网线 厂家批发价格最低!【点我打开
广告

[华语] 原抓:左卡乐队 《我听见世界在说个不停》2014/WAV整轨/BD

[复制链接]
洛杉矶 发表于 2021-3-18 09:33:06 | 显示全部楼层 |阅读模式 打印 上一主题 下一主题
曲目  · · · · · ·
1. If Today Was Your Last Day
2. 给朱莉叶的信
3. Day Dreaming
4. 再见童话
5. 夏天的情歌
6. Beautiful Day
7. 姑娘姑娘(新版)
8. 太阳和野花
9. 现实的恩赐
10. 蚂蚁不知道
11. 冰冷的圈套
本帖隐藏的内容
游客,本主题需向作者支付 6金币 才能浏览,金币充值, 免回复、免金币,直接查看内容请开通VIP支付

复制这段内容后打开百度网盘手机App,操作更方便哦--来自百度网盘超级会员V7的分享



  • Exact Audio Copy V1.5 from 20. February 2020
  • EAC 抓取日志文件从2. 十二月 2020, 1:18
  • 左卡乐队 / 我听见世界在说个不停
  • 使用驱动器  :PLEXTOR CD-R   PX-W2410A   Adapter: 1  ID: 2
  • 读取模式      : 可靠Secure
  • 使用精确流     : 是
  • 清空音频缓存    : 是
  • 使用 C2 指示器 : 否
  • 读取偏移校正:               : 98
  • 读取 Lead-In 和 Lead-Out : 否
  • 用静音填充抓取中丢失偏移的采样       : 是
  • 去除首尾静音块               : 否
  • 在CRC 计算中使用了空样本       : 是
  • 已用接口                  : Win NT 及 2000 本地 Win32 接口
  • 所用输出模式: : 内部 WAV 函数
  • 样本格式    : 44.100 Hz; 16 Bit; 立体声
  • 已抓取 CD 的 TOC
  •      音轨 |    起始    |    长度    |  起始扇区  |  结束扇区
  •     --------------------------------------------
  •       1 |  0:00.00 |  4:45.00 |      0 |  21374
  •       2 |  4:45.00 |  5:01.58 |  21375 |  44007
  •       3 |  9:46.58 |  4:50.00 |  44008 |  65757
  •       4 | 14:36.58 |  4:59.18 |  65758 |  88200
  •       5 | 19:36.01 |  4:08.13 |  88201 | 106813
  •       6 | 23:44.14 |  4:01.09 | 106814 | 124897
  •       7 | 27:45.23 |  3:22.40 | 124898 | 140087
  •       8 | 31:07.63 |  4:47.38 | 140088 | 161650
  •       9 | 35:55.26 |  3:34.73 | 161651 | 177773
  •      10 | 39:30.24 |  3:58.50 | 177774 | 195673
  •      11 | 43:28.74 |  4:26.18 | 195674 | 215641
  • 范围状态及错误
  • 已选择范围
  •      文件名 I:\EAC\左卡乐队 - 2014《我听见世界在说个不停》[WAV整轨]\左卡乐队 - 我听见世界在说个不停.wav
  •      峰值电平 100.0 %
  •      抓取速度 3.8 X
  •      范围质量 100.0 %
  •      复制 CRC 7BD6CFA6
  •      复制成功
  • 没有错误发生
  • AccurateRip 摘要
  • 音轨  1  在数据库中不存在
  • 音轨  2  在数据库中不存在
  • 音轨  3  在数据库中不存在
  • 音轨  4  在数据库中不存在
  • 音轨  5  在数据库中不存在
  • 音轨  6  在数据库中不存在
  • 音轨  7  在数据库中不存在
  • 音轨  8  在数据库中不存在
  • 音轨  9  在数据库中不存在
  • 音轨 10  在数据库中不存在
  • 音轨 11  在数据库中不存在
  • 没有任何音轨在 AccurateRip 数据库中有记录
  • 状态报告结尾
  • ---- CUETools DB Plugin V2.1.6
  • [CTDB TOCID: K1Mt_7Ou2ekLv06e4sJz3wVeTWA-] found
  • Submit result: K1Mt_7Ou2ekLv06e4sJz3wVeTWA- has been confirmed
  • Track | CTDB Status
  •   1   | (2/2) Accurately ripped
  •   2   | (2/2) Accurately ripped
  •   3   | (2/2) Accurately ripped
  •   4   | (2/2) Accurately ripped
  •   5   | (2/2) Accurately ripped
  •   6   | (2/2) Accurately ripped
  •   7   | (2/2) Accurately ripped
  •   8   | (2/2) Accurately ripped
  •   9   | (2/2) Accurately ripped
  • 10   | (2/2) Accurately ripped
  • 11   | (2/2) Accurately ripped
  • ==== 记录校验日志 8BBFF5F7FE5FDD94D110456FECAAE5EB2BBA46B9394B50D5D47544A3787C3959 ====

复制代码

温馨提示

记得善用社区搜索功能,那里可能会有你想要的资源;论坛站内搜索

如果你有什么需要的资源可以去资源求档发帖,求助社区的网友,我们会在第一时间给你回复哦;资源求档

对于本社区网盘链接失效密码错误各种报错请在反馈板块反馈报错发帖,您的支持,是我们发展的最大动力;投诉建议

回复

使用道具 举报

您需要登录后才可以回帖 登录 | 立即注册 微信登录

本版积分规则

关注3

粉丝12

帖子7413

发布主题
阅读排行更多+
关闭

站长推荐上一条 /1 下一条

收藏帖子 返回列表 这是一个自定义按钮
音乐分享,音乐下载。
微信公众号
微信号:maomiyinyue
意见反馈:admin@maomicd.com

加入我们的官方QQ群和微信群

Powered by Discuz! X3.4 Archiver|手机版|小黑屋|猫咪音乐网 ( 苏ICP备20015413号 )|( 苏公网安备 32030502000272号) 繁體

JS of wanmeiff.com and vcpic.com Please keep this copyright information, respect of, thank you!JS of wanmeiff.com and vcpic.com Please keep this copyright information, respect of, thank you!

GMT+8, 2021-4-16 08:32